#TITLE:CHERRY CHERRY;
#SUBTITLE:(Super Boom Boom Mix);
#ARTIST:KARISMA;
#TITLETRANSLIT:;
#SUBTITLETRANSLIT:;
#ARTISTTRANSLIT:;
#GENRE:;
#CREDIT:B. M'Rey;
#MUSIC:CHERRY CHERRY (Super Boom Boom Mix).ogg;
#BANNER:CHERRY CHERRY (Super Boom Boom Mix).png;
#BACKGROUND:CHERRY CHERRY (Super Boom Boom Mix)-bg.png;
#CDTITLE:./CDTITLES/LOVE PARA²/PRESENTS DONKIPARA.png;
#SAMPLESTART:61.134;
#SAMPLELENGTH:12.000;
#SELECTABLE:YES;
#OFFSET:-0.375;
#BPMS:0.000=159.976;
#STOPS:;
#BGCHANGES:;
#FGCHANGES:;

//--------------- dance-single - B. M'Rey ----------------
#NOTES:
     dance-single:
     B. M'Rey:
     Beginner:
     2:
     0.155484,0.189231,0,0,0,110,110,0,0,0,0,0.155484,0.189231,0,0,0,110,110,0,0,0,0:
0000
0000
0000
0000
,
0000
0000
0000
0000
,
0000
0000
0000
0000
,
0000
0000
0000
0000
,
0000
0000
0000
0000
,
0000
0000
0000
0000
,
0000
0000
0000
0000
,
0000
0000
0000
0100
,
0000
0000
0000
0001
,
0000
0000
0000
0010
,
0000
0000
0000
0001
,
0000
0001
0000
0001
,
0000
0000
0000
0100
,
0000
0000
0000
1000
,
0000
0000
0000
0001
,
0000
0000
0000
0010
,
0000
1000
0000
0001
,
0000
0010
0000
1000
,
0000
0100
0000
0001
,
0000
0000
1000
0100
,
0000
0010
0000
0001
,
0000
0010
0000
0100
,
0000
0010
0000
0001
,
0100
0000
0100
0100
,
0000
0001
0000
0010
,
0000
0000
0100
0001
,
0000
0100
0000
0100
,
0000
0000
0100
0010
,
0000
0100
0000
0001
,
0000
0000
0100
0010
,
0000
0010
0000
0001
,
0000
0000
1000
0001
,
0000
0010
0000
0001
,
0010
0000
0100
0001
,
0000
0100
0000
0010
,
0000
0000
0010
0100
,
0000
0100
0000
0010
,
0000
0001
0000
0100
,
0000
1000
0000
0001
,
0000
0010
0000
0000
,
0000
0000
1000
0100
,
0000
0010
0000
0001
,
0000
0000
0100
0010
,
0000
0010
0000
0100
,
0000
0100
0010
0001
,
0000
0001
0000
0010
,
0000
0000
1000
0010
,
0000
0100
0000
0010
,
0000
0001
0100
0001
,
0000
0100
0000
1000
,
0000
0000
1000
0001
,
0000
0001
0000
0010
,
0100
0001
0000
0000
,
0010
0000
1000
0100
,
0000
0000
1000
0100
,
0000
0001
0000
0010
,
0000
0001
0000
0001
,
0000
0100
0000
0001
,
0000
0010
0000
0001
,
0000
0100
0000
1000
,
0000
0001
0000
0100
,
0000
1000
0000
0010
,
0000
1000
0000
0100
,
0000
0010
0000
0001
;

//--------------- dance-single - B. M'Rey ----------------
#NOTES:
     dance-single:
     B. M'Rey:
     Easy:
     4:
     0.241707,0.286073,0.019789,0,0,171,169,2,0,0,0,0.241707,0.286073,0.019789,0,0,171,169,2,0,0,0:
0000
0000
0000
0000
,
0000
0000
0000
0000
,
0000
0000
0000
0000
,
0000
0000
0000
0000
,
0000
0000
0000
0000
,
0000
0000
0000
0000
,
0000
0000
0000
0000
,
0000
0000
0000
0100
,
0000
0001
0000
0100
,
0000
1000
0000
0010
,
0000
0100
0000
0001
,
1000
0010
0100
0001
,
0000
0010
0000
0001
,
0000
0100
0000
0010
,
0000
1000
0000
0110
,
0000
0000
0000
0001
,
0010
0100
1000
0010
,
0100
0010
0100
0000
,
1000
0001
1000
0100
,
0000
0100
0000
0001
,
1000
0010
0100
0010
,
1000
0010
0100
0000
,
1000
0001
0010
0001
,
0000
0010
0000
0001
,
1000
0100
1000
0100
,
0000
0000
0100
0001
,
0010
0100
0010
0001
,
0000
0000
1000
0010
,
0100
0010
0100
0001
,
0000
0000
0010
0001
,
0000
0010
0000
0100
,
0000
0000
0010
0100
,
1000
0001
0100
0010
,
0100
0000
1000
0001
,
0010
0001
1000
0010
,
0000
0000
0010
0001
,
0100
0001
0010
0100
,
0000
0010
0100
0010
,
0000
0100
0001
0100
,
0000
0010
1000
0000
,
0000
0000
1000
0100
,
0010
0100
1000
0001
,
0000
0000
0100
0001
,
1000
0001
1000
0010
,
1000
0001
0100
0010
,
1000
0100
1000
0100
,
0000
0000
0010
0001
,
0010
0100
1000
0001
,
1000
0001
1000
0010
,
0100
0001
0100
0001
,
0000
0000
1000
0010
,
0100
0010
1000
0001
,
0010
0100
0000
0000
,
0101
0000
0100
0010
,
0000
0000
1000
0100
,
0010
0100
1000
0000
,
0001
0000
1000
0100
,
0010
0100
1000
0010
,
0100
0010
0100
0000
,
0100
0010
1000
0001
,
0010
0000
1000
0000
,
1000
0010
1000
0100
,
0010
0001
0010
0000
,
1000
0100
0010
0001
,
0000
1000
0000
0000
;

//--------------- dance-single - B. M'Rey ----------------
#NOTES:
     dance-single:
     B. M'Rey:
     Medium:
     7:
     0.378815,0.415628,0.059367,0.039578,0,268,262,6,4,0,0,0.378815,0.415628,0.059367,0.039578,0,268,262,6,4,0,0:
0000
0000
0000
0000
,
0000
0000
0000
0000
,
0000
0000
0000
0000
,
0000
0000
0000
0000
,
0000
0000
0000
0000
,
0000
0000
0000
0000
,
0000
0000
0000
0000
,
0000
0000
0000
0010
,
1000
0010
0100
0010
,
0100
0001
0100
0001
,
1000
0001
1000
0100
,
1000
0100
0010
0100
,
0010
0001
0010
0001
,
1000
0001
1000
0010
,
1000
0010
0100
0001
,
0000
0000
0000
0001
,
0001
1000
0001
0000
0100
0010
0100
0000
,
0001
0000
0100
0000
0001
0010
0000
0010
,
0001
0010
0001
0000
0001
1000
0100
0000
,
0010
0000
0100
0000
0010
1000
0100
0000
,
0001
1000
0010
0000
0010
0100
0010
0000
,
0001
0000
0100
0000
1000
0010
0000
0010
,
0001
0010
0001
0000
0001
0100
0010
0000
,
0010
1000
0000
0100
0010
1000
0100
0000
,
0010
0000
0100
0010
0001
0010
0100
0000
,
0000
0000
0000
0000
0010
0100
0010
0000
,
0001
0010
0001
0002
,
0003
0000
0000
0000
0001
0100
0010
0000
,
0001
0000
0100
1000
0010
0100
0002
0000
,
0000
0000
0003
0000
0100
1000
0010
0000
,
0010
0100
0010
0000
0100
1000
0020
0000
,
0000
0000
0030
0000
0001
0010
0001
0000
,
0010
0100
0010
1000
0001
0010
0100
0000
,
0100
0000
0000
0000
0010
1000
0100
0000
,
0100
0010
0001
0100
0001
0010
0100
0000
,
0010
0000
0100
0000
0010
1000
0100
0000
,
0100
0010
0100
1000
0010
0100
0010
0000
,
0100
0010
0000
0100
0000
0010
0001
0000
,
0010
1000
0000
0010
0000
1000
0020
0000
,
0000
0000
0130
0000
,
0000
0000
0000
0000
0100
1000
0010
0000
,
0001
0100
0010
0000
0001
0000
0100
0010
,
0000
0000
0010
0100
,
0001
0010
0001
0100
,
0010
0000
1001
0000
0100
0010
0001
0000
,
0010
0100
0001
0000
0010
0000
0001
0100
,
0000
0000
0100
1000
,
0001
0100
0010
1000
,
0100
0000
0011
0000
0010
0100
0010
0000
,
0001
1000
0100
0000
0001
0000
0010
1000
,
0000
0000
0001
0100
,
0010
1001
0100
0010
,
0100
0000
1001
0000
0001
1000
0100
0000
,
0101
0000
0110
1000
,
0000
0000
0100
0010
,
0001
0100
0001
0010
,
0100
0000
0010
0000
0001
1000
0001
0000
,
0001
1000
0001
0000
0100
0010
0100
0000
,
0001
0000
0100
0000
0001
0010
0000
0010
,
0001
0010
0001
0000
0001
1000
0100
0000
,
0010
0000
0100
0000
0010
1000
0100
0000
,
0001
1000
0010
0000
0010
0100
0010
0000
,
0001
0000
0100
0000
1000
0010
0000
0010
,
0001
0010
0001
0000
0001
0100
0010
0000
,
0010
1000
0000
0100
0010
1000
0000
0000
;

//--------------- dance-single - B. M'Rey ----------------
#NOTES:
     dance-single:
     B. M'Rey:
     Hard:
     9:
     0.545607,0.543513,0.069261,0,0.029683,386,379,7,0,0,0,0.545607,0.543513,0.069261,0,0.029683,386,379,7,0,0,0:
0000
0000
0000
0000
,
0000
0000
0000
0000
,
0000
0000
0000
0000
,
0000
0000
0000
0000
,
0000
0000
0000
0000
,
0000
0000
0000
0000
,
0000
0000
0000
0000
,
0000
0000
0000
0000
0000
0000
0010
1000
,
0010
0100
0001
0100
0001
1000
0001
0100
,
0010
0100
0010
0100
0001
1000
0010
0100
,
0010
1000
0100
0010
0100
1000
0100
1000
,
0010
0100
0010
1000
0001
0100
0010
1000
,
0001
0100
0001
0100
0001
0010
0100
1000
,
0100
0010
0001
1000
0100
1000
0001
0010
,
0100
0010
0001
1000
0100
1000
0001
0000
,
0010
0000
0100
0000
0010
0000
0100
0010
,
0100
0010
0001
1000
0010
1000
0010
0100
,
0010
1000
0001
0100
0010
1000
0000
0100
,
0001
0010
0100
1000
0100
0010
0001
0100
,
0010
0100
0000
1000
0100
0010
0000
1000
,
0010
1000
0010
1000
0001
0100
0001
0010
,
0100
1000
0010
0100
0010
0100
0000
1000
,
0001
0100
0001
0010
0001
0010
0100
1000
,
0001
0010
0000
0010
0001
0010
0100
0000
,
0100
0000
0100
1000
0010
0100
0001
0000
,
0010
0000
0000
0000
0100
0000
0000
0000
0001
0000
0010
0000
0001
0000
0000
0010
,
0000
0000
1000
0000
0100
0000
0000
0010
0000
0000
1000
0000
0010
0000
0000
0000
,
0010
1000
0100
0000
0010
1000
0100
0000
,
0001
0010
0100
1000
0010
1000
0001
0000
,
0100
0000
0010
0000
0000
0000
1000
0000
0001
0000
1000
0000
0100
0000
0000
0010
,
0000
0000
0010
0000
0100
0000
0000
1000
0000
0000
1000
0000
0001
0000
0000
0000
,
0100
0010
0000
0000
0001
0100
0010
0000
,
0001
0100
0001
0010
0100
1000
1010
0000
,
0110
0000
0001
0000
0001
1000
0010
1000
,
0100
0010
0001
1000
0100
0010
0100
0000
,
0001
0010
0000
0000
0010
1000
0010
0000
,
0001
1000
0010
1000
0001
0010
0001
0000
,
0100
0000
0010
0000
0000
0000
1000
0000
0000
0010
0000
0000
0010
0000
0000
0000
,
0001
0000
0100
0000
0000
0000
0010
0000
0000
0100
0000
0000
0100
0000
0010
0000
,
0001
1000
0100
1000
1001
0000
0000
0000
,
0000
0000
0000
0000
0100
1000
0001
1000
,
0100
1000
0100
0000
1001
0000
0100
1000
,
0000
0110
0000
1000
0001
1000
0100
1000
,
0100
0010
0001
0000
0010
1000
0001
1000
,
0100
0010
0001
0000
0001
0100
0001
0010
,
0100
1000
0001
0000
0100
0000
0100
1000
,
0000
0101
0000
1000
0100
1000
0100
1000
,
0001
0100
0001
0000
0100
0010
0100
1000
,
0010
1000
0001
0000
0001
0010
0100
1000
,
0001
0010
0100
0000
0010
0000
0001
0100
,
0000
1001
0000
0010
0001
1000
0001
1000
,
0010
0100
0001
0000
0100
0010
0100
0010
,
0100
1000
0001
0000
0001
0010
0001
0000
,
1000
0000
0001
0000
0010
0000
0100
1000
,
0010
0100
0001
0100
0010
1000
0100
0010
,
0001
1000
0010
0000
0010
0100
0010
1000
,
0001
0000
0001
0000
0001
1000
0001
0010
,
0100
0010
0100
1000
0100
0010
0001
0010
,
0001
1000
0100
1000
0001
0010
0000
0010
,
0100
0010
0001
1000
0100
0010
0001
0010
,
0100
1000
0000
1000
0001
0100
0000
1000
,
0010
0100
0001
0100
0010
0100
0001
1000
,
0010
1000
0010
0100
0010
1000
0000
0010
,
0001
1000
0001
1000
0100
1000
0010
0100
,
0001
0010
0000
0010
0100
0010
0000
0000
;

//--------------- dance-double - B. M'Rey ----------------
#NOTES:
     dance-double:
     B. M'Rey:
     Easy:
     4:
     0.24312,0.286073,0.029683,0,0,172,169,3,0,0,0,0.24312,0.286073,0.029683,0,0,172,169,3,0,0,0:
00000000
00000000
00000000
00000000
,
00000000
00000000
00000000
00000000
,
00000000
00000000
00000000
00000000
,
00000000
00000000
00000000
00000000
,
00000000
00000000
00000000
00000000
,
00000000
00000000
00000000
00000000
,
00000000
00000000
00000000
00000000
,
00000000
00000000
00000000
01000000
,
00000000
00100000
00000000
10000000
,
00000000
01000000
00000000
00010000
,
00000000
00001000
00000000
00000010
,
00000100
00000001
00001000
00100000
,
00000000
00100000
00000000
01000000
,
00000000
00010000
00000000
00000100
,
00000000
00000001
00000000
00011000
,
00000000
00000000
00000000
01000000
,
01000000
00100000
00010000
01000000
,
00100000
01000000
00100000
00000000
,
00010000
10000000
00010000
00100000
,
00000000
00100000
00000000
00010000
,
00001000
00000010
00000001
00000010
,
00001000
00000010
00000001
00000000
,
00001000
00000100
00000010
00000100
,
00010000
00000000
00000000
00100000
,
01000000
10000000
01000000
10000000
,
00000000
00000000
10000000
00100000
,
00010000
10000000
00100000
00010000
,
00000000
00000000
00000100
00000001
,
00000100
00001000
00000100
00000010
,
00000000
00000000
00001000
00010000
,
00000000
10000000
00000000
01000000
,
00000000
00000000
10000000
01000000
,
00010000
10000000
00100000
01000000
,
00100000
00000000
00010000
00001000
,
00000100
00001000
00000001
00000100
,
00000000
00000000
00000100
00001000
,
00010000
00100000
10000000
01000000
,
00000000
10000000
01000000
10000000
,
00000000
00010000
01000000
00010000
,
00000000
00001000
00000010
00000000
,
00000000
00000000
00000100
00001000
,
00010000
10000000
01000000
00100000
,
00000000
00000000
10000000
00100000
,
01000000
00100000
01000000
00010000
,
00001000
00000100
00000001
00000010
,
00001000
00010000
00001000
00010000
,
00000000
00000000
00100000
01000000
,
00100000
00010000
00001000
00000100
,
00000001
00001000
00010000
01000000
,
00100000
10000000
00100000
10000000
,
00000000
00000000
00010000
00000100
,
00000010
00000100
00000001
00001000
,
00010000
00100000
00000000
00000000
,
00011000
00000000
00011000
00000100
,
00000000
00000000
00001000
00000001
,
00000010
00000001
00001000
00000000
,
00100000
00000000
01000000
10000000
,
00010000
10000000
01000000
00010000
,
00001000
00010000
00001000
00000000
,
00001000
00000001
00000100
00000010
,
00001000
00000000
00010000
00000000
,
00100000
10000000
00100000
01000000
,
10000000
00010000
10000000
00000000
,
00100000
00010000
00001000
00000100
,
00000000
00000001
00000000
00000000
;

//--------------- dance-double - B. M'Rey ----------------
#NOTES:
     dance-double:
     B. M'Rey:
     Medium:
     6:
     0.370334,0.415628,0.069261,0,0.009894,262,255,7,0,0,0,0.370334,0.415628,0.069261,0,0.009894,262,255,7,0,0,0:
00000000
00000000
00000000
00000000
,
00000000
00000000
00000000
00000000
,
00000000
00000000
00000000
00000000
,
00000000
00000000
00000000
00000000
,
00000000
00000000
00000000
00000000
,
00000000
00000000
00000000
00000000
,
00000000
00000000
00000000
00000000
,
00000000
00000000
00000000
00010000
,
00010000
10000000
00010000
00100000
,
10000000
00100000
10000000
00100000
,
00100000
00010000
00100000
00010000
,
00100000
10000000
00010000
00001000
,
00001000
00100000
01000000
00100000
,
00010000
00100000
00010000
00001000
,
00010000
00001000
01000000
01010000
,
00000000
00001000
00001000
00010000
,
00010000
00000100
00010000
00001000
,
00100000
00001000
00100000
00001000
,
00010000
00000100
00010000
00000100
,
00001000
00010000
00001000
00000010
,
00000010
00000100
00001000
00010000
,
00001000
00010000
00000010
00000100
,
00000010
00010000
00001000
00010000
,
00000010
00010000
00000010
00000010
,
00000001
00000000
00000100
00000010
00001000
00000000
00000100
00000000
,
00001000
00000000
00000001
00000000
00000010
00000001
00001000
00000000
,
00000010
00001000
00000001
00000000
00000010
00000001
00001000
00000000
,
00000001
00001000
00000001
00001000
,
00000100
00000010
00010000
00001000
00000010
00000000
00000100
00000000
,
00000010
00000000
00010000
00000000
00001000
00000010
00000100
00000000
,
00000010
00000100
00010000
00000000
00001000
00000100
00000010
00000000
,
00000100
00000000
00000010
00000000
00001000
00000100
00100000
00000000
,
00100000
00000000
00000100
00001000
00100000
00000000
00001000
00000000
,
00010000
00100000
00001000
00000100
,
00001000
00100000
00000100
00000000
00010000
00100000
00001000
00000000
,
00010000
00000000
00001000
00000000
00100000
00000100
00100000
00000000
,
00100000
00001000
00010000
00000000
00001000
00000000
00010000
00000000
,
00100000
00000000
00000000
00000000
01000000
00000000
00000000
00000000
00000000
00100000
00000000
00000000
01000000
00000000
00000000
00000000
,
00100000
00000000
00000000
00000000
00001000
00000000
00000000
00000000
00000000
00010000
00000000
00000000
00001000
00000000
00000000
00000000
,
00010000
01000000
00011000
00000000
,
00000000
00000000
00000000
00000000
00100000
10000000
00010000
00000000
,
00100000
00000000
00010000
00000000
10000000
00000000
01000000
00100000
,
00000000
10010000
00000000
00000000
10000000
00000000
00010000
00000000
,
00100000
00010000
01000000
00000000
00010000
00000000
00100000
00000000
,
01000000
00100000
00010000
00000000
00001000
01000000
00100000
00000000
,
00001000
00000000
00010000
00000000
01000000
00000000
00100000
01000000
,
00000000
00101000
00000000
00000000
00001000
01000000
00100000
00000000
,
00001000
00010000
01000000
00000000
00001000
01000000
00001000
00000000
,
00001000
00100000
00010000
00000000
00001000
00000100
00010000
00000000
,
00100000
00000000
00000100
00000000
00010000
00000000
00001000
00010000
,
00000000
00011000
00000000
00000000
00010000
00000000
00000100
00010000
,
00100000
00000000
00000100
00000000
00001000
00100000
00000010
00000000
,
00001000
00010000
00000010
00000010
,
00011000
00000000
00000000
00000000
00001000
00000000
00010000
00001000
,
00000000
00001100
00000000
00000000
00010000
00000000
00000100
00001000
,
00000010
00000000
00001000
00000000
00000010
00010000
00000010
00000000
,
00000010
00000100
00000001
00000100
,
00000010
00000001
00001000
00000100
,
00001000
00000001
00000010
00001000
,
00000010
00000100
00000010
00001000
,
00000100
00000000
00010000
00001000
00000010
00000000
00000100
00000000
,
00000010
00010000
00001000
00000100
,
00000010
00000100
00001000
00000010
,
00001000
00000000
00000010
00000000
00000100
00000000
00100000
00000100
,
00010000
00100000
00000000
00000100
00010000
00001000
00000000
00000000
;

//--------------- dance-double - B. M'Rey ----------------
#NOTES:
     dance-double:
     B. M'Rey:
     Hard:
     8:
     0.513097,0.543513,0.049472,0,0.019789,363,358,5,0,0,0,0.513097,0.543513,0.049472,0,0.019789,363,358,5,0,0,0:
00000000
00000000
00000000
00000000
,
00000000
00000000
00000000
00000000
,
00000000
00000000
00000000
00000000
,
00000000
00000000
00000000
00000000
,
00000000
00000000
00000000
00000000
,
00000000
00000000
00000000
00000000
,
00000000
00000000
00000000
00000000
,
00000000
00000000
00000000
00000000
00000000
00000000
10000000
00100000
,
00100000
00000000
00010000
01000000
00010000
00000000
00010000
10000000
,
00100000
00000000
00100000
00010000
00100000
00000000
10000000
00010000
,
10000000
00000000
10000000
01000000
00100000
00000000
00100000
00000000
,
00100000
00000000
10000000
00000000
10000000
00000000
01000000
00100000
,
01000000
00000000
01000000
00010000
01000000
00000000
00100000
00010000
,
00100000
00000000
00100000
00001000
01000000
00000000
01000000
00010000
,
01000000
00000000
00100000
01000000
00010000
00000000
00101000
00000000
,
00000000
00000000
00000000
00000000
00000000
00000000
00001000
00000100
,
00000100
00100000
00010000
00100000
00000100
00001000
00000100
00010000
,
00000100
00100000
00010000
00001000
00010000
00001000
00000000
00100000
,
00001000
00100000
00010000
00100000
00001000
00010000
00001000
00010000
,
00001000
00100000
00000000
00100000
00000100
00100000
00001000
00000100
,
00000100
00000010
00001000
00000010
00010000
00000010
00001000
00010000
,
00000100
00010000
00001000
00010000
00001000
00000100
00000000
00000100
,
00001000
00010000
00000100
00000010
00001000
00000010
00010000
00000100
,
00001000
00000100
00010000
00000100
00001000
00000010
00000100
00000000
,
00000010
00000000
00000001
00001000
00000001
00001000
00000010
00000000
,
00000010
00000000
00000010
00000000
00001000
00000100
00001000
00000000
,
00001000
00000001
00000010
00000000
00000010
00000001
00001000
00000000
,
00001000
00000000
00001000
00000000
00000010
00000001
00000100
00000000
,
00000010
00000100
00000010
00000100
00000010
00001000
00010000
00000000
,
00010000
00000000
00000000
00000000
00010000
00000000
00000000
00000000
00000010
00000000
00001000
00000000
00000010
00000000
00000000
00010000
,
00000000
00000000
00000100
00000000
00000010
00000000
00000000
00000100
00000000
00000000
00000010
00000000
00010000
00000000
00000000
00000000
,
00010000
00001000
00000010
00000000
00000010
00000100
00000100
00000000
,
00000100
00001000
00000100
00001000
00010000
00100000
00010000
00000000
,
00000100
00000000
00010000
00000000
00010000
00100000
00001000
00000000
,
00001000
00100000
00000100
00010000
00000100
00100000
00000100
00000000
,
00010000
00000000
00010000
00000000
00010000
00001000
00001000
00000000
,
01000000
00010000
01000000
00001000
00100000
00001000
00100000
00000000
,
01000000
00000000
00010000
00000000
00000000
00000000
00001000
00000000
00000000
00010000
00000000
00000000
00100000
00000000
00000000
00000000
,
00100000
00000000
00010000
00000000
00100000
00000000
00010000
00000000
00000000
00001000
00000000
00000000
00100000
00000000
00000000
00000000
,
00001000
00100000
01000000
00010000
01000000
00000000
00000000
00000000
,
00000000
00000000
00000000
00000000
00100000
01000000
00100000
01000000
,
00010000
01000000
00010000
00000000
00010000
00000000
00100000
01000000
,
00000000
01000000
00000000
10000000
00010000
10000000
00010000
01000000
,
00010000
01000000
00100000
00000000
00010000
10000000
00001000
01000000
,
01000000
00001000
00100000
00000000
00100000
00010000
00100000
01000000
,
00010000
01000000
00010000
00000000
00100000
00000000
01000000
00001000
,
00000000
00101000
00000000
01000000
00100000
01000000
00010000
01000000
,
00010000
00001000
00010000
00000000
00100000
01000000
00010000
00100000
,
00010000
00100000
00000100
00000000
00000100
00100000
00001000
00010000
,
00000100
00100000
00000100
00000000
00000100
00000000
00001000
00100000
,
00000000
00100000
00000000
00100000
00000100
00001000
00000100
00001000
,
00000100
00100000
00010000
00000000
00010000
00100000
00000100
00001000
,
00010000
00000100
00010000
00000000
00000100
00000010
00000100
00000000
,
00011000
00000000
00000000
00000000
00010100
00000000
00000100
00000010
,
00000000
00001010
00000000
00000010
00000100
00010000
00000100
00000010
,
00000100
00010000
00001000
00000000
00001000
00000100
00000100
00000001
,
00000001
00000100
00001000
00000000
00001000
00000001
00000010
00000100
,
00000010
00000100
00000010
00001000
00000001
00001000
00000001
00001000
,
00000010
00000001
00000010
00000001
00000010
00000100
00000000
00000100
,
00000001
00000100
00001000
00000001
00001000
00000001
00010000
00001000
,
00010000
00000100
00000000
00000100
00000010
00001000
00000000
00001000
,
00000010
00000100
00010000
00000100
00001000
00000100
00010000
00000010
,
00010000
00000010
00010000
00000100
00001000
00000100
00000000
00000100
,
00010000
00001000
00010000
00001000
00010000
00000010
00010000
00000100
,
00001000
00010000
00000000
00001000
00000100
00001000
00000000
00000000
;
