#TITLE:CALL ME MAÑANA;
#ARTIST:SCOOTER;
#GENRE:HARD TRANCE;
#CREDIT:B. M'Rey;
#MUSIC:CALL ME MANANA.ogg;
#BANNER:CALL ME MANANA-bn.png;
#BACKGROUND:CALL ME MANANA-bg.png;
#CDTITLE:./CDTITLES/DANCEMANIA PARTY ~Best Of 90's Dance Hits~.PNG;
#SAMPLESTART:20.315;
#SAMPLELENGTH:12;
#OFFSET:-0.185;
#BPMS:0=143.066;

//--------------- dance-single - B. M'Rey ----------------
#NOTES:
     dance-single:
     B. M'Rey:
     Beginner:
     1:
     0,0,0,0,0:
0000
0000
0000
0000
,
0000
0000
0000
0000
,
0000
0000
0000
0000
,
0000
0000
0000
0000
,
1000
0000
0001
0000
,
0010
0000
0000
0000
,
0100
0000
0100
0000
,
0100
0000
0000
0000
,
0010
0000
0010
0000
,
0010
0000
0000
0000
,
0001
0000
0001
0000
,
0001
0000
0000
0000
,
1000
0000
1000
0000
,
1000
0000
0110
0000
,
0010
0000
0010
0000
,
0010
0000
0101
0000
,
0001
0000
0001
0000
,
0001
0000
1010
0000
,
0010
0000
0010
0000
,
0010
0000
1000
0000
,
0001
0000
0100
0000
,
0000
0000
0110
0000
,
0001
0000
1000
0000
,
0000
0000
0110
0000
,
0001
0000
1000
0000
,
0000
0000
0110
0000
,
1000
0000
0100
0000
,
0000
0000
0101
0000
,
1001
0000
0001
0000
,
1001
0000
1000
1000
,
1001
0000
0001
0000
,
1000
0000
0001
1001
,
0010
0000
0100
0000
,
0010
0000
0100
1001
,
0010
0000
0100
0000
,
0010
0000
0100
0000
,
1001
0000
0000
0000
,
0000
0000
0000
0000
,
0001
0000
0001
0000
,
0001
0000
0000
0000
,
0100
0000
0100
0000
,
0100
0000
0000
0000
,
0010
0000
0010
0000
,
0010
0000
0000
0000
,
1000
0000
0000
0000
,
0000
0000
0000
0000
,
0001
0000
0001
0000
,
0001
0000
0000
0000
,
0100
0000
0100
0000
,
0100
0000
0000
0000
,
0010
0000
0010
0000
,
0010
0000
0000
0000
,
1000
0000
1000
0000
,
1000
0000
0000
0000
,
1001
0000
0000
0000
;

//--------------- dance-single - B. M'Rey ----------------
#NOTES:
     dance-single:
     B. M'Rey:
     Easy:
     4:
     0,0,0,0,0:
0000
0000
0000
0000
,
0000
0000
0000
0000
,
0000
0000
0000
0000
,
0000
0000
0000
0000
,
0001
0000
0001
0000
,
0010
0000
0000
0000
,
0010
1000
0001
0100
,
0010
1000
0010
0100
,
0001
0100
0010
0100
,
0010
1000
0100
0010
,
1100
1000
0001
1000
,
1100
1100
0110
0011
,
0001
0010
0001
0010
,
0100
1000
0100
0010
,
0001
1000
0010
0100
,
0010
1000
0010
1000
,
0001
0100
0001
0100
,
0001
1000
0100
0010
,
0100
1000
0001
0100
,
0110
0110
0110
1000
,
0010
0000
0001
1000
,
0010
0000
1000
0100
0010
0000
0000
0000
,
1100
0000
0010
0100
,
0010
1000
0010
0100
,
0001
0000
0001
1000
,
0000
0010
0001
0000
,
0001
1000
0100
1000
,
0110
0011
0101
0100
,
0001
0100
0010
0100
,
0001
0000
1000
0000
0100
0010
1000
0000
,
0100
0010
0001
0010
,
0100
0000
1000
0000
0001
0100
0010
0000
,
0001
0100
0001
0010
,
0100
0000
1000
0000
0010
0100
1000
0000
,
0100
0010
0100
1000
,
0101
0000
0010
0100
,
0002
0000
0000
0000
,
0103
1000
0010
0100
,
0010
0100
0010
1000
,
0100
0010
0100
0010
,
0001
1000
0100
1000
,
0001
0100
0010
0100
,
0001
0100
0010
1000
,
0100
1000
0100
0010
,
0011
0000
1100
0000
,
0011
0000
0100
0010
,
0001
1000
0010
1000
,
0010
1000
0001
0010
,
0100
1000
0010
1000
,
0100
1000
0010
0100
,
0010
1000
0001
0010
,
0100
1000
0001
0100
,
0001
0010
0100
0010
,
0100
0010
0100
0000
0001
0010
0100
0000
,
2002
0000
0000
0000
,
0000
0000
0000
0000
,
3003
0000
0000
0000
;

//--------------- dance-single - B. M'Rey ----------------
#NOTES:
     dance-single:
     B. M'Rey:
     Medium:
     7:
     0,0,0,0,0:
0000
0000
0000
0000
,
0000
0000
0000
0000
,
0000
0000
0000
0000
,
0000
0000
0000
0000
,
0020
0000
0230
0000
,
0302
0000
0000
0000
0000
1003
0001
1000
,
0110
0000
1001
0000
1001
0000
1000
0100
,
0001
0000
1000
0000
0010
0010
0100
0100
,
0110
0000
1001
0000
1001
0000
0010
1000
,
0001
0000
1000
0000
0001
0001
0010
0000
,
0110
0000
1001
0000
1001
0000
1000
0100
,
0010
0000
0100
0000
0010
0010
0100
0100
,
0110
0000
0101
0000
1001
0000
0010
0100
,
0010
0000
1100
0000
0110
0000
0001
0100
,
0001
0000
1010
0000
1100
0000
0010
0100
,
0010
0000
1010
0000
0110
0000
0001
0010
,
0100
1100
1100
1010
,
0010
0100
0010
0000
0001
0100
0010
1000
,
0100
0000
0011
0000
0011
0000
0100
1000
,
0100
0010
0001
0000
0001
0010
0100
0000
,
0011
0000
0000
1000
0100
0010
0001
0000
,
0000
1000
0010
0000
0101
0000
0000
0000
,
0100
0000
0000
1000
0010
0100
0010
0000
,
0000
0010
0000
0010
0100
0000
0001
1000
,
0001
0000
0000
0100
0000
0100
0010
0000
,
0000
0010
0001
0100
0010
0000
0000
0010
,
0001
0000
0010
1000
0000
1000
0000
0010
,
0100
0001
0001
0010
,
0010
0100
0001
0000
0001
1000
0001
0000
,
0100
0010
0001
0000
0101
0000
0101
0000
,
0100
0010
0001
0000
0010
0100
0001
0000
,
0100
1000
0100
0000
0011
0000
0011
0000
,
0100
1000
0010
0000
0100
0010
0100
0000
,
0001
0010
0001
0000
0011
0000
0011
0000
,
0100
1000
0100
0000
0001
1000
0100
0000
,
1010
0000
0000
0010
0001
1000
0100
0010
,
0200
0000
0000
0000
,
0301
0010
0010
0001
,
0001
0000
1010
0000
0011
0000
0001
0010
,
0001
0000
1100
0000
0100
0010
0001
0100
,
0010
0000
0110
0000
0110
0000
0001
1000
,
0001
0000
1001
0000
1000
0100
0010
1000
,
0001
0000
1001
0000
0110
0000
0010
1000
,
0010
0000
1001
0000
0001
0100
0010
1000
,
1001
0000
0110
0000
,
0101
0000
0000
0000
,
0110
0000
0110
0000
0011
0000
0001
1000
,
0010
0000
0110
0000
0110
0000
0100
1000
,
0010
0000
1001
0000
1001
0000
0001
0100
,
0010
0000
0110
0000
1001
0000
0010
1000
,
0001
0000
0110
0000
0011
0000
0001
0100
,
0010
0000
1001
0000
0110
0000
0001
1000
,
0001
0000
0100
0010
0001
0000
0001
0100
,
0010
0000
0001
0010
0001
0100
0001
0010
,
0200
0000
0000
0000
,
0000
0000
0000
0000
0000
0000
0000
0020
,
0000
0000
0000
0000
,
0330
0000
0000
0000
;

//--------------- dance-single - B. M'Rey ----------------
#NOTES:
     dance-single:
     B. M'Rey:
     Hard:
     8:
     0,0,0,0,0:
0000
0000
0000
0000
,
0000
0000
0000
0000
,
0000
0000
0000
0000
,
0000
0000
0000
0000
,
1001
0000
1100
0000
,
0110
0000
0000
0000
0000
0100
0010
1000
,
0110
0000
0011
0000
0110
0000
0001
0100
,
0001
0000
0011
0000
0100
1000
0001
0010
,
0100
0000
0110
0000
0101
0000
0001
0100
,
0001
0000
1010
0000
0001
0100
0010
0100
,
0001
0000
1100
0000
1010
0000
0010
0100
,
0001
0000
0110
0000
0001
1000
0001
0010
,
0001
0000
1010
0000
0011
0000
0001
0010
,
0001
0000
1100
0000
0100
0010
0001
0100
,
0010
0000
0110
0000
0110
0000
0001
1000
,
0001
0000
1001
0000
1000
0100
0010
1000
,
0001
0000
1001
0000
0110
0000
0010
1000
,
0010
0000
1001
0000
0001
0100
0010
1000
,
0001
0000
1001
0000
0101
0000
0010
0100
,
0010
1000
0100
0000
1100
0000
0001
0010
,
1100
0000
0010
1000
0100
0010
0001
0000
,
0001
0100
0001
0000
0010
0100
0000
0010
,
1001
0000
0010
1000
0001
0100
0001
0000
,
0001
1000
0000
0010
0001
1000
0001
0100
,
0011
0000
0100
0010
0001
0010
0001
0000
,
0010
0100
0010
0100
0010
0000
0100
1000
,
0001
0000
0001
0100
0000
1000
0010
0100
,
0001
1000
0001
1000
0001
0100
0010
1000
,
0001
1000
0001
1000
0001
0000
0010
0000
0010
1000
0001
1000
0001
0000
0010
0000
,
0010
1000
0001
1000
0001
0000
0010
0000
0100
0000
0010
0000
1100
0000
0000
0000
,
0100
1000
0001
1000
0001
0000
0001
0000
0100
1000
0100
0010
0100
0000
0001
0000
,
0100
1000
0100
1000
0100
0000
0001
0000
0010
0000
0100
0000
1100
0000
0000
0000
,
0001
0100
0001
0100
0001
0000
0010
0000
0010
0100
0010
1000
0100
0000
0100
0000
,
0100
1000
0010
1000
0010
0000
0001
0000
0010
0000
1000
0000
0110
0000
0000
0000
,
0001
1000
0010
1000
0010
0000
0100
0000
0100
0010
0100
1000
0001
0000
0001
0000
,
1100
0000
0011
0000
0001
0010
0001
1000
,
0200
0000
0000
0000
,
0010
0310
0100
0100
0010
0100
0010
1000
,
0010
0100
0001
0100
0010
0100
0010
1000
,
0100
0010
0001
0100
0010
0100
0001
1000
,
0001
0010
0100
1000
0001
0010
0001
0100
,
0001
1000
0010
0100
0001
0010
0001
0010
,
0001
0100
0010
0100
0010
0100
0001
0010
,
0100
0010
0100
1000
0100
1000
0001
0100
,
0101
0000
1010
0000
,
0011
0110
1001
1001
,
0100
1000
0100
0010
0001
1000
0001
1000
,
0001
0100
0010
0100
0010
1000
0100
1000
,
0100
0010
0001
0010
0100
1000
0001
1000
,
0100
1000
0010
0100
0001
0010
0001
0010
,
0100
0010
0100
1000
0010
0100
0001
0010
,
0001
0100
0010
0100
0001
0010
0100
1000
,
0100
0010
0001
1000
0001
0010
0100
1000
,
0001
1000
0001
1000
0001
0010
0100
0010
0100
0010
0001
0100
0001
1000
0001
0100
,
0020
0000
0000
0000
,
0000
0000
0000
0000
0000
0000
0000
0000
0000
0000
0000
0000
0000
0200
0000
0000
,
0000
0000
0000
0000
,
0330
0000
0000
0000
;

//--------------- dance-double - B. M'Rey ----------------
#NOTES:
     dance-double:
     B. M'Rey:
     Easy:
     4:
     0,0,0,0,0:
00000000
00000000
00000000
00000000
,
00000000
00000000
00000000
00000000
,
00000000
00000000
00000000
00000000
,
00000000
00000000
00000000
00000000
,
00011000
00000000
00110000
00000000
,
00101000
00000000
00000000
00000000
,
00001000
01000000
00010000
01000000
,
00001000
01000000
00010000
10000000
,
00010000
10000000
00010000
00100000
,
00001000
00100000
00001000
00100000
,
00010100
00000100
00010000
00000100
,
00010100
00000000
00000110
00000000
,
00000100
00000000
00000100
00000000
00000100
00000000
00001000
00000010
,
00000100
00000001
00000100
00001000
,
00000001
00000000
00000001
00000000
00000001
00000000
00000010
00000001
,
00001000
00000100
00001000
00000010
,
00010000
00000000
00010000
00000000
00010000
00000000
10000000
01000000
,
00010000
10000000
00100000
00010000
,
00100000
00000000
00010000
00000000
00100000
00000000
00010000
01000000
,
00001000
01000000
00001000
01000000
,
00011000
00000000
00010000
10000000
,
00010000
01000000
00100000
00000000
,
01100000
00000000
00001000
00100000
,
00000000
00010000
00000010
00001000
,
00011000
00000000
00000010
00001000
,
00000000
00010000
00000010
00000000
,
00000010
00001000
00000001
00000000
,
00000011
00001010
00001100
00000000
,
00000010
00010000
00000010
00010000
,
00001000
01000000
00001000
01010000
,
00001000
00100000
01000000
00100000
,
01000000
00100000
00001000
01001000
,
00001000
01000000
00001000
00010000
,
00000100
00010000
00000100
00011000
,
00001000
00100000
00001000
00100000
,
01010000
00000000
00100000
10000000
,
00200000
00000000
00000000
00300000
,
00020000
00000000
00000000
00000000
,
01030000
00000000
01000000
00000000
01000000
00000000
00100000
01000000
,
00100000
00001000
00010000
00001000
,
00000100
00000000
00000100
00000000
00000100
00000000
00001000
00000010
,
00001000
00001000
00000010
00010000
,
00000010
00000000
00000010
00000000
00000010
00000000
00010000
00001000
,
00010000
00000100
00001000
00000100
,
00010010
00000000
00010100
00000000
,
00010100
00000000
00000000
00000000
,
00000100
00000000
00000100
00000000
00000100
00000000
00010000
00000100
,
00010000
00001000
01000000
00001000
,
01000000
00000000
01000000
00000000
01000000
00000000
01000000
00010000
,
01000000
10000000
00010000
01000000
,
00100000
00000000
00100000
00000000
00100000
00000000
00100000
00010000
,
00100000
10000000
00100000
10000000
,
00100000
10000000
00010000
01000000
,
00010000
01000000
00010000
10000000
,
20200000
00000000
00000000
00000000
,
00000000
00000000
00000000
00000000
,
30300000
00000000
00000000
00000000
;

//--------------- dance-double - B. M'Rey ----------------
#NOTES:
     dance-double:
     B. M'Rey:
     Medium:
     6:
     0,0,0,0,0:
00000000
00000000
00000000
00000000
,
00000000
00000000
00000000
00000000
,
00000000
00000000
00000000
00000000
,
00000000
00000000
00000000
00000000
,
00010000
00000000
00000010
00000000
,
00000100
00000000
00000000
00000000
,
00000001
00000001
00001000
00001000
,
00000010
00000010
00010000
00000010
,
00010000
00010000
00000100
00000100
,
00001000
00001000
00000010
00010000
,
01001000
00001000
01000000
01000000
,
00110000
00100000
01000000
10000000
,
01100000
00000000
01100000
00000000
01100000
00000000
00001000
00010000
,
00001000
00000000
00010000
00000000
00001000
00100000
00001000
00000000
,
01010000
00000000
01010000
00000000
01010000
00000000
00001000
00100000
,
00001000
00000000
00010000
00000000
00001000
00010000
00001000
00000000
,
00101000
00000000
00101000
00000000
00101000
00000000
00001000
00010000
,
00001000
00000000
00000100
00000000
00000100
00001000
00000100
00000000
,
00001010
00000000
00001010
00000000
00001010
00000000
00000100
00010000
,
00000100
00000010
00000100
00010000
,
00011000
00000000
00000000
00000010
00000100
00000000
00000001
00000000
,
00000000
00000010
00001000
00000000
00000001
00000100
00000000
00000000
,
00000011
00000000
00000000
00000100
00000000
00010000
00001000
00000000
,
00000000
00100000
00000000
01000000
00010000
00000000
10000000
00000000
,
01100000
00000000
00000000
00010000
00000000
01000000
00010000
00000000
,
00000000
10000000
01000000
00000000
10000000
00000000
00000000
00000000
,
00010000
00000000
01000000
00010000
00000000
10000000
00000000
00000000
,
01000000
00100000
01000000
00000000
10000000
00000000
00000000
00000000
,
00010000
01000000
00010000
00000000
10000000
00100000
10000000
00000000
,
00010000
01000000
00010000
00000000
00011000
00000000
00011000
00000000
,
01000000
00100000
01000000
00000000
00001000
01000000
00001000
00000000
,
00010000
00000010
00010000
00000000
00000110
00000000
00000110
00000000
,
00000001
00000100
00000001
00000000
00001000
00000010
00001000
00000000
,
00000100
00010000
00000100
00000000
00011000
00000000
00011000
00000000
,
00000100
00001000
00000100
00000000
00010000
00000100
00010000
00000000
,
00001001
00000000
00000000
00000001
00000010
00000001
00001000
00000010
,
00000200
00000000
00000000
00000300
,
00000010
00010000
00000010
00010000
,
00101000
00000000
00101000
00000000
00101000
00000000
00100000
00010000
,
10000000
00000000
01000000
00000000
00100000
10000000
00100000
00000000
,
00110000
00000000
00110000
00000000
00110000
00000000
00001000
00100000
,
00001000
00000000
01000000
00000000
00010000
10000000
00010000
00000000
,
00101000
00000000
00101000
00000000
00101000
00000000
00100000
00010000
,
00100000
00000000
10000000
00000000
00100000
00010000
00100000
00000000
,
11000000
00000000
01010000
00000000
,
01001000
00000000
00000000
00000000
,
00011000
00000000
00011000
00000000
00011000
00000000
00000100
00000010
,
00000100
00000000
00000010
00000000
00000100
00001000
00000100
00000000
,
00000101
00000000
00000101
00000000
00000101
00000000
00000010
00001000
,
00000010
00000000
00010000
00000000
00000010
00010000
00000010
00000000
,
00001010
00000000
00001010
00000000
00001010
00000000
00000010
00000100
,
00000010
00000000
00000001
00000000
00000001
00000010
00000001
00000000
,
00000101
00000000
00000101
00000000
00000101
00000000
00000010
00010000
,
00001000
00010000
00001000
01000000
00001000
01000000
00010000
01000000
,
00022000
00000000
00000000
00000000
,
00000000
00000000
00000000
00000000
,
00000000
00000000
00000000
00000000
,
00033000
00000000
00000000
00000000
;

//--------------- dance-double - B. M'Rey ----------------
#NOTES:
     dance-double:
     B. M'Rey:
     Hard:
     8:
     0,0,0,0,0:
00000000
00000000
00000000
00000000
,
00000000
00000000
00000000
00000000
,
00000000
00000000
00000000
00000000
,
00000000
00000000
00000000
00000000
,
00011000
00000000
00001010
00000000
,
00001100
00000000
00000000
00000000
00000000
00000100
00010000
00001000
,
01000000
00000000
00001000
00000000
01000000
00000000
00010000
00001000
,
00000100
00000000
00001000
00000000
00000100
00000100
00010000
00010000
,
00000100
00000000
00010000
00000000
00000010
00000000
00001000
00000010
,
00000001
00000000
00000010
00000000
00001000
00001000
00010000
00010000
,
00101000
00000000
00001000
00000000
00100000
00000000
00001000
00100000
,
01100000
00110000
01010000
11000000
,
10010000
00000000
10010000
00000000
11000000
00000000
01000000
00100000
,
01000000
00000000
00110000
00000000
01000000
00100000
00001000
01000000
,
00001100
00000000
00010100
00000000
00011000
00000000
00000010
00000100
,
00000010
00000000
00000101
00000000
00000010
00010000
00001000
00100000
,
00010010
00000000
00000110
00000000
00001001
00000000
00000001
00001000
,
00000100
00000000
00000011
00000000
00001000
00000100
00000000
00001000
,
00000101
00000000
00011000
00000000
00010100
00000000
00000100
00010000
,
01001000
01010000
00011000
00010010
,
00011000
00000000
00100000
01000000
00100000
01000000
00100000
00000000
,
01000000
10000000
00100000
00000000
00010000
00100000
00000000
10000000
,
10100000
00000000
00100000
01000000
00100000
01000000
00010000
00000000
,
01000000
00100000
00000000
00010000
00001000
00000000
00010000
00000000
,
00001010
00000000
00000001
00001000
00000001
00000100
00000010
00000000
,
00000010
00001000
00000001
00001000
00000010
00000000
00001000
00000000
,
00000100
00010000
00000000
00000010
00001000
00000000
00000100
00001000
,
00010100
00000000
00001100
00000000
00001010
00000000
00000100
00010000
,
00000100
00010000
00000100
00010000
00000100
00000000
00001000
00000000
00000001
00001000
00000010
00000100
00000010
00000000
00001000
00000000
,
00000100
00010000
00000100
00001000
00000000
00001000
00000001
00001000
00000100
00000000
00001000
00000000
00001100
00000000
00000000
00000000
,
00000010
00010000
00000010
00010000
00001000
00000000
00100000
00000000
00001000
01000000
00010000
01000000
00010000
00000000
10000000
00000000
,
00100000
10000000
00100000
01000000
00000000
01000000
00010000
01000000
00001000
00000000
00010000
00000000
01010000
00000000
00000000
00000000
,
00010000
00100000
00001000
00100000
00001000
00000000
01000000
00000000
00100000
01000000
00010000
10000000
00010000
00000000
00100000
00000000
,
01000000
00100000
00010000
10000000
00000000
10000000
00010000
01000000
00100000
00000000
00010000
00000000
01100000
00000000
00000000
00000000
,
00010000
01000000
00001000
00010000
00001000
00000000
00100000
00000000
00010000
00100000
00010000
00100000
00001000
00000000
01000000
00000000
,
01010000
00011000
00010010
00000000
,
00002020
00000000
00000000
00003030
,
00000010
00000010
00001000
00001000
00000001
00000001
00001000
00001000
,
00000011
00000000
00000011
00000000
00000110
00000000
00000100
00010000
,
00000100
00000000
00011000
00000000
00000100
00010000
00001000
01000000
,
00011000
00000000
10010000
00000000
11000000
00000000
00010000
01000000
,
00010000
00000000
01100000
00000000
00001000
00100000
00010000
01000000
,
00011000
00000000
00101000
00000000
00010010
00000000
00000010
00010000
,
00001000
00000000
00001100
00000000
00000001
00001000
00000000
00000001
,
00010010
00000000
00001100
00000000
,
00000101
00000101
00011000
00011000
,
00000101
00000000
00011000
00000000
00010100
00000000
00000100
00010000
,
00001000
00000000
01010000
00000000
10000000
00010000
01000000
10000000
,
01100000
00000000
11000000
00000000
11000000
00000000
00010000
01000000
,
00100000
00000000
01001000
00000000
00001000
00010000
00000100
00010000
,
00010010
00000000
00001010
00000000
00001010
00000000
00000001
00001000
,
00000010
00000000
00010010
00000000
00000010
00010000
00001000
00010000
,
00000100
00001000
00000001
00000010
00000100
00010000
00001000
00100000
,
01000000
00001000
01000000
00001000
01000000
00000010
00010000
00001000
00010000
00001000
00100000
00001000
00100000
00000100
00100000
00001000
,
00020000
00000000
00000000
00000000
,
00000000
00000000
00000000
00000000
00000000
00000000
00000000
00000000
00000000
00000000
00000000
00000000
00000000
00002000
00000000
00000000
,
00000000
00000000
00000000
00000000
,
00033000
00000000
00000000
00000000
;
