#TITLE:BOOM, BOOM, BOOM, BOOM!!;
#SUBTITLE:;
#ARTIST:VENGABOYS;
#TITLETRANSLIT:;
#SUBTITLETRANSLIT:;
#ARTISTTRANSLIT:;
#GENRE:;
#CREDIT:B. M'Rey;
#MUSIC:BOOM, BOOM, BOOM, BOOM!!.ogg;
#BANNER:BOOM, BOOM, BOOM, BOOM!!-bn.png;
#BACKGROUND:BOOM, BOOM, BOOM, BOOM!!-bg.png;
#CDTITLE:.\CDTITLES\AVEX.PNG;
#SAMPLESTART:47.286;
#SAMPLELENGTH:15.000;
#SELECTABLE:YES;
#OFFSET:-0.068;
#BPMS:0.000=138.505;
#STOPS:;
#LASTBEATHINT:1.316179;
#BGCHANGES:;
#FGCHANGES:;

//--------------- dance-single - Dancing Stage featuring Disney's RAVE (unreleased) ----------------
#NOTES:
     dance-single:
     Dancing Stage featuring Disney's RAVE (unreleased):
     Easy:
     3:
     0,0,0,0,0:
0000
0000
0000
0000
,
0000
0000
0000
0000
,
0000
0000
0000
0000
,
0100
0000
0000
0000
,
0002
0100
0100
0103
,
0000
0000
0000
0000
,
0200
0001
0001
0301
,
0000
0000
0000
0000
,
0200
0001
0001
0301
,
0000
0000
0000
0000
,
0020
0001
0001
0031
,
0010
0000
0000
0000
,
0001
0001
0001
0100
,
0100
0001
0000
0000
,
0100
0100
0001
0001
,
0010
0000
0010
0100
,
0100
0100
0001
0001
,
0001
0100
0000
0000
,
0000
0001
0100
0100
,
0001
0000
0001
0100
,
0100
0110
0100
0101
,
0001
0010
0001
0001
,
0100
0110
0100
0011
,
0000
0100
0000
0000
,
0100
0110
0100
1001
,
0001
0001
0010
0010
,
0001
1001
0001
0110
,
0000
0000
0000
0000
,
0010
0010
0010
0001
,
0001
0000
0100
0100
,
0100
0000
0010
0000
,
0001
0100
0100
0100
,
0100
0000
0001
0001
,
1001
0000
0010
0001
,
0100
0100
0001
0010
,
0110
0000
0000
0000
,
0001
0000
0001
0000
,
0010
0000
0010
0000
,
0001
0000
0001
0000
,
0010
0000
0010
0000
,
0100
0000
0001
0000
,
0010
0000
0010
0000
,
0001
0000
0001
0000
,
0001
0200
0000
0000
,
0310
0000
0010
0001
,
0001
0000
0100
0100
,
0100
0000
0010
0000
,
0001
0100
0100
0100
,
0100
0000
0001
0001
,
1001
0000
0010
0001
,
0100
0100
0001
0010
,
0110
0000
0000
0000
;

//--------------- dance-single - Dancing Stage featuring Disney's RAVE (unreleased) ----------------
#NOTES:
     dance-single:
     Dancing Stage featuring Disney's RAVE (unreleased):
     Medium:
     6:
     0,0,0,0,0:
0000
0000
0000
0000
,
0000
0000
0000
0000
,
0000
0000
0000
0000
,
0001
0000
0001
0000
0001
1000
0100
0000
,
1100
0110
0110
1010
,
0100
0000
0100
0000
0010
0100
0010
0000
,
1010
1100
1100
0011
,
0100
0000
0001
0000
0001
1000
0010
0000
,
1010
0110
0110
1100
,
0001
0000
0100
0000
0100
0010
0100
0000
,
0011
1001
1001
0110
,
1001
0000
0000
0000
,
0010
0100
0001
0010
,
0001
0100
0000
0000
,
0100
0010
0001
0100
,
0110
0110
0011
0011
,
0100
1000
0010
0100
,
0001
0010
0000
0000
,
0010
0100
0001
0100
,
0001
0000
0010
0001
,
0110
1100
1100
1001
,
0001
0000
0001
0000
0100
0010
0100
0000
,
1100
1001
0011
1001
,
0000
0100
0100
0000
,
1010
1100
0110
0110
,
0001
0000
0001
0000
0001
1000
0010
0000
,
0011
0011
0101
0110
,
0110
0100
0100
0100
,
0110
0000
0010
0010
,
0010
0000
0000
1000
0100
0000
0001
0000
,
0100
0000
0010
1000
,
0010
0001
0001
0001
,
0001
0000
0001
0010
,
1010
0000
0000
0100
0001
0000
0010
0000
,
0010
0000
0100
0000
,
1100
0000
0001
0100
,
0100
0010
0001
1000
,
0100
0010
0001
0100
,
0001
0010
0001
1000
,
0100
0010
0100
1000
,
0010
0100
0001
0100
,
0010
1000
0100
0010
,
0001
1000
0100
0010
,
0001
0100
0100
0100
,
0110
0000
0010
0010
,
0010
0000
0000
1000
0100
0000
0001
0000
,
0100
0000
0010
1000
,
0010
0001
0001
0001
,
0001
0000
0001
0010
,
1010
0000
0000
0100
0001
0000
0010
0000
,
0010
0000
0011
0000
,
1100
0000
0000
0000
;

//--------------- dance-single - Dancing Stage featuring Disney's RAVE (unreleased) ----------------
#NOTES:
     dance-single:
     Dancing Stage featuring Disney's RAVE (unreleased):
     Hard:
     8:
     0,0,0,0,0:
0000
0000
0000
0000
,
0000
0000
0000
0000
,
0000
0000
0000
0000
,
0100
0010
0001
0100
0010
1000
0100
0000
,
1001
0101
0011
0110
,
0100
0010
0001
0000
0001
0010
0100
0000
,
1010
0011
0110
0101
,
0001
0010
0100
0000
0010
1000
0100
0000
,
0110
0101
1010
1100
,
0001
0010
0100
0000
0001
0100
0010
0000
,
0110
1001
0110
0011
,
0110
0100
0010
0001
,
0010
0100
0001
0010
0100
0000
0010
0100
,
0010
1000
0100
0000
0001
0000
0010
0000
,
0001
0010
0100
1000
0100
0000
0100
0010
,
0001
0001
0010
0001
,
0001
1000
0100
0010
0100
0000
0100
1000
,
0010
0100
0010
0000
0001
0000
0001
0000
,
0100
0010
0001
0100
0010
0100
0001
0100
,
0001
0100
0001
0100
,
0110
1100
0110
0011
,
0100
1000
0010
0100
0001
0010
0001
0000
,
0011
1100
1001
1001
,
0100
0010
0001
1000
0010
0000
0000
0000
,
0101
0011
1100
0110
,
0001
0010
0100
1000
0100
0000
0100
0000
,
0101
1010
0011
1100
,
0010
0110
0110
0110
,
0110
0000
0000
0100
0010
1000
0001
0100
,
0001
0000
0000
0010
0100
0010
0100
1000
,
0001
0000
0000
0010
0000
0000
1000
0000
0100
0000
1000
0000
0100
0000
1000
0000
,
0010
1001
1001
1001
,
1001
0000
0000
1000
0010
1000
0100
1000
,
1001
0000
0000
0100
0010
0100
0001
0010
,
0100
0000
0000
0010
0000
0000
0010
0000
0001
0000
0100
0000
0010
0000
1000
0000
,
0101
0000
0000
0000
0000
0000
1000
0010
0100
0000
1000
0000
0010
0000
1000
0000
,
0010
0000
0000
0001
0000
0000
0010
0000
0001
0000
1000
0000
0010
0000
0100
0000
,
0001
0000
0000
0010
0000
0000
1000
0100
0010
0000
0100
0000
0001
0000
1000
0000
,
0001
0000
0000
0100
0000
0000
0100
0000
0001
0000
0010
0000
0100
0000
0010
0000
,
0001
0000
0000
0100
0000
0000
1000
0100
1000
0000
0010
0000
0001
0000
0010
0000
,
0001
0000
0000
1000
0000
0000
1000
0000
0010
0000
0100
0000
0010
0000
1000
0000
,
0100
0000
0000
1000
0000
0000
0100
0001
0010
0000
1000
0000
0100
0000
0010
0000
,
0001
0000
0000
0100
0000
0000
0100
0000
0001
0000
0100
0000
0010
0000
1000
0000
,
0100
0110
0110
0110
,
0110
0000
0000
0100
0010
1000
0001
0100
,
0001
0000
0000
0010
0100
0010
0100
1000
,
0001
0000
0000
0010
0000
0000
1000
0000
0100
0000
1000
0000
0100
0000
1000
0000
,
0010
1001
1001
1001
,
1001
0000
0000
1000
0010
1000
0100
1000
,
1001
0000
0000
0100
0010
0100
0001
0010
,
0100
0000
0000
0010
0000
0000
0010
0000
0001
0000
0100
0000
0010
0000
1000
0000
,
0101
0000
0000
0000
;

//--------------- dance-double - Dancing Stage featuring Disney's RAVE (unreleased) ----------------
#NOTES:
     dance-double:
     Dancing Stage featuring Disney's RAVE (unreleased):
     Easy:
     6:
     0,0,0,0,0:
00000000
00000000
00000000
00000000
,
00000000
00000000
00000000
00000000
,
00000000
00000000
00000000
00000000
,
00000100
00000000
00000000
00000000
,
00001000
00010000
00001000
00100000
,
00000000
00000000
00000000
00000000
,
00001000
00010000
00000100
00010000
,
00000000
00000000
00000000
00000000
,
00010000
10000000
00010000
10000000
,
00000000
00000000
00000000
00000000
,
00001000
00000001
00001000
00000001
,
00000000
00000000
00000000
00000000
,
00001000
00010000
00001000
00010000
,
00001000
01000000
00000000
00000000
,
00000100
00100000
00001000
00010000
,
00001000
00000100
00000001
00001000
,
00000010
00010000
00001000
00010000
,
00100000
10000000
00000000
00000000
,
10000000
00010000
00100000
00001000
,
00000000
00000000
00000000
00000000
,
00001010
00011000
01010000
00011000
,
00001000
00000001
00001000
00010000
,
00110000
00011000
00000011
00011000
,
00001000
00000000
00000000
00000000
,
00010100
00101000
00010100
00100100
,
00000010
00001000
00010000
00010000
,
00011000
00110000
00011000
00001100
,
00011000
00000000
00000000
00000000
,
00010000
00001000
01000000
00010000
,
01000000
00010000
00001000
00000100
,
00001000
00000001
00001000
00000001
,
00001000
00011000
00011000
00011000
,
00011000
00010000
00100000
00010000
,
00011000
00000000
00100000
00001000
,
00100000
00001000
00010000
00001000
,
00011000
00000000
00000000
00000000
,
00000010
00010000
00010000
00001000
,
00001000
00000001
00001000
00010000
,
00010000
00010000
10000000
00010000
,
00001000
00000100
00001000
00100000
,
01000000
00001000
00001000
00010000
,
00010000
10000000
00010000
00001000
,
00001000
00001000
00000001
00001000
,
00010000
00100000
00100000
00100000
,
00001000
00010000
00000010
00001000
,
00000010
00001000
00010000
00100000
,
00010000
10000000
00010000
10000000
,
00010000
00011000
00011000
00011000
,
00011000
00001000
00000100
00001000
,
00011000
00000000
00000100
00010000
,
00000100
00010000
00001000
00010000
,
00011000
00000000
00000000
00000000
;

//--------------- dance-double - Dancing Stage featuring Disney's RAVE (unreleased) ----------------
#NOTES:
     dance-double:
     Dancing Stage featuring Disney's RAVE (unreleased):
     Medium:
     8:
     0,0,0,0,0:
00000000
00000000
00000000
00000000
,
00000000
00000000
00000000
00000000
,
00000000
00000000
00000000
00000000
,
00100000
00001000
00100000
00000010
,
00010000
00000010
00010000
00000010
00010000
00001000
00010000
00001000
,
01000000
00010000
01000000
00010000
,
00010000
00000100
00010000
00000100
00010000
00000100
00010000
00001000
,
00010000
00010000
10000000
10000000
,
00010000
00100000
00010000
00100000
00010000
01000000
10000000
00010000
,
00100000
00001000
00100000
00001000
,
00010000
00001000
00010000
00001000
00010000
00000010
00010000
00000100
,
00010000
00000000
00000000
00000000
,
01000000
00001000
01000000
00010000
01000000
00100000
01000000
00100000
,
01000000
00010000
00001000
00000000
00001000
00000000
00010000
00000000
,
00010000
00001000
00010000
00001000
00010000
00000010
00010000
00001000
,
00000100
00001000
00000100
00001000
,
00001000
00000001
00001000
00000001
00001000
00000100
00001000
00000100
,
00001000
00000100
00010000
00000000
00001000
00000000
00010000
00000000
,
00010000
00000100
00010000
00000100
00010000
00001000
00010000
00001000
,
00010000
00100000
01000000
00000000
,
10000000
01000000
00000000
00000000
01000000
00100000
00000000
00000000
00100000
00010000
00000000
00000000
00010000
00001000
00000000
00000000
,
00010000
00001000
00010000
00001000
00010000
00001000
00010000
00000000
,
00001000
00000100
00000000
00000000
00000100
00000010
00000000
00000000
00000010
00000001
00000000
00000000
00000001
00000010
00000000
00000000
,
00001000
00000001
00001000
00000001
00001000
00000000
00000000
00000000
,
00000010
00000100
00000000
00000000
00000100
00001000
00000000
00000000
00001000
00010000
00000000
00000000
00010000
00100000
00000000
00000000
,
00010000
00001000
00010000
00100000
00010000
00000100
00010000
00000000
,
00010000
00100000
00000000
00000000
00100000
01000000
00000000
00000000
01000000
10000000
00000000
00000000
10000000
01000000
00000000
00000000
,
01010000
00010000
00001000
00010000
,
00001000
00000000
00000000
00000100
00010000
00001000
00010000
00000100
,
00010000
00000000
00000000
00100000
00010000
01000000
00010000
00100000
,
00010000
00000100
00010000
00000100
,
00010000
00010000
00001000
00010000
,
00011000
00000000
00000000
00001000
00000001
00001000
00000100
00001000
,
00000100
00000000
00000000
00010000
00001000
00010000
00001000
00100000
,
00010000
00100000
00010000
00000100
,
00011000
00000000
00000000
00000000
,
00010000
00000100
00010000
00000100
00010000
00001000
00010000
00001000
,
00010000
00100000
00010000
00100000
01000000
00100000
01000000
00100000
,
10000000
00010000
01000000
00010000
01000000
00010000
00100000
00010000
,
00100000
00010000
00001000
00010000
00001000
00010000
00001000
00010000
,
00001000
00000100
00001000
00000100
00001000
00000100
00000010
00000100
,
00000010
00000100
00000001
00000010
00000001
00000100
00000010
00000100
,
00001000
00010000
00001000
00010000
00100000
00010000
00001000
00010000
,
00100000
00001000
00010000
00000000
00001000
00000000
00010000
00000000
,
00001000
00000000
00000000
00000100
00010000
00001000
00010000
00000100
,
00010000
00000000
00000000
00100000
00010000
01000000
00010000
00100000
,
00010000
00000100
00010000
00000100
,
00010000
00010000
00001000
00010000
,
00011000
00000000
00000000
00001000
00000001
00001000
00000100
00001000
,
00000100
00000000
00000000
00010000
00001000
00010000
00001000
00100000
,
00010000
00100000
00010000
00000100
,
00011000
00000000
00000000
00000000
;

//--------------- dance-couple - Dancing Stage featuring Disney's RAVE (unreleased) ----------------
#NOTES:
     dance-couple:
     Dancing Stage featuring Disney's RAVE (unreleased):
     Easy:
     3:
     0,0,0,0,0:
00000000
00000000
00000000
00000000
,
00000000
00000000
00000000
00000000
,
00000000
00000000
00000000
00000000
,
01000010
00000000
00000000
00000000
01000010
00100100
00011000
00000000
,
00011000
00000000
01000010
00000000
01000010
00000000
01000010
00100100
,
00000000
00010000
01000000
01000000
,
01000010
00000000
00011000
00000000
00011000
00000000
01000010
10000001
,
00000000
00000010
00001000
00000010
,
00010000
00000000
00010000
00000000
00010000
00000000
01000000
10000000
,
00000000
00100100
00100100
00100100
,
00001000
00000000
00001000
00000000
00001000
00000000
00100100
01000010
,
00100100
00000000
00000000
00000000
,
00010000
00010000
00010000
01000000
,
01000000
00010001
00000000
00000000
,
00000010
00000010
00001000
00001000
,
00100100
00000000
00100100
01000010
,
01000000
01000000
00010000
00010000
,
00011000
01000010
00000000
00000000
,
00000000
00001000
00000010
00000010
,
00001000
00000000
00001000
01000000
,
11000011
01100110
10011001
01011010
,
00010000
00000100
00010000
00011000
,
11000011
01100110
01100110
00111100
,
00000000
00000001
01000000
00000000
00100100
00000000
00000000
00000000
,
01011010
01100110
01100110
10011001
,
00010000
00001000
00100100
00100100
,
10011001
10011001
00111100
01100110
,
01000010
00000000
00000000
00000000
,
00100000
00000100
00100000
00001000
,
00010000
00000000
00000010
01000000
,
00000010
00000000
00100000
00000000
,
00011000
01000010
01000010
01000010
,
01000010
00000000
00001000
00010000
,
10011001
00000000
00100000
00001000
,
01000000
00000010
00010000
00000100
,
01100110
00000000
00000000
00000000
,
00011000
10000001
00011000
10000001
,
00101000
10000001
00100100
01000010
,
00011000
01000010
00011000
01000010
,
00100100
10000001
00100100
10000001
,
01000010
10000001
00011000
01000010
,
00100100
01000010
00100100
01000010
,
00011000
10000001
00011000
10000001
,
00011000
01000010
01000010
01000010
,
00100000
00000100
00100000
00001000
,
00010000
00000000
00000010
01000000
,
00000010
00000000
00100000
00000000
,
00011000
01000010
01000010
01000010
,
01000010
00000000
00001000
00010000
,
10011001
00000000
00100000
00001000
,
01000000
00000010
00010000
00000100
,
01100110
00000000
00000000
00000000
;

//--------------- dance-couple - Dancing Stage featuring Disney's RAVE (unreleased) ----------------
#NOTES:
     dance-couple:
     Dancing Stage featuring Disney's RAVE (unreleased):
     Medium:
     4:
     0,0,0,0,0:
00000000
00000000
00000000
00000000
,
00000000
00000000
00000000
00000000
,
00000000
00000000
00000000
00000000
,
00010000
00000000
00010000
00000000
00010000
10000000
01000000
00000000
,
00010001
00010001
00001001
00100100
,
01100000
00000000
01000000
00000000
00100000
01000000
00100000
00000000
,
01010000
00101000
00010100
00001001
,
00001000
00000000
00000001
00000000
00000001
00001000
00000010
00000000
,
00101000
10001000
00100100
10001000
,
00010000
00000000
01000000
00000000
01000000
00100000
01000000
00000000
,
10001000
00010010
00011000
10001000
,
00011000
00000000
00000000
00000000
,
10000000
00001000
01000000
00000100
,
00010000
00001000
00000000
00000000
,
10000000
00001000
10000000
00010000
,
00101000
00010001
00001100
00000110
,
10000000
00010000
01000000
00001000
,
00100000
00001000
00000000
00000000
,
00000010
00001000
00000001
00000010
,
00010000
00000000
00100000
00010000
,
01101001
11000011
11000011
10010110
,
10000000
00000000
00000100
00000000
01000000
00000100
00010000
00000000
,
11000011
10010110
00111100
10010110
,
00000000
01000000
00000100
00000000
,
10100101
11000011
01101001
01101001
,
01000000
00000000
00001000
00000000
10000000
00001000
00010000
00000000
,
00111100
00111100
01011010
01101001
,
01101001
01000000
00000100
01000000
,
00100100
00000000
00100000
00001000
,
00100000
00000000
00000000
10000000
01000000
00000000
00010000
00000000
,
01000000
00000000
01000000
00010000
,
00100000
00001000
01000000
00001000
,
01000000
00000000
00000001
00001000
,
10101000
00000000
00000000
00000010
00001000
00000000
00000100
00000000
,
00000100
00000000
01000000
00000000
,
11000011
00000000
00010000
00000001
,
10000000
00010000
10000000
00010000
,
10000000
00001000
01000000
00010000
,
00100000
00001000
01000000
00000100
,
00010000
00000010
00010000
00000100
,
00010000
00001000
10000000
00001000
,
00010000
00000100
00010000
00000001
,
00001000
00000100
00000010
00000001
,
00011000
01000000
00000100
01000000
,
00100100
00000000
00100000
00001000
,
00100000
00000000
00000000
10000000
01000000
00000000
00010000
00000000
,
01000000
00000000
01000000
00010000
,
00100000
00001000
01000000
00001000
,
01000000
00000000
00000001
00001000
,
10101000
00000000
00000000
00000010
00001000
00000000
00000100
00000000
,
00000100
00000000
01000000
00000000
,
11000011
00000000
00000000
00000000
;

//--------------- dance-couple - Dancing Stage featuring Disney's RAVE (unreleased) ----------------
#NOTES:
     dance-couple:
     Dancing Stage featuring Disney's RAVE (unreleased):
     Hard:
     7:
     0,0,0,0,0:
00000000
00000000
00000000
00000000
,
00000000
00000000
00000000
00000000
,
00000000
00000000
00000000
00000000
,
01000000
00001000
01000000
00001000
00100000
00010000
01000000
00001000
,
10000000
00000100
00000000
00000000
01000000
00000010
00000000
00000000
00100000
00000001
00000000
00000000
00010000
00001000
00000000
00000000
,
01000000
00100000
00010000
00000000
00010000
00100000
01000000
00000000
,
00001000
01000000
00000000
00000000
00000100
00100000
00000000
00000000
00000010
00010000
00000000
00000000
00000001
10000000
00000000
00000000
,
00001001
00000010
00000100
00000000
00000010
00001000
00000100
00000000
,
10000000
01000000
00000000
00000000
00000100
00000010
00000000
00000000
00100000
00010000
00000000
00000000
00000001
00001000
00000000
00000000
,
10000000
00010000
00100000
00000000
00010000
00000010
00010000
00000000
,
00100000
00010000
00000000
00000000
00100000
00000010
00000000
00000000
00010000
00000001
00000000
00000000
00010000
00001000
00000000
00000000
,
00100000
00001000
00100000
00000100
,
00100000
00001000
10000000
00001000
00010000
00000000
00010000
00000100
,
01000000
00001000
01000000
00000000
00010000
00000000
00010000
00000000
,
00001000
00000100
00010000
00000010
00010000
00000000
01000000
00000100
,
01000000
00000100
01000000
00000100
,
01000000
00010000
00100000
00010000
01000000
00000000
01000000
00100000
,
01000000
00100000
00010000
00000000
00000001
00000000
00010000
00000000
,
00001000
01000000
10000000
00001000
00010000
00000100
00001000
00000100
,
00010000
00010000
00010000
00111100
,
10000000
00000100
00000000
00000000
01000000
00000010
00000000
00000000
00100000
00000001
00000000
00000000
00010000
00001000
00000000
00000000
,
00010000
00000100
01000000
00001000
00010000
00000100
00010000
00000000
,
00001000
01000000
00000000
00000000
00000100
00100000
00000000
00000000
00000010
00010000
00000000
00000000
00000001
10000000
00000000
00000000
,
01000000
00001000
00010000
00000001
00010000
00000000
00000000
00000000
,
10000000
01000000
00000000
00000000
00000100
00000010
00000000
00000000
00100000
00010000
00000000
00000000
00000001
00001000
00000000
00000000
,
00000100
01000000
00000100
00010000
00000100
00000000
01100100
00000000
,
00100000
00010000
00000000
00000000
00100000
00000010
00000000
00000000
00010000
00000001
00000000
00000000
00010000
00001000
00000000
00000000
,
00100010
01001000
00100001
10000100
,
00100010
00000000
00000000
00000001
00001000
00000100
00010000
00000010
,
00011000
00000000
00000000
00000001
00010000
00001000
00100000
00001000
,
00010000
00000000
00000000
00100000
00000000
00000000
00001000
00000000
10000000
00000000
00001000
00000000
01000000
00000000
00010000
00000000
,
00100000
00000000
00000000
00000100
10010000
00000000
00000000
00000000
00001001
00000000
00000000
00000000
10010000
00000000
00000000
00000000
,
00001001
00000000
00000000
00000001
00001000
00000010
00010000
10000010
,
00011000
00000000
00000000
00000010
00100000
00001000
01000000
00000100
,
00010000
00000000
00000000
00000100
00000000
00000000
00000001
00000000
00001000
00000000
00000010
00000000
00010000
00000000
00000100
00000000
,
01011000
00000000
00000000
00000000
00000000
00000000
00000010
00010000
00000010
00000000
00000001
00000000
00000001
00000000
00000010
00000000
,
00000100
00000000
00000000
00100000
00000000
00000000
01000000
00000000
00010000
00000000
00100000
00000000
00100000
00000000
01000000
00000000
,
00010000
00000000
00000000
00100000
00000000
00000000
00010000
01000000
00001000
00000000
00000010
00000000
00000001
00000000
00000010
00000000
,
00000001
00000000
00000000
00100000
00000000
00000000
00000010
00000000
00001000
00000000
00010000
00000000
00010000
00000000
00100000
00000000
,
00010000
00000000
00000000
00100000
00000000
00000000
00000100
01000000
00001000
00000000
00010000
00000000
00100000
00000000
00100000
00000000
,
00010000
00000000
00000000
00010000
00000000
00000000
00000010
00000000
00000001
00000000
00000010
00000000
00000100
00000000
00000010
00000000
,
00000001
00000000
00000000
00010000
00000000
00000000
00000100
01000000
00001000
00000000
00000100
00000000
00000010
00000000
00000100
00000000
,
00000010
00000000
00000000
00010000
00000000
00000000
00010000
00000000
00001000
00000000
00001000
00000000
00010000
00000000
00100000
00000000
,
00010000
00010100
10000010
01000001
,
00100010
00000000
00000000
10000000
00010000
01000000
00001000
00100000
,
00011000
00000000
00000000
10000000
00001000
00010000
00000010
00010000
,
00001000
00000000
00000000
00000010
00000000
00000000
00010000
00000000
00000001
00000000
00010000
00000000
00000100
00000000
00001000
00000000
,
00000010
00000000
00000000
01000000
00001001
00000000
00000000
00000000
10010000
00000000
00000000
00000000
00001001
00000000
00000000
00000000
,
10010000
00000000
00000000
10000000
00010000
00100000
00001000
00100001
,
00011000
00000000
00000000
00100000
00000010
00010000
00000100
01000000
,
00001000
00000000
00000000
01000000
00000000
00000000
10000000
00000000
00010000
00000000
00100000
00000000
00001000
00000000
01000000
00000000
,
00011100
00000000
00000000
00000000
;
