#VERSION:0.83;
#TITLE:BOOM, BOOM, BOOM, BOOM!! [Eurobeat Mix];
#ARTIST:VENGABOYS;
#GENRE:EUROBEAT;
#MUSIC:Boom, Boom, Boom, Boom!! [Eurobeat Mix].ogg;
#BANNER:Boom, Boom, Boom, Boom!! [Eurobeat Mix]-bn.png;
#BACKGROUND:Boom, Boom, Boom, Boom!! [Eurobeat Mix]-bg.png;
#CDTITLE:./CDTITLES/DANCEMANIA PRESENTS AKI MONOGATARI 2007.PNG;
#SAMPLESTART:76.866;
#SAMPLELENGTH:15;
#OFFSET:-0.103;
#BPMS:0=153.980;

//--------------- dance-single - B. M'Rey ----------------
#NOTEDATA:;
#STEPSTYPE:dance-single;
#DESCRIPTION:B. M'Rey;
#CREDIT:B. M'Rey;
#DIFFICULTY:Beginner;
#METER:6;
#RADARVALUES:0,0,0,0,0;
#NOTES:
0000
0000
0000
0000
,
1001
0000
0000
0000
,
1000
0000
0001
0000
,
0010
0000
0100
0000
,
0001
0000
1000
0000
,
0010
0000
0100
0000
,
0001
0000
1001
0000
,
0010
0000
1000
0100
,
0010
0000
1001
1001
,
0001
0000
1000
0000
,
0001
0010
0100
1000
,
0100
0000
0000
0000
,
0001
0010
0100
1000
,
0100
0001
0000
0010
,
0001
0010
0100
1000
,
0100
0000
0001
0000
,
0001
0000
0100
0000
,
0100
0000
0000
0000
,
0001
0000
1000
0001
,
0010
0000
0100
1000
,
0100
0000
0001
0010
,
0001
0000
0100
0010
,
0100
0000
1000
0100
,
1000
0000
0001
0010
,
0001
0000
0100
0010
,
0100
0000
0000
0000
,
0001
0010
1000
0100
,
1000
0010
0000
0000
,
0001
0000
0010
1000
,
0100
0000
0001
0000
,
0010
0100
1000
0100
,
1000
0100
0000
0000
,
0000
0001
0010
0001
,
0000
0000
0000
0000
,
1000
0000
0001
0000
,
0001
1000
0001
1000
,
0010
0000
0100
0000
,
0010
0000
0000
0000
,
0001
0000
1000
0000
,
0001
0010
0001
0010
,
0100
0000
0010
0000
,
0100
0000
0000
0000
,
1001
0000
0010
0100
,
1001
0000
0010
0100
,
0001
0000
1000
0000
,
0010
0100
0000
0000
,
1001
0000
0010
0000
,
1001
0000
0010
0000
,
0100
0000
0001
0010
,
1000
0001
0000
1000
,
1001
0000
0010
0000
,
1001
0000
0010
0000
,
0100
0000
0001
0000
,
0010
1000
0000
0000
,
1001
0000
1000
0000
,
1001
0000
0010
0000
,
1000
0000
0001
0000
,
1000
0000
0000
0000
,
0001
0000
1000
0010
,
0100
0000
0001
0010
,
0001
0000
1000
0100
,
1000
0000
0001
0010
,
0001
0000
1000
0010
,
0100
0000
0001
0010
,
1000
0000
0001
0010
,
0100
0000
0001
0010
,
1000
0000
0100
1000
,
0010
0000
0001
0010
,
0100
0000
0001
0010
,
1000
0000
0100
0010
,
0001
0000
0000
0000
;

//--------------- dance-single - B. M'Rey ----------------
#NOTEDATA:;
#STEPSTYPE:dance-single;
#DESCRIPTION:B. M'Rey;
#CREDIT:B. M'Rey;
#DIFFICULTY:Easy;
#METER:8;
#RADARVALUES:0,0,0,0,0;
#NOTES:
0000
0000
0000
0000
,
0001
0010
0100
1000
,
0010
0000
0001
0000
,
0010
0000
0001
0000
,
0100
0000
0010
0000
,
1000
0000
0100
0010
,
0100
0000
1001
0000
,
0001
0100
0010
0100
,
0010
0000
1001
1001
,
1001
0100
0010
1000
,
0020
0000
1000
1030
0020
0000
0100
0100
,
0031
1000
0010
0100
,
0020
0000
0100
0130
0020
0000
1000
1000
,
0130
1000
0100
1000
,
0020
0000
0100
0130
0020
0000
1000
1030
,
0001
1000
0010
1000
,
0110
0000
0101
0000
,
1001
0000
0001
1000
,
0010
1000
0010
0100
,
0001
0010
0100
0010
,
0100
1000
0100
0010
,
0001
0100
0001
0010
,
0001
0010
0100
0010
,
0100
1000
0001
0010
,
0001
0100
0001
0100
,
0010
0000
0000
1000
0000
0000
0000
0000
0000
0000
0000
0000
1000
0000
0000
0000
,
0100
0010
0001
0100
,
0010
0001
0100
0000
0010
0000
1000
0000
,
0010
1000
0001
1000
,
0001
0100
0010
1000
,
0010
1000
0001
0010
,
0100
0010
1000
0000
0001
0000
0010
0000
,
0001
0100
1000
0000
0001
0000
1000
0010
,
0000
0100
0001
0100
,
0020
0000
0100
0130
0020
0000
1000
1030
,
0100
1000
0010
0100
,
0020
0000
0100
0130
0002
0000
1000
1003
,
0001
0100
0001
0000
,
0020
0000
0100
0130
0020
0000
1000
1030
,
0001
0100
0001
0100
,
0020
0000
0100
0130
0002
0000
0010
0013
,
0100
0011
0011
0011
,
0011
0000
0001
0010
,
0100
0000
0100
1000
,
0001
0010
0001
0010
,
0100
1010
1010
1010
,
1010
0000
0010
1000
,
0001
0000
0001
0010
,
0001
1000
0100
0010
,
0100
1100
1100
1100
,
1100
0000
0100
1000
,
0001
0000
0100
0010
,
0100
0000
0100
1000
,
0010
1010
1010
1010
,
1010
0000
0100
0010
,
0001
0000
0100
0010
,
0001
0000
0100
0000
,
0001
0000
0100
1000
,
0010
0100
0001
0010
,
0001
1000
0010
0100
,
0010
1000
0100
1000
,
0010
0100
0010
0100
,
0001
0100
0001
0010
,
0100
1000
0001
0010
,
0001
0010
0001
1000
,
0100
0000
0000
1000
0000
0000
0000
0000
0100
0000
0000
0000
1000
0000
0000
0000
,
0001
0100
0010
0100
,
0001
0010
0001
0010
,
0100
1000
0010
0100
,
0001
0100
0010
0100
,
0002
0000
0000
0000
,
0000
0000
0000
0000
,
0003
0000
0000
0000
;

//--------------- dance-single - B. M'Rey ----------------
#NOTEDATA:;
#STEPSTYPE:dance-single;
#DESCRIPTION:B. M'Rey;
#CREDIT:B. M'Rey;
#DIFFICULTY:Medium;
#METER:10;
#RADARVALUES:0,0,0,0,0;
#NOTES:
0000
0000
0000
0000
,
0100
0000
0100
0010
0001
0000
0100
0000
,
0100
1000
0001
1000
,
0010
0100
0010
1000
,
0001
1000
0001
1000
,
0100
0010
0100
1000
,
1010
0000
0001
0100
0010
0000
0000
0000
,
0010
1000
0100
0000
0010
0000
0001
0000
,
0101
0000
0010
1000
0110
0000
0110
0000
,
1001
1010
0011
0110
,
0001
0000
0100
1000
0001
0000
0010
0100
,
0010
1000
0100
0010
,
0010
0000
0010
1000
0100
0000
0100
0010
,
0100
1001
1010
1001
,
0001
0000
0010
1000
0100
0000
0010
0100
,
0001
0010
0001
0010
,
1100
0000
0101
0000
,
0110
0000
0000
0001
1000
0001
1000
0001
,
0010
0000
0010
0000
0010
0001
1000
0001
,
1000
0000
0100
0000
0100
0010
1000
0010
,
1000
0000
1000
0000
0100
0001
0100
0010
,
0100
0000
1000
0000
1000
0100
1000
0001
,
0100
0000
0100
0000
0010
0100
0010
0100
,
0010
0000
1000
0000
1000
0100
1000
0100
,
0010
0000
0010
0000
0010
0100
1000
0100
,
1100
0000
0000
0011
0000
0000
0000
0000
0000
0000
0000
0000
0110
0000
0000
0000
,
0001
0000
0001
0010
0001
0000
0010
1000
,
0010
1000
0010
0000
0001
0000
0100
0000
,
0100
0010
0100
0010
0001
0000
0001
0100
,
0010
0001
1000
0100
,
0010
0000
0001
1000
0001
0000
0010
0000
,
0100
0010
0001
0000
0100
0000
0010
0000
,
0100
0000
0010
1000
0100
0000
0001
0010
,
0000
0100
1000
0010
,
0002
0013
0200
1300
,
0100
1000
0001
1000
0100
0000
0100
0000
,
0002
0013
0002
0103
,
0001
0000
0100
1000
0010
0000
0000
0000
,
0020
0031
0020
0031
,
0001
0000
0010
0100
0001
0000
0010
0000
,
0002
1003
0002
0103
,
1001
0101
1010
1010
,
1100
0000
0000
0010
0001
0000
0010
1000
,
0010
0000
0010
0100
0001
0000
0001
0010
,
0001
0000
0000
1000
0000
0000
0010
0000
0100
0000
0000
0000
0001
0000
0100
0000
,
0001
0110
1010
0110
,
0011
0000
0000
1000
0001
0000
0001
1000
,
0001
0000
0000
1000
0100
0000
0001
0100
,
0001
0000
0000
0010
0000
0000
1000
0000
0010
0000
0100
0000
0001
0000
0100
0000
,
0010
1001
0101
1010
,
0011
0000
0000
0010
0001
0000
0001
1000
,
0001
0000
0000
0010
0100
0000
0001
1000
,
0001
0000
0000
0100
0000
0000
1000
0000
0010
0000
0000
0000
0010
0000
0100
0000
,
0001
0110
0011
1100
,
1010
0000
0000
0100
0010
0000
0001
1000
,
0001
0000
0000
0010
0100
0000
0100
0010
,
1001
0000
0110
0000
,
0011
0000
0000
0001
1000
0001
1000
0001
,
0010
0000
0010
0000
0010
0001
1000
0001
,
1000
0000
0100
0000
0100
0010
1000
0010
,
1000
0000
1000
0000
0100
0001
0100
0010
,
0100
0000
1000
0000
1000
0100
1000
0001
,
0100
0000
0100
0000
0010
0100
0010
0100
,
0010
0000
1000
0000
1000
0100
1000
0100
,
0010
0000
0010
0000
0010
0100
1000
0100
,
1100
0000
0000
0011
0000
0000
0010
0000
1000
0000
0010
0000
1000
0000
0010
0000
,
0100
0000
0100
0000
0100
0010
1000
0010
,
1000
0000
0100
0000
0100
0010
0100
0010
,
1000
0000
1000
0000
0010
0100
0010
0100
,
1000
0000
1000
0000
0010
0001
0010
0100
,
0020
0000
0000
0000
,
0000
0000
0000
0000
,
0030
0000
0000
0000
;

//--------------- dance-single - B. M'Rey ----------------
#NOTEDATA:;
#STEPSTYPE:dance-single;
#DESCRIPTION:B. M'Rey;
#CREDIT:B. M'Rey;
#DIFFICULTY:Hard;
#METER:12;
#RADARVALUES:0,0,0,0,0;
#NOTES:
0000
0000
0000
0000
,
0100
0010
0001
0010
0001
0010
0100
0000
,
0100
0010
0001
0100
,
0001
0010
0100
1000
,
0100
1000
0001
0100
,
0001
0010
0001
0010
,
0010
0000
0001
1000
0110
0000
0010
0100
,
0001
0010
0001
0010
0001
0100
0010
1000
,
0100
0000
0100
0010
1001
0000
1010
0000
,
0010
1010
0110
0101
,
0001
1000
0001
0010
0100
0010
0100
0010
,
0001
0100
0001
0100
0010
1000
0100
1000
,
0010
0100
0010
0100
0010
1000
0001
0100
,
0010
0100
1001
0000
0101
0000
0011
0000
,
0100
1000
0100
1000
0010
0100
0010
0100
,
0001
0010
0001
1000
0001
0100
0010
1000
,
0101
0000
0001
0010
0110
0000
0100
1000
,
0110
0000
0000
0001
0100
0001
0100
0010
,
0100
0000
0000
0010
0000
0000
0001
0000
0010
0000
0100
0000
0010
0000
0100
0000
,
1000
0000
0000
0100
0000
0000
0001
0000
1000
0000
0010
0000
0100
0000
0001
0000
,
1000
0000
0000
0100
0000
0000
0100
0000
0010
0000
0100
0000
1000
0000
0010
0000
,
1000
0000
0000
0001
0000
0000
0001
0000
0010
0000
0001
0000
0100
0000
0010
0000
,
0100
0000
0000
0001
0000
0000
0001
0000
1000
0000
0100
0000
0010
0000
0001
0000
,
0100
0000
0000
0010
0000
0000
0100
0000
1000
0000
0010
0000
1000
0000
0010
0000
,
0100
0000
0000
0001
0000
0000
0100
0000
1000
0000
0001
0000
0100
0000
0010
0000
,
1001
0000
0000
0101
0000
0000
0000
0000
0000
0000
0000
0000
0000
0000
0000
0000
,
0001
0010
0100
0010
0200
0000
1300
0010
,
0001
0010
0002
0000
0103
1000
0010
0100
,
0000
1000
0100
1000
0010
0000
0001
0100
,
0001
1000
0000
0000
0001
1000
0000
0000
0010
0100
0000
0000
0010
0100
0000
0000
,
0010
1000
0100
1000
0020
0000
1030
0100
,
0010
1000
0002
0000
0013
1000
0010
0100
,
0000
1000
0001
1000
0100
0010
0001
0100
,
0000
0100
0010
1000
0010
1000
0002
0000
,
0103
0110
0011
1010
,
0001
0100
0001
0100
0010
1000
0001
0000
,
1100
1100
1001
0110
,
0001
1000
0010
0100
0001
0000
0101
0000
,
1010
0110
0101
0011
,
0100
1000
0010
1000
0001
0100
0010
0000
,
0110
1001
0011
0110
,
0010
0110
0110
1001
,
1010
0000
0010
1000
0001
0100
0010
1000
,
0100
0000
0100
1000
0100
1000
0001
1000
,
0001
0000
0000
0010
0000
0000
1000
0000
0100
0000
0010
0000
0001
0000
0100
0000
,
0010
0110
0110
1001
,
1010
0000
0010
0100
0001
1000
0010
1000
,
0001
0000
0010
0100
0010
0100
0010
1000
,
0100
0000
0000
1000
0000
0000
1000
0000
0100
0000
0010
0000
0001
0000
0010
0000
,
0101
0101
0110
1010
,
1010
0000
0001
0100
0010
0100
0001
1000
,
0100
0000
0001
1000
0001
0010
0100
0010
,
0001
0000
0000
0010
0000
0000
0100
0000
0010
0000
1000
0000
0010
0000
0100
0000
,
0010
0011
1100
1100
,
0110
0000
0001
0010
0100
1000
0100
0010
,
1100
0000
0001
0010
0100
1000
0001
1000
,
0110
0000
0011
0000
,
1001
0000
0000
0001
0100
0001
0100
0010
,
0100
0000
0000
0010
0000
0000
0001
0000
0010
0000
0100
0000
0010
0000
0100
0000
,
1000
0000
0000
0100
0000
0000
0001
0000
1000
0000
0010
0000
0100
0000
0001
0000
,
1000
0000
0000
0100
0000
0000
0100
0000
0010
0000
0100
0000
1000
0000
0010
0000
,
1000
0000
0000
0001
0000
0000
0001
0000
0010
0000
0001
0000
0100
0000
0010
0000
,
0100
0000
0000
0001
0000
0000
0001
0000
1000
0000
0100
0000
0010
0000
0001
0000
,
0100
0000
0000
0010
0000
0000
0100
0000
1000
0000
0010
0000
1000
0000
0010
0000
,
0100
0000
0000
0001
0000
0000
0100
0000
1000
0000
0001
0000
0100
0000
0010
0000
,
1001
0000
0000
0101
0000
0000
0001
0000
0100
0000
0001
0000
0100
0000
0010
0000
,
0100
0000
0000
0010
0000
0000
0001
0000
0010
0000
0100
0000
0010
0000
0100
0000
,
1000
0000
0000
0100
0000
0000
0001
0000
1000
0000
0010
0000
0100
0000
0001
0000
,
1000
0000
0000
0100
0000
0000
0100
0000
0010
0000
0100
0000
1000
0000
0010
0000
,
1000
0000
0000
0001
0000
0000
0001
0000
0010
0000
0001
0000
0100
0000
0010
0000
,
0200
0000
0000
0000
,
0000
0000
0000
0000
,
0300
0000
0000
0000
;

//--------------- dance-double - B. M'Rey ----------------
#NOTEDATA:;
#STEPSTYPE:dance-double;
#DESCRIPTION:B. M'Rey;
#CREDIT:B. M'Rey;
#DIFFICULTY:Easy;
#METER:7;
#RADARVALUES:0,0,0,0,0;
#NOTES:
00000000
00000000
00000000
00000000
,
00000000
00000000
00000000
00000000
,
00010000
00000000
00000010
00000000
,
00001000
00000000
00000010
00000000
,
00000001
00000000
00000010
00000000
,
00000100
00000000
00000010
00000000
,
00001000
00000000
00001100
00000000
,
00000100
00000100
00010000
00010000
,
00000010
00000000
00001000
00001000
,
00001010
00000000
00000000
00000000
,
00000100
00010000
00000010
00010000
,
00000010
00010000
00001000
01000000
,
00001000
01000000
00001000
00100000
,
01000000
00110000
10100000
01010000
,
10100000
10000000
00010000
10000000
,
00010000
01000000
00001000
01000000
,
00010100
00000000
00101000
00000000
,
01010000
00000000
00000000
00000000
,
00001000
00100000
00001000
00100000
,
00010000
10000000
00010000
10000000
,
00100000
01000000
00001000
01000000
,
00001000
00010000
00000100
00010000
,
00000100
00001000
00000001
00001000
,
00000100
00010000
00001000
00010000
,
00000100
00001000
00000100
00001000
,
00000001
00001010
00000000
00000000
,
00000001
00001000
00000001
00001000
,
00000100
00000001
00000200
00000000
,
00000310
00001000
00000010
00010000
,
00001000
01000000
00001000
01000000
,
00010000
00100000
00010000
00100000
,
01000000
10000000
00200000
00000000
,
01300000
00100000
01000000
00100000
,
00010000
00000000
00100000
10000000
,
01100000
00000000
01001000
00000000
,
00001000
00100000
00001000
00010000
,
00010010
00000000
00001010
00000000
,
00000100
00010000
00000100
00010000
,
00010010
00000000
00010100
00000000
,
00000100
00001000
00000010
00001000
,
00010010
00000000
00010100
00000000
,
00011000
00010000
00010000
00001000
,
00011000
00000000
00000100
00001000
,
00000101
00000000
00000001
00000010
,
00000001
00000000
00001000
00000000
,
00000001
00000010
00000010
00000001
,
00000011
00000000
00000100
00010000
,
00010100
00000000
00010000
10000000
,
10100000
00000000
01100000
00000000
,
01010000
00001000
00001000
00010000
,
00011000
00000000
00100000
01000000
,
01100000
00000000
00010000
00100000
,
10000000
00000000
00100000
00010000
,
00100000
10000000
10000000
00100000
,
10100000
00000000
01000000
00010000
,
01010000
00000000
00001000
01000000
,
00011000
00000000
01001000
00000000
,
01010000
00000000
00000000
00000000
,
00001000
00010000
00001000
00010000
,
00000100
00001000
00000100
00001000
,
00000001
00000100
00000010
00000100
,
00000010
00010000
00000100
00010000
,
00000100
00001000
00000001
00001000
,
00000010
00010000
00000100
00010000
,
00001000
01000000
00001000
01000000
,
00100000
01010000
00001000
00010000
,
00000010
00010000
00000010
00010000
,
00001000
01000000
00010000
10000000
,
00010000
01000000
00001000
00010000
,
00001000
00010000
00000100
00001000
,
00000220
00000000
00000000
00000000
,
00000330
00000000
00000000
00000000
;

//--------------- dance-double - B. M'Rey ----------------
#NOTEDATA:;
#STEPSTYPE:dance-double;
#DESCRIPTION:B. M'Rey;
#CREDIT:B. M'Rey;
#DIFFICULTY:Medium;
#METER:9;
#RADARVALUES:0,0,0,0,0;
#NOTES:
00000000
00000000
00000000
00000000
,
00000000
00000000
00000000
00000000
,
00001000
00010000
00001000
01000000
,
00001000
01000000
00010000
01000000
,
00010000
10000000
00100000
10000000
,
00100000
10000000
00010000
01000000
,
01010000
00000000
00001000
00010000
00001000
00000000
00100000
00000000
,
00001000
01000000
00001000
00010000
,
00001000
00000000
00010000
00001000
00100000
00000000
00010100
00000000
,
00001100
00000000
00000000
00000000
,
00000010
00000100
00000001
00000000
00000001
00000100
00000010
00000000
,
00000010
00000100
00000001
00000100
,
00000010
00001000
00000010
00000000
00000010
00010000
00001000
00000000
,
00001000
00011000
00101000
00101000
,
01010000
00000000
00100000
10000000
00010000
00000000
00010000
10000000
,
00100000
00010000
00100000
01000000
,
01100000
00000000
10010000
00000000
,
11000000
00000000
01000000
00010000
,
10000000
00100000
00010000
00000000
01000000
00000000
00100000
00000000
,
01000000
00001000
00010000
00000000
00001000
00000000
00010000
00000000
,
01000000
00010000
00001000
00000000
00010000
00000000
00001000
00000000
,
00010000
00000100
00001000
00000000
00100000
00000000
01000000
00000000
,
00100000
00001000
01000000
00000000
00010000
00000000
00000010
00000000
,
00000100
00001000
00000010
00000000
00000100
00000000
00000001
00000000
,
00001000
00000010
00000100
00000000
00000010
00000000
00000100
00000000
,
00000011
00000000
00000000
00001001
00000000
00000000
00000000
00000000
00000000
00000000
00000000
00000000
00010100
00000000
00000000
00000000
,
00000100
00000000
00000100
00010000
00000200
00000000
00001300
00000010
,
00001000
00000010
00000001
00000000
00000010
00000000
00000100
00000000
,
00000010
00001000
00000010
00001000
00000010
00000000
00000001
00001000
,
00000100
00000100
00000010
00000010
,
00000000
00000100
00000010
00010000
00001000
00000000
00001000
00000000
,
00000010
00010000
00001000
00000010
,
00001000
00010000
00000100
00000000
00000100
00001000
00000100
00010000
,
00000000
00000010
00001000
00000010
,
00000001
00001000
00000001
00000000
00000010
00001000
00000010
00000000
,
00000001
00000000
00000001
00000000
00001000
00000001
00001000
00000000
,
00000010
00000100
00000010
00000000
00010000
00000010
00010000
00000000
,
00000000
00000100
00000100
00001100
,
00000010
00001000
00000010
00000000
00010000
00000100
00010000
00000000
,
00001000
00100000
01100000
01100000
,
00010000
00100000
00010000
00000000
01000000
00100000
01000000
00000000
,
00000000
01010000
01010000
01010000
,
01010000
00000000
10000000
00000000
00010000
00000000
01000000
00001000
,
00100000
00000000
00100000
00000000
00010000
00000000
00010000
01000000
,
00010000
00000000
00010000
00000000
10000000
00000000
00100000
01000000
,
00100000
00010100
00010100
00010100
,
00010100
00000000
00000000
00010000
00100000
00000000
10000000
00100000
,
10000000
00000000
00000000
00100000
01000000
00000000
00001000
00010000
,
00001000
00000000
00100000
00000000
00010000
01000000
00010000
01000000
,
00001000
00011000
00011000
00011000
,
00011000
00000000
00000100
00000000
00010000
00000000
00000010
00000100
,
00000001
00000000
00000001
00000000
00001000
00000000
00001000
00000100
,
00001000
00000000
00001000
00000000
00000001
00000000
00000100
00000010
,
00000100
00101000
00101000
00101000
,
00101000
00000000
00000000
00001000
00000100
00000000
00000001
00000100
,
00000001
00000000
00000000
00000100
00000010
00000000
00001000
00000001
,
00001000
00000000
00000010
00000000
00010000
00001000
00010000
00001000
,
00100000
00000000
01000000
00010000
,
10000000
00100000
00010000
00000000
01000000
00000000
00100000
00000000
,
01000000
00001000
00010000
00000000
00001000
00000000
00010000
00000000
,
01000000
00010000
00001000
00000000
00010000
00000000
00001000
00000000
,
00010000
00000100
00001000
00000000
01000000
00000000
00010000
00000000
,
01000000
00001000
00010000
00000000
01000000
00000000
00010000
00000000
,
10000000
01000000
00010000
00000000
10000000
00000000
00100000
00000000
,
01000000
00001000
00010000
00000000
00001000
00000000
00010000
00000000
,
00001100
00000000
00000000
00000110
00000000
00000000
00000000
00000000
00000010
00000000
00000000
00000000
00001000
00000000
00000000
00000000
,
00000001
00000100
00001000
00000000
00000010
00000000
00000100
00000000
,
00000010
00010000
00001000
00000000
00010000
00000000
00001000
00000000
,
00000010
00001000
00010000
00000000
00001000
00000000
00010000
00000000
,
00001000
01000000
00010000
00000000
00000100
00000000
00001000
00000000
,
00020200
00000000
00000000
00000000
,
00030300
00000000
00000000
00000000
;

//--------------- dance-double - B. M'Rey ----------------
#NOTEDATA:;
#STEPSTYPE:dance-double;
#DESCRIPTION:B. M'Rey;
#CREDIT:B. M'Rey;
#DIFFICULTY:Hard;
#METER:12;
#RADARVALUES:0,0,0,0,0;
#NOTES:
00000000
00000000
00000000
00000000
,
00000000
00000000
00000000
00000000
,
00000100
00001000
00000100
00001000
,
00000100
00010000
00000010
00001000
,
00000010
00001000
00000100
00010000
,
00000010
00010000
00000100
00010000
,
00000010
00000000
00000100
00001000
00000110
00000000
00000000
00000000
,
00000100
00010000
00001000
01000000
00100000
10000000
00010000
01000000
,
00001000
00000000
01000000
00010000
01010000
00000000
01010000
00000000
,
00110000
00010000
00010000
00001000
,
00001000
00100000
00001000
00100000
00001000
01000000
00100000
01000000
,
00100000
01000000
00010000
10000000
00010000
10000000
00100000
10000000
,
00100000
01000000
00100000
01000000
00001000
01000000
00001000
00010000
,
00001000
00010000
00010010
00000000
00010010
00000000
00001010
00000000
,
00001001
00000000
00000001
00000100
00000001
00000100
00000010
00000100
,
00000010
00010000
00000100
00010000
00000100
00010000
00001000
01000000
,
01001000
00000000
00110000
00000000
,
10100000
00000000
00000000
00010000
00100000
00010000
10000000
01000000
,
00100000
00000000
00000000
10000000
00000000
00000000
01000000
00000000
00100000
00000000
00001000
00000000
00100000
00000000
00001000
00000000
,
00010000
00000000
00000000
00001000
00000000
00000000
00000010
00000000
00010000
00000000
00000010
00000000
00010000
00000000
00001000
00000000
,
00010000
00000000
00000000
00000100
00000000
00000000
00000010
00000000
00001000
00000000
00000010
00000000
00001000
00000000
00000010
00000000
,
00000001
00000000
00000000
00001000
00000000
00000000
00000001
00000000
00001000
00000000
00000001
00000000
00001000
00000000
00000100
00000000
,
00010000
00000000
00000000
00000100
00000000
00000000
00001000
00000000
00010000
00000000
00000100
00000000
00001000
00000000
00000001
00000000
,
00001000
00000000
00000000
00000010
00000000
00000000
00000001
00000000
00000010
00000000
00000100
00000000
00000010
00000000
00000100
00000000
,
00001000
00000000
00000000
00000100
00000000
00000000
00000010
00000000
00000100
00000000
00000001
00000000
00000100
00000000
00000010
00000000
,
00001010
00000000
00000000
00010010
00000000
00000000
00000000
00000000
00000000
00000000
00000000
00000000
00001001
00000000
00000000
00000000
,
00000001
00000010
00000001
00000010
00002000
00000000
00003010
00001000
,
00000010
00010000
00001000
00000000
01000000
00001000
00100000
01000000
,
00000000
01000000
00100000
01000000
00010000
00000000
00100000
10000000
,
01100000
10100000
01010000
10010000
,
00010000
01000000
00001000
00100000
00010000
00000000
00010000
10000000
,
00010000
10000000
01000000
00000000
00010000
01000000
10000000
01000000
,
00000000
00100000
01000000
10000000
01000000
00100000
00010000
00100000
,
00000000
00100000
00001000
00010000
00000100
00001000
00000200
00000000
,
00000310
00000101
00001001
00001100
,
00000100
00001000
00010000
00001000
00010000
00010000
00010000
00000000
,
00001100
00010100
00001100
00011000
,
00001000
00100000
00010000
01000000
00001000
00000000
01010000
00000000
,
00011000
01010000
01001000
00011000
,
00000100
00010000
00000010
00010000
00011000
00000000
00110000
00000000
,
00101000
01001000
11000000
00001100
,
00011000
00011000
00011000
00011000
,
00011000
00000000
00010000
00000100
00010000
00000100
00010000
00000010
,
00001000
00000000
00000100
00000000
00010000
00000100
00010000
00001000
,
00010000
00000000
00000000
00000010
00000000
00000000
00001000
00000000
01000000
00000000
00001000
00000000
00100000
00000000
00001000
00000000
,
00100000
00011000
00011000
00011000
,
00110000
00000000
00100000
00010000
00100000
00001000
01000000
00010000
,
01000000
00000000
01000000
00100000
10000000
01000000
10000000
01000000
,
00100000
00000000
00000000
01000000
00000000
00000000
00010000
00000000
10000000
00000000
00010000
00000000
01000000
00000000
00010000
00000000
,
01100000
01100000
01100000
01100000
,
01100000
00000000
01000000
00100000
01000000
00100000
01000000
10000000
,
00010000
00000000
01000000
00000000
00001000
01000000
00001000
00010000
,
00001000
00000000
00000000
00100000
00000000
00000000
00010000
00000000
00000100
00000000
00010000
00000000
00000010
00000000
00010000
00000000
,
00000010
00011000
00011000
00011000
,
00001010
00000000
00000010
00001000
00000010
00000100
00000001
00000010
,
00000001
00000000
00000001
00001000
00000100
00000010
00000100
00000010
,
00000001
00000000
00000000
00000010
00000000
00000000
00001000
00000000
00000001
00000000
00001000
00000000
00000010
00000000
00001000
00000000
,
00110000
00000000
00000000
00010000
00100000
00010000
10000000
01000000
,
00100000
00000000
00000000
10000000
00000000
00000000
00010000
00000000
00100000
00000000
00001000
00000000
00100000
00000000
00001000
00000000
,
00010000
00000000
00000000
00001000
00000000
00000000
00000100
00000000
00010000
00000000
00000100
00000000
00010000
00000000
00001000
00000000
,
00010000
00000000
00000000
00000100
00000000
00000000
00000010
00000000
00001000
00000000
00000010
00000000
00001000
00000000
00000010
00000000
,
00000001
00000000
00000000
00001000
00000000
00000000
00000001
00000000
00001000
00000000
00000001
00000000
00001000
00000000
00000100
00000000
,
00010000
00000000
00000000
00000100
00000000
00000000
00001000
00000000
00010000
00000000
00000100
00000000
00001000
00000000
00000001
00000000
,
00001000
00000000
00000000
00000010
00000000
00000000
00000001
00000000
00000010
00000000
00000100
00000000
00000010
00000000
00000100
00000000
,
00001000
00000000
00000000
00000100
00000000
00000000
00000010
00000000
00000100
00000000
00000001
00000000
00000100
00000000
00000010
00000000
,
00001010
00000000
00000000
00000110
00000000
00000000
00001000
00000000
00000100
00000000
00001000
00000000
00000001
00000000
00000010
00000000
,
00000100
00000000
00000000
00000001
00000000
00000000
00001000
00000000
00000100
00000000
00010000
00000000
00000100
00000000
00010000
00000000
,
00001000
00000000
00000000
00010000
00000000
00000000
01000000
00000000
00001000
00000000
01000000
00000000
00001000
00000000
00010000
00000000
,
00001000
00000000
00000000
00100000
00000000
00000000
01000000
00000000
00010000
00000000
01000000
00000000
00010000
00000000
01000000
00000000
,
10000000
00000000
00000000
00010000
00000000
00000000
10000000
00000000
00010000
00000000
10000000
00000000
00010000
00000000
00100000
00000000
,
00202000
00000000
00000000
00000000
,
00303000
00000000
00000000
00000000
;
