#VERSION:0.83;
#TITLE:Beyond the Ocean;
#ARTIST:WORLD SEQUENCE;
#GENRE:ASIAN;
#CREDIT:B. M'Rey;
#MUSIC:Beyond the Ocean.ogg;
#BANNER:Beyond the Ocean.png;
#BACKGROUND:Beyond the Ocean-bg.png;
#CDTITLE:./CDTITLES/KEYBOARDMANIA 2ndMIX.png;
#SAMPLESTART:9.15;
#SAMPLELENGTH:15;
#OFFSET:-0.370;
#BPMS:0=123;

//--------------- dance-single - B. M'Rey ----------------
#NOTEDATA:;
#STEPSTYPE:dance-single;
#DESCRIPTION:B. M'Rey;
#DIFFICULTY:Beginner;
#METER:2;
#RADARVALUES:0,0,0,0,0;
#CREDIT:B. M'Rey;
#NOTES:
0000
0000
0000
0000
,
0000
0000
0000
0000
,
0000
0000
0000
0000
,
0000
0000
0000
0000
,
0000
0000
1000
0000
,
0001
0000
0000
0000
,
0100
0000
0010
0000
,
1000
0000
0001
0000
,
0000
0000
1000
0000
,
0010
0000
0000
0000
,
0100
0000
0010
0000
,
0001
0000
0000
1000
,
0001
0000
0100
0000
,
0010
0000
1000
0000
,
0001
0000
0100
0000
,
0010
0000
1000
0000
,
0001
0000
0010
0000
,
0000
0000
0100
0000
,
0000
0000
0001
0000
,
1000
0000
0010
0000
,
0100
0000
0010
0000
,
0000
0000
0000
0000
,
0000
0000
1000
0000
,
0000
0000
0001
0000
,
0000
0000
0100
0000
,
0000
0000
0010
0000
,
0000
0000
1000
0000
,
0000
0000
0100
0000
,
0000
0000
0001
0000
,
0000
0000
0011
0000
,
0000
0000
0100
0000
,
0001
0000
0000
0000
,
0010
0000
1000
0000
,
0100
0000
0010
0000
,
0000
0000
1000
0000
,
0001
0000
0000
0000
,
0100
0000
0001
0000
,
0010
0000
0000
0000
,
1000
0000
0001
0000
,
0010
0000
0000
0000
,
1000
0000
0010
0000
,
0100
0000
0001
0000
,
0000
0000
1000
0000
,
0010
0000
0000
0000
,
0100
0000
0001
0000
,
1000
0000
0000
0000
,
0010
0000
0100
0000
,
0001
0000
0010
0000
,
1000
0000
0110
0000
;

//--------------- dance-single - B. M'Rey ----------------
#NOTEDATA:;
#STEPSTYPE:dance-single;
#DESCRIPTION:B. M'Rey;
#DIFFICULTY:Easy;
#METER:5;
#RADARVALUES:0,0,0,0,0;
#CREDIT:B. M'Rey;
#NOTES:
0000
0000
0000
0000
,
0000
0000
0000
0000
,
0000
0000
0000
0000
,
0000
0000
0000
0000
,
0000
0000
0100
0010
,
0100
0000
0000
0100
,
0010
1000
0001
1000
,
0100
0000
0001
0000
,
0000
1000
0010
0100
,
0001
0000
0000
1000
,
0010
1000
0100
0000
,
0100
0000
0000
0100
,
0001
1000
0100
0000
,
0001
0000
0010
0000
,
1000
0000
0001
0100
,
0010
1000
0010
0100
,
0001
0010
0001
0000
,
0010
0000
0001
0000
,
0100
0000
0001
1000
,
0001
0100
0010
1000
,
0010
1000
0100
0010
,
0000
1000
0000
0010
,
0000
0000
0001
0000
,
0001
0000
0010
0000
,
0001
0000
0010
0000
,
1000
0000
0001
0000
,
0100
0000
1000
0000
,
0100
0000
0001
0000
,
0100
0000
1000
0000
,
0001
0000
0110
0000
,
0000
0000
0001
0010
,
0001
0000
0000
1000
,
0001
0010
0001
0000
,
0010
0000
0010
0000
,
0000
0010
0100
1000
,
0010
0000
0000
0010
,
0100
1000
0001
0000
,
0010
0000
0100
0000
,
0001
0010
0001
0010
,
0100
0000
0000
0100
,
0010
0100
0001
0000
,
0100
0000
0010
0000
,
0001
0000
0010
0100
,
0001
0000
0000
1000
,
0010
0100
0001
0000
,
1000
0000
0100
0000
,
0100
0010
0001
0000
,
0020
0000
0000
0000
,
0000
0000
0030
0000
;

//--------------- dance-single - B. M'Rey ----------------
#NOTEDATA:;
#STEPSTYPE:dance-single;
#DESCRIPTION:B. M'Rey;
#DIFFICULTY:Medium;
#METER:8;
#RADARVALUES:0,0,0,0,0;
#CREDIT:B. M'Rey;
#NOTES:
0000
0000
0000
0000
,
0000
0000
0000
0000
,
0000
0000
0000
0000
,
0000
0000
0000
0000
,
0000
0000
0000
0000
0001
0000
1000
0001
,
0200
0000
0000
0000
0301
0000
0010
1000
,
0100
0000
1000
0000
0100
0000
0010
0100
,
0001
0010
0101
1100
,
0011
0000
1000
0100
1000
0000
1000
0100
,
0200
0000
0000
0000
0301
0000
0010
1000
,
0100
1000
1001
1000
,
0101
0000
0100
0000
0010
0000
1000
0100
,
0010
0000
0100
0010
0001
0000
1000
0000
,
0100
0010
0100
1000
,
0001
0000
0010
0000
0001
0010
0000
1000
,
0100
1000
0000
0010
0001
0010
0000
0100
,
0010
0100
0000
1000
0001
0000
0010
0000
,
0001
0010
0100
1000
,
0001
0000
1000
0000
0001
0100
0000
1000
,
0010
0100
0000
1000
0001
1000
0000
1000
,
0100
1000
0000
0000
0100
0000
0010
0000
,
0001
1000
0100
0010
,
0001
0000
0001
1000
,
0010
0000
0001
1000
,
0001
0000
0010
0100
,
0010
0000
0001
0010
,
0001
0000
0010
0100
,
0001
0000
0100
0010
,
0001
0000
0010
1000
,
0010
0000
0001
0010
,
0001
0000
0000
0000
0010
0000
0100
1000
,
0010
0000
1000
0000
0100
0000
0010
0100
,
0001
0000
1000
0010
0001
0000
0100
0000
,
0010
0100
0010
1000
,
0100
0000
1000
0001
0100
0000
0010
0100
,
0001
0000
1000
0000
0001
0000
0010
1000
,
0100
0000
0010
0001
0100
0000
1000
0100
,
0001
0000
0100
0000
0010
0000
0100
0001
,
0010
0000
1000
0000
0001
0000
0010
1000
,
0001
0000
0010
0000
0100
0000
1000
0100
,
0001
0000
0100
1000
0001
0000
0010
0001
,
0100
0010
0001
1000
,
0001
0000
1000
0010
0100
0000
0010
1000
,
0001
0000
1000
0000
0001
0000
0100
1000
,
0010
0000
0100
0010
0001
0000
1000
0100
,
0001
0000
0100
0000
0010
0000
0100
1000
,
0001
0010
0100
0010
,
0100
1000
0010
1000
,
0010
0100
1001
0000
;

//--------------- dance-single - B. M'Rey ----------------
#NOTEDATA:;
#STEPSTYPE:dance-single;
#DESCRIPTION:B. M'Rey;
#DIFFICULTY:Hard;
#METER:10;
#RADARVALUES:0,0,0,0,0;
#CREDIT:B. M'Rey;
#NOTES:
0000
0000
0000
0000
,
0000
0000
0000
0000
,
0000
0000
0000
0000
,
0000
0000
0000
0000
,
0000
0000
0000
0000
1100
0000
0100
1000
,
0001
0000
0001
1000
0100
0000
0100
0010
,
0001
1000
0001
1000
0100
0000
0001
0100
,
0001
0000
0010
1000
0001
0000
0100
0000
,
0010
0000
0010
0100
0001
0000
0001
0010
,
0100
0000
0001
0000
0100
0000
0010
1000
,
0010
0100
0001
1000
0010
0000
0010
0100
,
0002
0000
0100
0000
0103
0000
0001
0100
,
0010
0100
0001
1000
1100
0000
0001
0010
,
0100
0000
0101
0000
0001
1000
0010
0100
,
0000
0000
0011
0000
0100
1000
0000
0100
,
0001
1000
0000
0100
0010
0100
0000
1000
,
0010
0000
1000
0000
0000
0000
0100
0000
0001
0000
0000
0000
0100
0010
0100
0000
,
0001
0010
0001
0000
0100
1000
0001
0000
0100
0010
0100
0000
0001
0100
0001
0000
,
0010
0100
0001
1000
0010
1000
0000
0100
,
0001
0010
0000
1000
0001
1000
0000
0010
,
0001
0000
0010
0000
0000
0000
0100
0000
0010
0000
0000
0000
0001
0100
0001
0000
,
0010
0100
0001
0000
0100
0010
0100
0000
0010
1000
0001
0000
0010
1000
0100
0000
,
0001
0000
0100
0000
0100
0010
0001
0000
,
1001
0000
0000
0000
0100
0010
0100
0000
,
1001
0000
0000
1000
0100
0010
0001
0000
,
1100
0000
0000
0010
0001
1000
0001
0000
,
0110
0000
0000
0000
0001
1000
0010
0000
,
1001
0000
0000
0000
0001
0100
0001
0000
,
1100
0000
0000
0000
0001
0010
0100
0000
,
0110
0000
0001
1000
0010
0000
0001
0100
,
1001
0000
0100
0000
0011
0000
0100
1000
,
0100
0000
0010
0000
0001
0000
0100
1000
,
0010
0100
0001
1000
0100
0000
0001
1000
,
0100
0000
0010
0100
0001
0000
1000
0000
,
0100
0000
0100
0010
0001
0000
0100
0010
,
0001
0000
0100
0000
0010
0000
0100
1000
,
0100
0010
0001
1000
0100
0000
0010
0100
,
0001
0000
0010
0000
0100
0000
0001
0100
,
0010
0000
0010
0100
0011
0000
0001
0010
,
0100
0000
1000
0000
0001
0000
0010
1000
,
0100
1000
0010
0100
0001
0000
0001
0010
,
0100
0000
0100
1000
0001
0000
0010
0000
,
0001
0000
0100
0010
0100
0000
0010
1000
,
0100
0000
0010
0000
1000
0000
0001
0010
,
0100
1000
0100
0010
0001
0000
0010
0100
,
0010
0000
0001
0000
0100
0000
0100
1000
,
0001
1000
0100
0010
0001
0000
0010
1000
,
0010
0000
0100
0010
0001
0000
0001
0010
,
0100
0000
0100
1000
1001
0000
0000
0000
;
