#VERSION:0.83;
#TITLE:万物快楽理論;
#ARTIST:あさき;
#TITLETRANSLIT:Banbutsu Kairaku Riron;
#ARTISTTRANSLIT:Asaki;
#GENRE:GLOSSOLALIA;
#MUSIC:Banbutsu Kairaku Riron.ogg;
#BANNER:Banbutsu Kairaku Riron-BN.png;
#BACKGROUND:Banbutsu Kairaku Riron-BG.png;
#CDTITLE:./CDTITLES/Pop'n Music 16 PARTY.PNG;
#SAMPLESTART:72.9;
#SAMPLELENGTH:15;
#OFFSET:-0.022;
#BPMS:0=135,161=130,161.75=125,162.5=120,163.25=115,164=110,164.333=115,164.667=120,165=125,165.5=130,166=135,191=134,191.5=133.75,214.5=135;
#STOPS:84=0.667,98.5=0.667;

//--------------- dance-single - B. M'Rey ----------------
#NOTEDATA:;
#STEPSTYPE:dance-single;
#DESCRIPTION:B. M'Rey;
#DIFFICULTY:Beginner;
#METER:5;
#RADARVALUES:0,0,0,0,0;
#NOTES:
0000
0000
0000
0000
,
0000
0000
0000
0000
,
0000
0000
0000
0000
,
0000
0000
0000
0000
,
1000
0000
0001
0000
,
0100
0000
0010
0000
,
1000
0000
0001
0000
,
0010
0000
0001
0000
,
1000
1000
1000
0000
,
0010
0010
0010
0000
,
0001
0001
0000
1000
,
0000
0010
0000
0100
,
0000
0001
0000
0001
,
0000
1000
0000
0010
,
0000
0100
0100
0100
,
0000
0100
0100
0100
,
0000
0010
0010
0010
,
0000
0010
0010
0010
,
0000
0001
0000
1000
,
0000
0010
0100
0010
,
0000
0001
0000
1000
,
0100
0001
0000
0000
0000
0100
0000
0000
,
0000
0010
0000
0000
0000
1000
0000
0000
,
0000
0001
0000
0000
0000
0010
0000
0000
,
0000
0001
0000
0000
0000
0100
0010
0000
,
0000
1000
0000
0100
,
0000
1000
0000
0001
,
0000
0010
0000
0001
,
0000
1000
0000
1000
,
0001
1000
0001
1000
,
0010
0100
0010
0100
,
0010
1000
0001
1000
,
0010
1000
0001
0010
,
0010
0010
0000
1000
,
1000
1000
0000
0001
,
0001
0001
0000
0100
,
0000
0100
0000
0010
,
0010
0010
0000
1000
,
1000
1000
0000
0001
,
0000
0100
0000
0010
,
0000
0002
0000
0000
,
0000
0000
0000
0000
0000
0103
0000
0000
,
0000
0010
0000
0000
0000
1000
0000
0000
,
0000
0001
0000
0000
0000
0100
0000
0000
,
0000
0010
0000
0000
0000
0001
0000
0000
,
0000
1000
0000
0000
0000
0010
0000
0000
,
0000
0100
0000
0000
0000
0001
0000
0000
,
0000
0001
0000
0001
0000
0001
0000
2000
,
0000
0000
0000
0000
,
0000
0000
0000
0000
0000
3001
0000
1000
,
0000
0000
0000
0010
0000
0001
0000
0100
,
0000
0000
0000
0001
0000
0010
0000
0000
,
0000
1000
0000
0000
0000
0100
0000
0000
,
0000
2002
0000
0000
3003
0010
0000
0000
,
0000
0010
0000
0000
0000
0001
0000
0000
,
0000
0100
0000
0000
0000
0010
0000
0000
,
0000
1000
0000
0000
0000
0001
0000
0000
,
0000
0100
0000
0000
0000
0001
0000
0000
,
0000
1000
0000
0000
0000
0010
0000
0000
,
0000
0200
0000
0000
0000
0000
0000
0000
,
0000
0000
0000
0000
0000
0020
0000
0330
;

//--------------- dance-single - B. M'Rey ----------------
#NOTEDATA:;
#STEPSTYPE:dance-single;
#DESCRIPTION:B. M'Rey;
#DIFFICULTY:Easy;
#METER:8;
#RADARVALUES:0,0,0,0,0;
#NOTES:
0000
0000
0000
0000
,
0000
0000
0000
0000
,
0000
0000
0000
0000
,
0000
0000
0000
0000
,
0001
0000
1000
0000
0001
0100
1000
0000
,
0001
0000
0100
0000
0010
0001
0100
0000
,
0002
0000
0000
0000
,
2003
0000
0000
0000
,
3001
1000
0001
0010
,
0100
0010
0100
1000
,
0001
0000
1000
0000
0100
0000
1000
0100
,
0010
0000
0100
0000
0010
0000
0100
0001
,
0010
0000
1000
0000
0100
0000
1000
0010
,
0001
0000
1000
0000
0001
0000
0010
0100
,
0001
0010
0100
1000
,
0100
1000
0100
0010
,
0001
1000
0001
1000
,
0001
0010
0100
0010
,
0100
0000
0010
0010
0001
0000
0100
0000
,
0010
0010
0100
0000
0010
0010
0100
0000
,
0001
0010
0001
0100
,
1001
0100
0000
1000
0000
0100
0000
0010
,
0000
0001
0000
0010
0000
0001
0000
1000
,
0000
0001
0000
1000
0000
0010
0000
1000
,
0000
0010
0000
0100
0000
0010
0001
0000
,
0100
0010
1000
0010
,
1000
0010
0100
0001
,
0100
0001
0100
1010
,
1010
0000
1010
0000
1000
0000
0010
0010
,
0100
0000
0001
0000
0100
0000
0001
0001
,
0100
0000
0010
0000
1010
1010
0010
0000
,
0100
0000
0010
0000
1000
1000
0001
0000
,
0100
0000
0001
0000
0100
0100
0011
0000
,
0100
0110
1000
1010
,
1000
0110
1000
0011
,
0100
0000
0011
0000
0010
0001
0010
0000
,
0100
0001
0110
0010
,
0110
0010
1100
0010
,
1001
0001
1100
0001
,
0110
0001
0200
0000
,
0000
0320
0000
0000
,
0000
0000
0000
0000
0000
0130
0000
0010
,
0000
0100
0000
0010
0000
0001
0000
0010
,
1000
0001
0000
0100
0000
0001
0000
1000
,
0000
0100
0000
0010
0001
0100
0000
0010
,
0000
0001
0000
1000
0000
0100
0001
0010
,
0000
0100
0000
1000
0000
0100
0010
1000
,
0000
0001
0100
1000
0000
0001
1000
0020
,
0000
0000
0000
0230
0000
0000
0000
2300
,
0000
0000
0000
3200
0000
0302
0000
0000
,
0000
0000
0013
1000
0000
0001
0020
0000
,
0000
0000
0030
0010
0000
0100
0000
0010
,
0000
0001
0000
0100
0000
0001
0000
0100
,
0000
2002
0000
0000
3003
0100
0000
0010
,
0000
0100
0000
0000
0000
0001
0000
1000
,
0000
0100
0000
0000
0000
0100
0000
1000
,
0000
0001
0000
0000
0000
0100
0000
0010
,
0000
0100
0000
1001
0000
1001
0000
0000
,
0000
1001
0000
0000
0000
0101
0000
0100
,
0000
0020
0000
0000
0000
0000
0000
0000
,
0000
0000
0000
0000
0000
1000
1000
1030
;

//--------------- dance-single - B. M'Rey ----------------
#NOTEDATA:;
#STEPSTYPE:dance-single;
#DESCRIPTION:B. M'Rey;
#DIFFICULTY:Medium;
#METER:10;
#RADARVALUES:0,0,0,0,0;
#NOTES:
0000
0000
0000
0000
,
0000
0000
0000
0000
,
0000
0000
0000
0000
,
0000
0000
0000
0000
,
0001
0100
0001
1000
0001
1000
0010
0000
,
0100
1000
0100
0010
0100
0010
0001
0000
,
0002
0000
0000
0000
0000
2003
0000
0000
,
3200
0000
0302
0000
,
0023
2030
3002
2003
,
3002
0023
0230
2300
,
3002
0000
0013
1000
0010
0000
0001
0000
,
0100
0000
0100
0010
0100
0000
0010
0000
,
0100
0000
0010
0100
0001
0000
0001
0000
,
0010
0000
0100
1000
0100
0000
0010
0000
,
0010
0100
1001
0000
1100
0000
1010
0000
,
0010
0100
0011
0000
0110
0000
0101
0000
,
1000
0100
0110
0000
0011
0000
0110
0000
,
1000
0100
0011
0000
0101
0000
0011
0000
,
0010
0000
0100
1000
0100
0000
0001
0000
,
0001
0010
0001
0000
0100
1000
0100
0000
,
0001
0100
0001
0000
0001
0010
0100
0000
,
0200
0301
0010
0001
0000
0001
0000
0100
,
0000
0100
0010
0100
0000
0001
0000
0001
,
0000
0100
0010
0001
0000
0001
0000
0100
,
0000
0000
0100
0000
0010
0000
0100
0000
0000
0000
2002
3003
1000
0000
0001
0000
,
1000
0000
1000
0010
0100
0000
0100
0010
,
0100
0000
1000
0010
0100
0000
0100
0010
,
1000
0000
1000
0010
0100
0000
0001
1000
,
0010
0000
0010
0100
0010
0000
0001
0100
,
0001
0000
0001
1000
0100
0000
0100
0010
,
0100
0000
0010
1000
0010
0000
0010
0100
,
0001
0000
0001
0010
0001
0000
0100
0010
,
0100
0000
0100
0010
0001
0000
0001
0100
,
0001
0000
0100
0000
0100
1000
0001
0000
,
0100
0000
0100
1000
0100
0000
0001
0000
,
0001
0010
0001
0000
0100
0010
0100
0000
,
0100
1000
0001
0000
0001
0100
0001
0000
,
0010
0000
0001
1000
0001
0000
0100
0000
,
0010
0100
0010
0000
0010
0000
0001
0000
,
0001
0100
0001
0000
0010
0100
0010
0000
,
0010
0100
1010
0000
0110
0000
1001
0000
,
0202
0000
0000
0000
0303
0001
0000
0001
,
1000
0100
0000
0001
0000
0001
0100
0001
,
1000
0100
0010
0000
1000
0002
0000
0000
,
0013
0000
0000
0000
0010
0000
0100
0000
0010
0000
0001
0000
0000
0010
0000
0000
,
2000
0000
0000
3001
0000
0001
0100
0001
,
0000
0100
0010
0100
0000
0100
1000
0001
,
1000
0100
0010
0100
0010
0100
0000
0010
,
0000
1000
0000
0100
0000
1000
0000
0010
,
0000
1000
0000
0010
0000
0002
0000
0000
,
0000
0000
0013
0100
1000
0200
0000
0000
,
0000
0000
0301
0010
0000
0100
0000
0100
,
0010
0100
0000
0001
1000
0001
0000
0001
,
0100
0020
0000
0000
0030
0010
0000
1000
,
0000
0010
0000
1000
0000
0010
0000
0100
,
0000
0001
0000
0100
0000
0001
0000
0100
,
0000
0010
0000
1000
0000
0010
0000
1000
,
0000
0010
0000
0100
0000
1000
0010
0001
,
0000
0001
0100
0001
0000
0100
0010
0100
,
0000
2002
0000
0000
0000
0000
0000
0000
,
0000
0000
0000
0000
3003
1001
1001
1001
;

//--------------- dance-single - B. M'Rey ----------------
#NOTEDATA:;
#STEPSTYPE:dance-single;
#DESCRIPTION:B. M'Rey;
#DIFFICULTY:Hard;
#METER:14;
#RADARVALUES:0,0,0,0,0;
#NOTES:
0000
0000
0000
0000
,
0000
0000
0000
0000
,
0000
0000
0000
0000
,
0000
0000
0000
0000
,
0100
0010
0100
1000
0001
0010
0100
1000
,
0100
0010
0100
0010
0001
1000
0100
0010
,
0002
0000
0010
0000
0100
0023
0001
0000
,
0032
0000
0010
1000
0100
0013
0001
0000
,
0100
0010
0001
0000
0110
0000
0110
0000
,
0100
1000
0010
0000
0001
0010
0100
0010
,
0100
0000
1000
0000
0100
0000
1000
0000
0010
0000
1000
0100
0000
0001
0010
0000
,
0001
0000
0010
0000
0001
0000
1000
0000
0010
0000
1000
0100
0000
0001
0010
0000
,
0001
0000
0010
0000
0100
0000
1000
0000
0010
0000
1000
0010
0000
0001
0100
0000
,
0010
0000
0100
0000
0001
0000
0100
0000
0001
0000
0010
0100
0000
0001
1000
0000
,
0001
0100
0010
1000
0101
0100
0110
0100
,
0110
0100
0011
0010
1100
1000
1100
1000
,
1001
1000
0011
0010
0011
0100
0110
0100
,
0011
0010
0110
0010
1100
1000
1100
1000
,
1001
1000
0010
0100
0010
0100
0110
0000
,
0100
1000
0010
0100
0010
1000
0010
0000
,
0001
1000
0001
1000
0010
1000
0001
0100
,
0002
0000
0103
0000
0010
0000
0001
0000
1000
0010
0000
0001
0100
0000
0001
0000
,
0010
0000
0001
0000
1000
0000
0001
0000
0010
0100
0000
0100
1000
0000
0100
0000
,
0010
0000
0001
0000
1000
0000
0010
0000
1000
0001
0000
0001
1000
0000
0001
0000
,
0010
0000
0100
0000
0010
0000
0100
0000
1000
0200
0000
0000
0310
0000
0100
0000
,
0001
0010
0100
1000
0001
0010
0100
0010
,
0001
0000
0010
0000
0001
0000
1000
0000
0010
0000
1000
0000
0100
1000
0000
0001
,
0010
0000
0100
0010
0000
1000
0100
0000
0001
0000
1000
0000
0001
0010
0000
1000
,
0001
0000
1000
0010
0000
0010
0100
0000
1010
0000
1010
0000
1010
0000
1000
0000
,
1100
1000
0110
0100
0110
0100
0011
0010
,
0110
0010
0110
1000
1001
1000
0110
0010
,
0101
0010
1100
1000
0110
1000
0110
0010
,
0011
0010
0011
0010
0110
1000
1010
1001
,
0101
0000
1010
0000
1010
1001
0011
0000
,
0011
0000
1001
1000
0010
1000
0010
0100
,
0001
0000
0000
0000
0001
0000
0010
0000
0100
0000
1000
0000
0001
1000
0001
1000
,
0010
0100
0010
0100
1010
1100
0110
0000
,
1001
0000
0110
0110
0101
0000
0110
0000
,
0100
0010
0001
1000
0100
0000
0001
0010
,
0100
0000
0010
1000
0010
0000
0001
0010
,
0100
0000
0010
0000
0101
0000
0000
1001
0000
0000
1001
0000
0000
1010
0000
0000
,
0100
0000
0000
0000
1000
0000
0000
0000
0010
0000
0000
0000
1000
0000
0000
0000
0000
0000
0010
0000
0000
0000
0000
0000
0100
0000
0000
0000
0000
0000
0010
0000
0000
0000
0000
0000
0100
0000
0000
0000
0000
0000
0010
0000
0000
1000
0000
0000
,
0100
0000
0002
0000
0000
0000
0103
0000
1000
0000
0100
0000
1000
0000
0100
0010
,
0100
0010
0001
0000
1000
0000
0100
0000
0010
0000
0002
0000
0000
0000
1003
0000
,
0100
0000
0001
0000
0100
0000
0010
0000
0100
0000
0001
0000
0000
1000
0000
0000
,
0100
0000
0000
0001
0000
0000
0100
0000
1000
0000
0001
0000
1000
0000
0001
0000
,
0100
0001
0100
0010
0100
0001
1000
0010
,
0100
0000
0001
0100
0001
0100
0001
0100
0001
0000
0100
0000
0010
0000
0100
0000
,
0000
1000
0000
0010
0000
1000
0000
0100
,
0000
1000
0000
0010
0000
0001
1000
0001
,
0000
0100
1000
0100
0010
0001
1000
0000
,
0010
0000
0100
0010
1000
0001
1000
0001
,
1000
0100
0010
0100
1000
0100
1000
0001
,
1000
0002
0000
0000
0000
0013
1000
0010
,
0000
0001
1000
0100
0000
0100
1000
0010
,
1000
0010
0000
0110
0000
0001
1000
0010
,
0000
0001
0010
0100
0000
0001
0010
0001
,
0100
0001
0000
1010
0000
0100
1000
0010
,
0000
0010
0100
0010
0000
0100
0010
0001
,
0100
0002
0000
0000
0000
0000
0000
0000
,
0000
0000
0000
0000
0000
1013
1100
1001
;

//--------------- dance-single - B. M'Rey ----------------
#NOTEDATA:;
#STEPSTYPE:dance-single;
#DESCRIPTION:B. M'Rey;
#DIFFICULTY:Challenge;
#METER:16;
#RADARVALUES:0,0,0,0,0;
#NOTES:
0000
0000
0000
0000
,
0000
0000
0000
0000
,
0000
0000
0000
0000
,
0000
0000
0000
0000
,
1000
0001
1000
0001
0010
0001
0010
0100
0010
0100
1000
0100
1000
0010
1000
0010
,
0100
0001
0100
0001
0100
0010
1000
0010
1000
0010
0100
0001
0010
0000
1000
0000
,
0200
0000
0000
0000
0010
0000
0000
0000
0301
0000
1000
0000
0001
0000
0010
0100
,
0020
0000
0000
0000
0001
0000
0000
0000
1030
0000
0010
0001
0010
0001
0010
0100
,
1000
0001
1000
0000
0011
0000
0010
0100
,
0010
0000
1100
0000
1000
0010
1000
0010
,
1000
0001
1000
0100
1000
0000
0001
0000
0010
0000
0001
0010
0000
0010
0001
0000
,
1000
0000
0100
0000
1000
0000
0100
0000
1000
0000
0010
0100
0000
0100
0010
0000
,
0100
0000
0000
0010
0000
0000
1000
0000
0000
0001
0000
0000
1000
0000
0000
0100
0000
0000
1000
0000
0001
0000
1000
0000
,
0001
0000
0010
0000
0001
0000
0010
0000
0100
0000
0010
0000
0001
0000
0000
1000
0000
0000
0010
0000
0000
0100
0000
0000
,
1001
0000
1000
0001
1000
0001
1000
0001
1000
0100
0010
0100
0010
0001
0100
0001
,
0010
0001
0010
0100
0010
0100
1000
0100
1000
0001
1000
0001
0100
0010
0100
0010
,
0100
0001
0010
0001
0010
0001
1000
0010
1000
0010
1000
0001
0010
0001
0010
0100
,
0010
0100
1000
0100
1000
0001
0010
0001
0010
0001
0100
0010
0100
0010
0100
0001
,
1000
0001
1000
0001
0100
0000
0001
0000
0100
0000
0010
0000
0100
0000
1000
0100
,
1000
0100
1000
0000
0010
0000
0100
0000
0010
0000
0100
0000
1000
0000
0001
0000
,
1000
0000
1000
0010
1000
0100
1000
0000
0001
0000
1000
0000
0001
0000
1000
0000
,
1001
0000
0001
0000
0010
0000
1000
0100
1000
0100
0010
0000
0100
0000
0100
0010
,
1000
0100
1000
0000
1000
0000
0100
0001
0010
0001
1000
0000
0100
0000
0010
0100
,
1000
0001
0010
0000
0001
0000
0100
0010
1000
0010
1000
0000
0100
0000
0100
0001
,
0100
0010
1000
0000
0010
0000
1000
0001
0010
0100
1000
0000
1000
0001
1000
0001
,
1000
0100
0010
0001
0010
0001
0010
0100
1000
0100
0010
0100
0010
0001
0010
0001
,
0100
0010
0100
0010
1000
0010
1000
0001
1000
0001
0100
0001
0100
0010
0100
0010
,
1000
0010
1000
0100
1000
0001
0100
0001
1000
0000
0001
0000
1000
1001
0000
0001
,
0011
0000
1000
1100
0000
0100
1001
0000
1001
0000
1001
0000
1000
0001
1000
0010
,
1000
0001
0100
0001
0100
0001
1000
0100
1000
0100
1000
0001
0010
0001
1000
0001
,
0010
0100
1000
0100
1000
0100
0010
0001
0010
0100
0010
0001
0100
0001
1000
0001
,
0010
0100
0010
0100
0010
0001
0100
0001
0100
0001
1000
0100
1000
0100
1000
0001
,
0010
0001
0010
0100
0010
0100
1000
0100
1000
0001
1000
0100
1000
0000
0100
0000
,
1000
0100
0010
0001
0100
0010
0100
0010
,
1000
0100
0010
0001
0010
0100
0010
0001
,
0100
0000
0001
0000
0100
0000
0001
0000
1000
0001
1000
0010
1000
0010
0100
0010
,
0100
0001
0100
0001
1000
0100
1000
0100
0010
0000
0001
0000
0010
0000
0100
0000
,
0010
0100
1000
0100
1000
0010
0100
0001
,
0100
0001
1000
0010
1000
0001
1000
0010
,
0100
0001
0100
0010
0002
0000
2003
0000
,
3020
0000
0000
0000
0230
0000
0000
0311
0000
0000
1010
0000
0000
1100
0000
0000
,
0001
0000
0000
0000
1000
0000
0000
0000
0010
0000
0000
0000
0100
0000
0000
0000
0000
0000
0001
0000
0000
0000
0000
0000
1000
0000
0000
0000
0000
0000
0010
0000
0000
0000
0000
0000
1000
0000
0000
0010
0000
0000
1000
0000
0000
0001
0000
0000
,
1000
0001
0010
0000
1000
0000
0010
0000
1000
0000
0010
0000
0010
0100
1000
0010
,
1000
0010
1000
0000
0100
0000
0100
0001
1000
0010
1000
0000
1000
0000
0010
0001
,
0010
0001
0100
0000
0010
0000
0100
0001
1000
0010
1000
0000
1000
0001
0000
0010
,
0100
0000
0010
0000
1000
0000
0001
0000
0100
0010
0100
0010
0100
0001
1000
0000
,
1000
0001
0000
0010
0100
0000
0001
0000
1000
0000
0010
0000
1000
0000
0100
0001
,
0010
0001
0100
0010
0100
0010
0100
0001
0010
0001
1000
0001
1000
0100
0020
0000
,
0000
0032
0000
2003
0000
3200
0000
0320
,
0000
0000
0230
0000
0000
0000
1300
0001
1000
0001
1000
0000
0001
0000
0010
0000
,
1000
0000
1000
0010
0100
0010
0100
0000
,
0100
0000
0001
0000
0010
0000
0000
0100
0010
0100
0010
0100
0010
0000
0100
0000
,
1000
0000
0100
1000
0100
0000
0010
0100
1000
0000
0010
0001
0100
0000
0010
0000
,
0100
0000
2002
0000
0000
0000
0000
0000
0000
3003
1001
0000
0000
0000
1000
0001
,
0010
0100
0010
0000
0001
0000
0010
0001
0000
0010
1000
0100
1000
0100
1000
0001
,
0010
0001
0010
1000
0000
0100
1000
0000
0001
0000
1000
0000
0010
0100
1000
0000
,
0010
0000
0100
0001
1000
0001
1000
0000
0100
0000
0010
0000
0100
0000
1000
0001
,
0100
0001
0100
0000
0010
0000
1001
0000
0000
0000
1000
0001
1000
0010
1000
0000
,
0000
0000
1000
0001
1000
0001
1000
0000
0000
0000
1000
0001
0100
0001
0010
0000
,
0000
0002
0010
0010
0000
0100
0000
1000
,
0000
0100
0000
0010
0003
1001
1001
1001
;
