#VERSION:0.83;
#TITLE:ALL FOR YOU;
#ARTIST:JANET JACKSON;
#GENRE:POP;
#MUSIC:ALL FOR YOU.ogg;
#BANNER:ALL FOR YOU-bn.png;
#BACKGROUND:ALL FOR YOU-bg.png;
#CDTITLE:./CDTITLES/Licensed Music.PNG;
#SAMPLESTART:92.803;
#SAMPLELENGTH:15;
#OFFSET:-0.331;
#BPMS:0=113.548;

//--------------- dance-single - B. M'Rey ----------------
#NOTEDATA:;
#STEPSTYPE:dance-single;
#DESCRIPTION:B. M'Rey;
#CREDIT:B. M'Rey;
#DIFFICULTY:Beginner;
#METER:2;
#RADARVALUES:0,0,0,0,0;
#NOTES:
0000
0000
0000
0000
,
0000
0000
0000
0000
,
0000
0000
0000
0000
,
0000
0000
0000
0000
,
0001
0000
0001
0000
,
0010
0000
0010
0000
,
0001
0000
0000
1000
,
0000
0000
0000
0000
,
0100
0000
0001
0000
,
1000
0000
0010
0000
,
0100
0000
0001
0000
,
1000
0000
0010
0010
,
0020
0000
0000
0000
,
0000
0000
0031
0001
,
0002
0000
0000
0000
,
0000
0000
1003
1000
,
2000
0000
0000
0000
,
0000
0000
3100
0100
,
0200
0000
0000
0000
,
0310
0000
0001
0000
,
1000
0000
0010
0000
,
0100
0000
0001
0000
,
0010
0000
0001
0000
,
0100
0000
1000
0000
,
0010
0000
0100
0000
,
0001
0000
1000
0000
,
0010
0000
0100
0000
,
0001
0000
1000
0000
,
0020
0000
0000
0130
,
0000
0000
0000
0000
,
0200
0000
0000
0301
,
0000
0000
0000
0000
,
0002
0000
0000
1003
,
0000
0000
0000
0000
,
2000
0000
0000
3010
,
0010
0000
0100
0000
,
0001
0000
1000
0000
,
0010
0010
0000
0100
,
0001
0000
0010
0000
,
0010
0010
1000
0000
,
0001
0000
0100
0000
,
0100
0100
0001
0000
,
0010
0000
0001
0000
,
1000
0000
0010
0000
,
0100
0000
0001
0000
,
1000
0000
0001
0000
,
0010
0010
0010
0000
,
0100
0100
0100
0000
,
1000
0000
0001
0000
,
0010
0000
0100
0000
,
0001
0001
0001
0000
,
0100
0100
0100
0000
,
1001
0000
0000
0000
;

//--------------- dance-single - B. M'Rey ----------------
#NOTEDATA:;
#STEPSTYPE:dance-single;
#DESCRIPTION:B. M'Rey;
#CREDIT:B. M'Rey;
#DIFFICULTY:Easy;
#METER:6;
#RADARVALUES:0,0,0,0,0;
#NOTES:
0000
0000
0000
0000
,
0000
0000
0000
0000
,
0000
0000
0000
0000
,
0000
0000
0000
0000
,
0001
1000
0001
1000
,
0001
0010
0100
0010
,
0100
1000
0100
1000
,
0000
0000
0000
0000
,
0100
0010
0100
0000
,
0100
1000
0001
0000
,
0001
0010
0001
0000
,
0100
0010
0100
1000
,
0200
0000
0010
0010
,
0010
0310
0010
0100
,
0002
0000
0100
0100
,
0100
0103
0010
0100
,
2000
0000
0001
0001
,
0001
3001
0010
1000
,
0010
0000
0100
0000
,
0100
0000
0001
0000
,
0001
0100
0001
1000
,
0010
1000
0001
0000
,
0010
0100
0010
0100
,
0010
1000
0001
0000
,
0001
0100
0001
0100
,
0010
0100
0010
0000
,
0010
1000
0100
1000
,
0001
0010
0001
0000
,
0100
0010
0100
1000
,
0000
1000
0001
0000
,
0001
0100
0010
0100
,
0000
0100
0001
1000
,
0001
1000
0001
0010
,
0000
0010
0100
0000
,
0001
0100
0001
0100
,
0001
0010
0100
0000
,
0200
0000
0001
0001
,
0001
0301
0001
0010
,
0200
0000
1000
1000
,
1000
1300
0001
0100
,
0002
0000
0100
0100
,
0100
0103
0010
0100
,
0010
0000
0010
0000
,
0001
1000
0001
0000
,
0001
1000
0100
1000
,
0100
1000
0010
0100
,
0110
0000
1010
0000
,
0011
0000
0011
0000
,
0001
0100
0010
0100
,
0010
1000
0010
0100
,
0101
0000
0101
0000
,
1010
0000
1001
0000
,
1001
0000
0000
0000
;

//--------------- dance-single - B. M'Rey ----------------
#NOTEDATA:;
#STEPSTYPE:dance-single;
#DESCRIPTION:B. M'Rey;
#CREDIT:B. M'Rey;
#DIFFICULTY:Medium;
#METER:8;
#RADARVALUES:0,0,0,0,0;
#NOTES:
0000
0000
0000
0000
,
0000
0000
0000
0000
,
0000
0000
0000
0000
,
0000
0000
0000
0000
,
0010
1000
0010
1000
,
0010
0000
0100
0000
0001
1000
0010
0000
,
0100
0010
0100
1010
,
0000
0000
0000
0000
,
0100
0000
0001
0010
0100
0000
0001
0000
,
0010
1000
0100
0000
0100
0000
0001
0000
,
0010
0100
0010
0000
0001
0000
1000
0000
,
0100
0010
0001
0000
0001
0000
0010
0100
,
0002
0000
0000
0000
0103
0000
0001
0010
,
0100
0000
0010
0000
1000
0000
0010
0100
,
2000
0000
0000
0000
3010
0000
0010
0100
,
0010
0000
0001
0000
0010
0000
0100
0010
,
0002
0000
0000
0000
0103
0000
0010
1000
,
0100
0010
0001
0010
,
0020
0000
0100
0130
0100
0000
0010
0100
,
0001
0100
0001
0000
,
0100
1000
0100
0000
0100
0010
0001
0000
,
0001
0000
0010
1000
0100
0000
0001
0000
,
0001
1000
0010
0000
0100
1000
0001
0100
,
0001
0000
0001
0010
0100
0000
0001
0000
,
0100
1000
0010
0000
0010
0100
0010
0000
,
0001
1000
0001
1000
0010
0000
0001
0000
,
0001
0010
0001
0000
0010
1000
0100
0000
,
0001
1000
0010
0000
0001
0000
0100
0000
,
0001
0010
0001
1000
0001
1000
0010
0000
,
0000
0000
0010
0100
0001
0000
0001
0000
,
0010
1000
0010
1000
0100
0010
0100
0000
,
0100
0000
0010
1000
0010
0000
0100
0000
,
0100
0010
0100
1000
0010
1000
0010
0100
,
0000
0000
0001
0100
0001
0000
0001
0000
,
0010
1000
0010
0000
0010
0100
0001
0000
,
0011
0000
0101
0000
0001
0000
0010
0100
,
0002
0000
0000
0000
0103
0000
0001
0010
,
0100
0000
0010
0000
1000
0000
0010
0100
,
2000
0000
0000
0000
3010
0000
0010
0100
,
0010
0000
0001
0000
0010
0000
0100
0010
,
0002
0000
0000
0000
0103
0000
0010
1000
,
0100
0010
0001
0010
,
0020
0000
0100
0130
0100
0000
0010
0100
,
0001
0100
0001
1000
,
0001
0000
0100
1000
0010
0000
0010
0000
,
0010
0100
0001
0000
0001
1000
0001
0000
,
0100
0000
0001
0000
0100
0000
0001
1000
,
0100
0010
0001
0010
,
0010
1000
0010
0000
0001
1000
0001
0000
,
0001
0000
0010
0000
0100
0010
0001
0000
,
0001
0000
0001
0000
0001
0000
0010
1000
,
0010
0000
0010
0000
0010
0000
0010
1000
,
0002
0000
0000
0000
,
0000
0000
0000
0000
,
0003
0000
0000
0000
;

//--------------- dance-single - B. M'Rey ----------------
#NOTEDATA:;
#STEPSTYPE:dance-single;
#DESCRIPTION:B. M'Rey;
#CREDIT:B. M'Rey;
#DIFFICULTY:Hard;
#METER:10;
#RADARVALUES:0,0,0,0,0;
#NOTES:
0000
0000
0000
0000
,
0000
0000
0000
0000
,
0000
0000
0000
0000
,
0000
0000
0000
0000
,
0001
1000
0010
0000
0100
0010
1000
0000
,
0100
0001
0010
0001
0100
0000
1000
0000
,
0010
0000
0000
0100
0000
0000
0010
0000
0100
0000
0000
0000
0110
0000
0000
0000
,
0010
0100
0010
0100
,
0100
0000
1000
0000
0100
0000
0000
0000
0001
0000
1000
0000
0000
0100
0000
0000
,
0010
0100
0001
0000
0001
0010
0100
0000
,
0100
0010
0001
0000
0010
1000
0001
0000
,
0100
0000
0001
0000
0001
0000
0010
1000
,
0100
0000
0100
0000
0100
1000
0010
0100
,
0010
1000
0010
0000
0001
0000
0010
0100
,
0001
0000
0100
0010
0100
0010
0001
0100
,
0010
0100
0001
0000
0001
0000
0100
0000
,
0010
0000
0100
1000
0001
0010
0100
1000
,
0010
1000
0100
0000
0001
0000
0001
0000
,
0100
0000
0001
0010
0001
0000
0100
0010
,
1100
0011
0110
0000
,
0100
0010
0001
0010
0001
0100
0010
0100
,
0010
0100
0001
1000
0010
0000
0001
0000
,
0001
0000
1000
0000
0010
0000
1000
0000
0010
0000
0100
0000
0001
0000
0010
1000
,
0100
0000
0010
0000
0100
0000
0010
0100
0001
0000
0100
0000
0010
0000
0000
0000
,
0010
1000
0001
1000
0100
1000
0010
0100
,
0010
0000
1000
0000
0001
0000
1000
0100
0001
0000
0000
0000
0001
0000
0000
0000
,
0010
0100
0010
0100
0001
1000
0100
1000
,
0010
1000
0100
0010
0001
0000
0010
0000
,
0100
0000
0010
0000
0100
0000
0010
0000
0001
1000
0010
0100
0001
0000
0000
0000
,
0001
0000
0010
0000
0100
0000
1000
0100
1000
0000
0001
0000
0010
0000
0001
0000
,
0010
0100
1000
0010
0001
0000
0100
1000
0010
0000
1000
0010
0000
0100
0000
0000
,
0001
0000
0100
0000
0010
0000
0000
1000
0001
0000
0010
0000
0001
0000
0100
0000
,
0010
0100
0001
1000
0100
1000
0001
0100
,
0000
0000
0000
0000
0010
0100
1000
0100
0010
0000
0100
0001
0000
0000
0000
0000
,
0001
0000
1000
0100
0010
0000
0100
0000
0001
0010
0100
0000
1010
0000
0000
0000
,
0010
0100
0001
0100
0010
0000
1000
0000
,
0010
1000
0100
0000
0010
0100
0010
0100
,
0001
0100
0001
0000
0010
0000
0100
0000
,
0100
0000
0100
0000
0001
0010
0001
0100
,
0001
0100
0010
0000
0001
0000
0010
0000
,
0010
0000
0010
1000
0001
1000
0100
1000
,
0100
0010
0001
0000
0010
0000
0001
0000
,
0001
0000
0001
0010
0100
0000
0001
1000
,
1001
0000
0000
0000
1100
0000
0000
0000
0011
0000
0000
0000
0010
0000
0100
0010
,
0001
0000
0100
0000
0010
0000
1000
0000
0010
1000
0100
0000
0010
0000
1000
0000
,
0001
0100
1000
0000
0010
0000
1000
0100
0001
0100
0010
0000
0100
0000
0000
0000
,
0100
0000
0000
0001
0000
0000
1000
0000
0010
0000
0000
0000
0001
0000
1000
0000
,
0001
0000
0000
0100
0000
0000
0010
0000
0100
0000
0000
0000
0001
0000
0100
0010
,
0001
0000
1000
0000
0001
0000
1000
0000
0100
0010
1000
0000
0100
0000
0010
0000
,
0001
0010
1000
0000
0100
0000
0010
0001
0100
1000
0010
0000
0001
0000
0010
0000
,
0100
0000
0000
1000
0000
0000
0100
0000
0001
0000
0000
0000
0010
0000
0100
0000
,
0010
0000
0000
1000
0000
0000
0100
0000
0001
0000
0000
0000
0100
0000
0010
0000
,
2002
0000
0000
0000
,
0000
0000
0000
0000
,
3003
0000
0000
0000
;

//--------------- dance-double - B. M'Rey ----------------
#NOTEDATA:;
#STEPSTYPE:dance-double;
#DESCRIPTION:B. M'Rey;
#CREDIT:B. M'Rey;
#DIFFICULTY:Easy;
#METER:4;
#RADARVALUES:0,0,0,0,0;
#NOTES:
00000000
00000000
00000000
00000000
,
00000000
00000000
00000000
00000000
,
00000000
00000000
00000000
00000000
,
00000000
00000000
00000000
00000000
,
00010000
00000000
00001000
00000000
,
01000000
00000000
00010000
00000000
,
10000000
00000000
00100000
10100000
,
00000000
00000000
00000000
00000000
,
01000000
00000000
01000000
00000000
,
00001000
00000000
00010000
00000010
,
00001000
00000000
00100000
00000000
,
01000000
00000000
00010000
10000000
,
00100000
00000000
00010000
00000000
,
00010000
00010000
01000000
00001000
,
00100000
00000000
01000000
00000000
,
00010000
00010000
10000000
00100000
,
00010000
00000000
01000000
00000000
,
00001000
00001000
00000010
00000100
,
00001000
00000000
00000100
00000000
,
00001010
00000110
00000101
00000000
,
00001000
00000001
00000100
00000001
,
00000010
00000100
00010000
00000000
,
00001000
00000100
00001000
00010000
,
00001000
01000000
00000000
00000000
,
00001000
00010000
00001000
00000100
,
00001000
00010000
00000100
00000000
,
00000010
00000001
00000010
00000100
,
00000010
00001000
00000100
00000000
,
00000001
00001000
00000001
00001000
,
00000000
00000000
00000110
00000000
,
00000010
00000100
00000010
00000100
,
00000000
00000000
00001010
00000000
,
00000010
00001000
00000010
00001000
,
00000000
00000000
00010100
00000000
,
00000100
00010000
00000100
00010000
,
00001000
00001000
00001000
00000000
,
00000010
00000000
00010000
00001000
,
00100000
00000000
00001000
00000000
,
01000000
00000000
00010000
00100000
,
00010000
00000000
01000000
00100000
,
10000000
00000000
01000000
00100000
,
01000000
00000000
00010000
00100000
,
10000000
00000000
00010000
00000000
,
01100000
01010000
10010000
00000000
,
10000000
00100000
00010000
00100000
,
00001000
00100000
00001000
01000000
,
00011000
00000000
01010000
00000000
,
00011000
00000000
01010000
00000000
,
00001000
01000000
00001000
00010000
,
00000010
00001000
00000100
00010000
,
00001001
00000000
00010100
00000000
,
00010010
00000000
00001001
00000000
,
00000101
00000000
00000000
00000000
;

//--------------- dance-double - B. M'Rey ----------------
#NOTEDATA:;
#STEPSTYPE:dance-double;
#DESCRIPTION:B. M'Rey;
#CREDIT:B. M'Rey;
#DIFFICULTY:Medium;
#METER:7;
#RADARVALUES:0,0,0,0,0;
#NOTES:
00000000
00000000
00000000
00000000
,
00000000
00000000
00000000
00000000
,
00000000
00000000
00000000
00000000
,
00000000
00000000
00000000
00000000
,
00010000
00010000
00000010
00000010
,
00001000
00001000
00000100
00000100
,
00010000
00010000
00000010
00001010
,
00000000
00000000
00000000
00000000
,
00000100
00001000
00000001
00001000
,
00000001
00001000
00000100
00000010
,
00000100
00000010
00000100
00010000
,
00001000
00000000
00100000
00000000
00001000
00100000
01000000
00000000
,
00020000
00000000
10000000
10000000
,
01000000
01000000
01030000
00000000
00010000
00000000
00100000
00000000
,
02000000
00000000
00100000
00010000
,
10000000
10000000
13000000
00000000
00100000
00000000
00010000
00000000
,
02000000
00000000
00010000
00001000
,
00010000
00010000
03010000
00000000
00100000
00000000
01000000
00000000
,
00200000
00000000
20300000
00000000
,
30010000
01100000
01100000
00000000
,
00001000
00010000
00000100
00001000
,
00000010
00000000
00000001
00001000
00000100
00000000
00010000
00000000
,
00000010
00010000
00001000
00000100
,
00001000
00000000
00010000
00001000
01000000
00000000
00001000
00000000
,
00100000
00001000
00010000
00000100
,
00010000
00000000
00000010
00001000
00000001
00000000
00001000
00000000
,
00000100
00000010
00000001
00000010
,
00000100
00000000
00001000
00000000
00002200
00000000
00000000
00003300
,
00000010
00000000
00010000
00000000
00000010
00010000
00001000
00000000
,
00100000
00010000
01000000
00000000
,
10000000
00000000
01000000
00000000
00010000
00100000
00001000
00000000
,
00100000
00000000
01000000
00001000
,
00010000
01000000
00010000
00000000
00100000
00001000
00100000
00000000
,
00010000
00000000
01000000
00000000
,
00001000
00000000
00010000
00000000
00000100
00001000
00000001
00000000
,
00001100
00010100
00011000
00000000
,
00000200
00000000
00001000
00000010
,
00001000
00001000
00001300
00000000
00010000
00000000
00000010
00000000
,
00020000
00000000
00000100
00000010
,
00001000
00001000
00031000
00000000
00100000
00000000
01000000
00000000
,
00200000
00000000
00010000
01000000
,
10000000
01000000
01300000
00000000
00100000
00000000
00010000
00000000
,
20000000
00000000
30200000
00000000
,
00310000
00000000
01100000
00000000
10100000
00000000
01000000
10000000
,
01000000
00000000
00100000
00000000
00010000
00100000
00010000
00000000
,
00100000
00000000
01000000
00000000
00001000
00010000
00001000
00000000
,
00001100
00001010
00001001
00000000
,
00000101
00000011
00000110
00000000
,
00000001
00001000
00000001
00000000
00000100
00000010
00000100
00000000
,
00000001
00000000
00001000
00000000
00000100
00010000
00000100
00000000
,
00011000
00101000
01010000
00000000
,
10010000
01001000
01010000
00000000
,
20020000
00000000
00000000
00000000
,
00000000
00000000
00000000
00000000
,
30030000
00000000
00000000
00000000
;

//--------------- dance-double - B. M'Rey ----------------
#NOTEDATA:;
#STEPSTYPE:dance-double;
#DESCRIPTION:B. M'Rey;
#CREDIT:B. M'Rey;
#DIFFICULTY:Hard;
#METER:10;
#RADARVALUES:0,0,0,0,0;
#NOTES:
00000000
00000000
00000000
00000000
,
00000000
00000000
00000000
00000000
,
00000000
00000000
00000000
00000000
,
00000000
00000000
00000000
00000000
00000000
00000000
00010000
00001000
,
00010000
00000000
00011000
00000000
01000000
00100000
01000000
00000000
,
00001000
01000000
00010000
00000000
00100000
01000000
10000000
00000000
,
00010000
00100000
00001000
00010010
,
00010000
00010000
00100000
00100000
,
00001000
00000000
01000000
00000000
00001000
00000000
00100000
00000000
00001000
00000000
00100000
00000000
00000000
00001000
00000000
00000000
,
01000000
00010000
00001000
00010000
00001000
00010000
00000100
00000000
,
00000100
00000010
00000001
00000100
00000001
00000100
00000001
00000010
,
00000100
00000000
00000001
00000000
00000001
00001000
00000001
00000010
,
00000200
00000000
00000000
00000000
00000001
00000000
00000001
00000001
,
00000010
00000010
00000310
00000000
00010000
00000000
00000100
00001000
,
00000200
00000000
00000001
00001000
,
00010000
00010000
00010300
00000000
00100000
00000000
01000000
00100000
,
20000000
00000000
01000000
00000000
00010000
00000000
00100000
00100000
,
00010000
00010000
30010000
00000000
01000000
00000000
10000000
01000000
,
00100000
00000000
00010000
10000000
00010000
00000000
01000000
00001000
,
01001000
01010000
00011000
00000000
,
00000100
00010000
00000100
00001000
00000100
00001000
00000010
00001000
,
00000010
00010000
00000010
00010000
00000100
00000000
00000010
00000000
,
00000100
00000000
00001000
00000000
00000010
00000000
00001000
00000000
00000010
00000000
00001000
00000000
00000100
00010000
00000100
00000000
,
00010000
00000000
00000100
00000000
00001000
00000010
00001000
00000000
00000010
00000000
00001000
00000000
00000010
00000000
00000000
00000000
,
00000100
00000010
00000100
00000010
00000100
00010000
00001000
01000000
,
00001000
00000000
01000000
00000000
00001000
00000000
00100000
00010000
00100000
00000000
00010000
00000000
01000000
00000000
00000000
00000000
,
01000000
00100000
01000000
00100000
00001000
00100000
00001000
01000000
,
00001000
00010000
00100000
00010000
,
00010000
00000000
10000000
00000000
00010000
00000000
10000000
00000000
00010000
00000000
00100000
01000000
00100000
00000000
00000000
00000000
,
01000000
00000000
00100000
00000000
00010000
01000000
00010000
00000000
01000000
00000000
00010000
01000000
00000000
00000000
10000000
00000000
,
01000000
00000000
10000000
01000000
10000000
00000000
01000000
00000000
00010000
00000000
10000000
00010000
10000000
00000000
01000000
00000000
,
00010000
00000000
00000000
00000000
01000000
00000000
00100000
00010000
00100000
00000000
00001000
00000000
00010000
00000000
00001000
00000000
,
00011000
01000000
01001000
01000000
01010000
01000000
00011000
00010000
,
00011000
00000000
00010000
00000000
00000010
00010000
00000010
00000000
00000010
00000000
00001000
00000000
00000020
00000000
00000000
00000000
,
00000130
00001000
00000100
00000000
00000100
00000010
00000001
00000000
,
00001001
00000000
00001010
00000000
00001010
00000000
00000100
00000010
,
00000100
00000000
00000100
00010000
00000100
00001000
00000001
00001000
,
00000001
00001000
00000100
00000000
00010100
00000000
00001100
00000000
,
00020000
00000000
00000010
00000010
00001000
00000000
00001000
00000100
,
00031000
00100000
00010000
00000000
00110000
00000000
00011000
00000000
,
02000000
00000000
00001000
00000000
00001000
00000000
00001000
00010000
,
00100000
00010000
03001000
00000000
01100000
00000000
01001000
00000000
,
00001000
00100000
00001000
00000000
00010000
00000100
00010000
00000000
,
00101000
00000000
00000000
00000000
10010000
00000000
00000000
00000000
10100000
00000000
00000000
00000000
00000000
00000000
01000000
00100000
,
01000000
00000000
00100000
00000000
01000000
00000000
01000000
00000000
00100000
10000000
00010000
00000000
00010000
00000000
00000100
00000000
,
00010000
00000000
00000010
00000000
00000010
00000100
00000010
00000000
,
00001000
00000100
00000000
00000100
00001000
00000000
00000100
00000000
00001001
00000000
00000000
00000000
00000001
00000000
00001000
00000000
,
00000001
00000100
00000000
00000100
00000010
00000000
00000100
00000000
00000110
00000000
00000000
00000000
00000001
00000000
00000010
00000001
,
00000010
00000000
00000010
00000000
00000100
00000000
00000010
00000000
00000001
00000100
00000010
00000000
00000010
00000000
00000100
00000000
,
00000010
00000100
00000001
00000000
00000010
00000000
00000001
00000000
,
00000010
00000100
00000000
00000100
00000010
00000000
00001000
00000000
00000110
00000000
00000000
00000000
00000001
00000000
00001000
00000000
,
00000010
00001000
00000000
00001000
00000010
00000000
00010000
00000000
00010010
00000000
00000000
00000000
00011000
00000000
00000000
00000000
,
00202000
00000000
00000000
00000000
,
00000000
00000000
00000000
00000000
,
00303000
00000000
00000000
00000000
;
