#TITLE:ACID BOMB;
#SUBTITLE:;
#ARTIST:DJ FX;
#TITLETRANSLIT:;
#SUBTITLETRANSLIT:;
#ARTISTTRANSLIT:;
#GENRE:;
#CREDIT:;
#MUSIC:ACID BOMB.ogg;
#BANNER:ACID BOMB.png;
#BACKGROUND:ACID BOMB-bg.png;
#CDTITLE:./CDTITLES/Beatmania.PNG;
#SAMPLESTART:34.720;
#SAMPLELENGTH:12.000;
#SELECTABLE:YES;
#OFFSET:-0.024;
#BPMS:0.000=140.074;
#STOPS:;
#BGCHANGES:;
#FGCHANGES:;

//--------------- dance-single - B. M'Rey ----------------
#NOTES:
     dance-single:
     B. M'Rey:
     Beginner:
     3:
     0,0,0,0,0:
0000
0000
0000
0000
,
0000
0000
0000
0000
,
0000
0000
0000
0000
,
0000
0000
0000
0000
,
0000
0001
0010
0001
,
0000
0001
1000
0100
,
0000
0010
1000
0010
,
0000
0010
0100
0001
,
0100
0001
1000
0001
,
0000
0010
1000
0010
,
0000
0010
0100
0001
,
0000
0001
0010
0001
,
0000
0110
0000
0100
,
0000
0100
0000
0010
,
0000
0010
0000
0001
,
0000
0001
0010
0001
,
0010
0001
0100
0010
,
0100
0010
0100
0001
,
1000
0001
1000
0001
,
0100
0010
0100
0010
,
0100
1001
0000
0011
,
0000
0011
0000
0110
,
0000
1100
0000
1100
,
0000
1000
0010
1000
,
0100
0101
0000
0011
,
0000
1001
0000
1010
,
0000
1010
0000
0110
,
0000
0100
0010
0100
,
1000
1001
0000
0011
,
0000
1001
0000
0110
,
0000
1001
0000
1010
,
0000
0001
0100
0010
,
0100
0001
0100
0010
,
1000
0010
0100
0010
,
0100
0001
0100
0010
,
1000
0010
1000
0010
,
0100
0001
0100
0001
,
0000
0010
1000
0010
,
0000
0010
0100
0001
,
0000
0001
0100
0001
,
0110
0000
0100
0010
,
0000
0010
1000
0001
,
0000
0001
0100
0001
,
0000
0010
0100
0010
,
1010
0000
1000
0001
,
0000
0001
0100
0001
,
0110
0000
0100
0010
,
0000
0010
1000
0001
,
1001
0000
0100
0001
,
0000
0010
0100
0010
,
1010
0000
1000
0001
,
0000
0100
0010
0100
,
1100
0000
0000
0000
;

//--------------- dance-single - B. M'Rey ----------------
#NOTES:
     dance-single:
     B. M'Rey:
     Easy:
     6:
     0,0,0,0,0:
0000
0000
0000
0000
,
0000
0000
0000
0000
,
0000
0000
0000
0000
,
0000
0000
0000
0000
,
0000
0100
0010
0001
,
0100
0010
1000
0100
,
0010
0100
1000
0010
,
0100
0010
1000
0001
,
0100
0001
0010
0100
,
0010
1000
0100
0000
0010
0000
0001
0000
,
0100
0001
0010
0000
0100
0000
0010
0000
,
1000
0100
0001
0000
0010
0000
0100
0000
,
1000
0100
0001
0000
0010
0000
0001
0000
,
0100
0001
0010
0000
1000
0000
0100
0000
,
1000
0001
0100
0000
0010
0000
0001
0000
,
0100
0010
0001
0000
0010
1000
0100
0000
,
0010
0001
0100
0000
1000
0000
0100
0000
,
0010
1000
0001
0000
1000
0000
0010
0000
,
0100
0010
0001
0000
1000
0000
0100
0000
,
0010
1000
0101
0000
0011
0000
1100
0000
,
0110
1001
1000
0110
,
0100
0101
1000
1010
,
0100
1001
1000
0110
,
0100
0110
0110
1010
,
1100
1100
1000
1010
,
1000
0110
0010
0011
,
0010
1100
1000
0110
,
0100
0011
0110
1100
,
1010
0110
0100
0011
,
0010
0101
0100
0110
,
0100
0110
0100
0011
,
0010
1100
1010
1010
,
1100
0000
0001
1000
0001
1000
0001
0100
,
0010
0100
0010
0100
0001
1000
0001
1000
,
0001
0010
0100
0010
0001
0010
0001
1000
,
0001
1000
0001
0000
1001
0000
1001
0000
,
1010
0110
0100
0001
,
0010
1000
0100
0000
0010
0000
0001
0000
,
0100
0010
0001
0000
1000
0000
0010
0000
,
0100
1000
0001
0000
0100
0000
0010
0000
,
0110
0010
1000
0100
,
1000
0001
0010
0000
0100
0000
0001
0000
,
1000
0100
0001
0000
0100
0000
0001
0000
,
0010
1000
0100
0000
0010
0000
0001
0000
,
1001
0001
0010
0100
,
1000
0010
0001
0000
0010
0000
0100
0000
,
1010
0010
1000
0001
,
1000
0100
0010
0000
0100
0000
0001
0000
,
0110
0100
1000
0010
,
1000
0100
0001
0000
0100
0000
0010
0000
,
0101
0001
0010
0100
,
0010
1000
0001
0000
1000
0000
0001
0000
,
1001
0000
0000
0000
;

//--------------- dance-single - B. M'Rey ----------------
#NOTES:
     dance-single:
     B. M'Rey:
     Medium:
     8:
     0,0,0,0,0:
0000
0000
0000
0000
,
0000
0000
0000
0000
,
0000
0000
0000
0000
,
0000
0000
0000
0000
,
0000
0000
0001
0000
0100
0010
0100
0000
,
0001
0100
0010
0000
0001
1000
0010
0000
,
0001
0000
0010
0000
0001
0010
0001
0000
,
0001
0100
0110
0000
1100
0000
0101
0000
,
0101
0000
0100
0000
0001
1000
0001
0000
,
0010
0100
0001
0000
0100
0010
0100
0000
,
0100
1000
0001
0000
0010
0100
0010
0000
,
0001
1000
0100
0000
0001
0010
0001
0000
,
0010
1000
0100
0000
0001
0000
0100
0000
,
0001
0010
0001
0000
0010
0000
0001
0000
,
0010
1000
0010
0000
0100
0000
0001
0000
,
0001
1000
0100
0010
0001
0100
0010
1000
,
0010
0100
1000
0000
0001
0010
0001
0000
,
0010
1000
0001
0000
0100
1000
0001
0000
,
0001
0010
0001
0000
0010
0100
0010
0000
,
0001
1000
1001
0000
0110
0000
0011
0000
,
1001
0000
0100
1000
0001
0000
0100
0010
,
0100
0000
0100
0010
0001
0000
0010
1000
,
0100
0000
0100
0010
0100
0000
0001
0010
,
0001
1001
0110
0101
,
1010
0000
0001
0100
0001
0000
0010
1000
,
0100
0000
0100
0010
0001
0000
0100
1000
,
0010
0000
0001
0100
0001
0000
0010
0100
,
0001
1001
1010
0110
,
1010
0000
0010
0100
0000
0110
0110
0110
,
0000
0011
0011
0110
0000
0110
1100
1100
,
0000
1010
1010
1010
0000
0101
0011
0110
,
0000
0010
0011
0000
0011
0000
1100
0000
,
1100
0000
0001
0100
0010
0100
0010
0100
,
0001
0010
0001
0100
0001
0100
0010
1000
,
0100
1000
0010
1000
0100
0010
0100
0010
,
0001
0100
0101
0000
0110
0000
0101
0000
,
1010
0000
0100
0000
0010
1000
0100
0000
,
0001
0100
0010
0000
0010
1000
0001
0000
,
0001
0010
0001
0000
0100
1000
0010
0000
,
0001
0100
0010
0000
0010
1000
0100
0000
,
1001
0000
1010
0000
0100
0010
0001
0000
,
0001
0010
0100
0000
0010
0100
0010
0000
,
0001
0010
0100
0000
0001
1000
0010
0000
,
0100
0010
0100
0000
0010
0100
0010
0000
,
1001
0000
0110
0000
0100
1000
0100
0000
,
0010
1000
0001
0000
0001
1000
0001
0000
,
0110
0000
1100
0000
0100
1000
0001
0000
,
0100
1000
0001
0000
0001
0100
0010
0000
,
1010
0000
1100
0000
0001
0100
0010
0000
,
0010
1000
0100
0000
0100
1000
0001
0000
,
1010
0000
1100
0000
0100
0010
0100
0000
,
0001
1000
0010
0000
0010
1000
0001
0000
,
1001
0000
0000
0000
;

//--------------- dance-single - B. M'Rey ----------------
#NOTES:
     dance-single:
     B. M'Rey:
     Hard:
     9:
     0,0,0,0,0:
0000
0000
0000
0000
,
0000
0000
0000
0000
,
0000
0000
0000
0000
,
0000
0000
0000
0000
,
0000
0000
0000
0000
0001
0000
0000
1000
0100
0000
0001
0000
0100
0000
0000
0000
,
0001
0000
0001
0000
0100
0000
0000
0010
0001
0000
0100
0000
0001
0000
0000
0010
,
0001
0000
0010
1000
0100
0000
0000
1000
0001
0000
0001
0000
0100
0000
0000
0000
,
0010
0000
0100
0000
0001
0000
0000
1000
0001
0000
0001
0100
0010
0000
0000
0000
,
0010
0000
0100
0010
0100
0000
0000
1000
0010
0000
0001
0010
0100
0000
0000
1000
,
0010
0000
0001
1000
0010
0000
0000
0100
0001
0000
0001
0010
0001
0000
0000
1000
,
0100
0000
0001
0010
0100
0000
0000
0010
0100
0000
0001
0010
0001
0000
0000
0100
,
0001
0000
0010
0100
0001
0000
0000
0010
0100
0000
0001
0010
0100
0000
0000
1000
,
0001
0000
0001
0100
0001
0000
0000
0000
0001
0000
0010
0000
0100
0000
0000
0000
,
0001
0100
0010
0000
0001
0010
0100
0000
,
0010
1000
0010
0000
0010
1000
0100
0000
,
0100
0010
0001
0001
1000
1000
0010
0010
,
0100
0000
0100
0000
0010
0000
0000
0010
0001
0000
0001
0100
0010
0000
0000
0010
,
0001
0000
0100
1000
0100
0000
0000
1000
0001
0000
0010
0100
0001
0000
0000
1000
,
0001
0000
0100
0010
0100
0000
0000
0100
0001
0000
0001
1000
0100
0000
0000
1000
,
0010
0000
0010
0100
1010
0000
0000
0000
0011
0000
0000
0000
1001
0000
0000
0000
,
1010
0000
0000
0000
0100
0000
0000
0001
0010
0000
0100
0000
1010
0000
0000
1000
,
0001
0000
1000
0000
0110
0000
0000
1000
0001
0000
0100
0000
1001
0000
0000
0010
,
0100
0000
1000
0000
0110
0000
0000
0001
0100
0000
1000
0000
1001
0000
0000
1000
,
0001
1000
0110
0000
0101
0000
1001
0000
,
0101
0000
0000
1000
0010
0000
1000
0000
0001
0000
0100
0001
0010
0000
1000
0000
,
0001
0000
1000
0100
0010
0000
1000
0000
0001
0000
0100
0001
0010
0000
0100
0000
,
0010
0000
0100
1000
0001
0000
1000
0000
0010
0000
1000
0100
0001
0000
0010
0000
,
0001
0010
1001
1000
0110
0010
0110
0010
,
1100
0000
1000
0000
1001
0000
1000
0001
0100
0000
0010
0000
1001
0000
1000
0100
,
0010
0000
1000
0000
0011
0000
0010
0100
0001
0000
0010
0000
0110
0000
0010
0001
,
0100
0000
1000
0000
1001
0000
1000
0100
0001
0000
1000
0000
0110
0000
0010
0100
,
0001
0000
0100
0000
1010
0000
1000
0001
0100
0000
1000
0001
0010
0000
1000
0001
,
0010
0100
1001
1001
1001
0101
0101
0101
,
0110
0110
0110
1010
1010
1010
0101
0101
,
0101
1100
1100
1100
0011
0011
0011
1001
,
1001
0000
1001
0000
0110
0000
0100
0010
0100
0000
0001
0100
0001
0000
0001
0100
,
0010
0000
1000
0010
1000
0000
0000
0100
0001
0000
0100
0010
0001
0000
0000
1000
,
0001
0000
0010
1000
0001
0000
0000
0100
0010
0000
0001
0010
0100
0000
0000
0010
,
0001
0000
0100
0010
0100
0000
0000
1000
0100
0000
0010
0100
0010
0000
0000
0100
,
0010
0000
0001
0100
0001
0000
0000
0100
0010
0000
0001
0010
0001
0000
0000
1000
,
0100
0000
0000
1000
0001
0000
0000
0100
0010
0000
0001
0010
0001
0000
0000
1000
,
0100
0000
0010
0100
0010
0000
0000
1000
0010
0000
0010
1000
0100
0000
0000
0100
,
0010
0000
0010
0100
0001
0000
0000
0100
0010
0000
0010
0100
0010
0000
0000
0100
,
0001
0000
0010
0100
0001
0000
0000
1000
0001
0000
0010
1000
0100
0000
0000
0001
,
0010
0000
0000
0100
0010
0000
0010
1000
0001
0000
0010
0100
0001
0000
1000
0010
,
0100
0000
0001
0100
0001
0000
0001
1000
0010
0000
0001
0100
0010
0000
0010
0100
,
0010
0000
0001
0010
0001
0000
0001
1000
0100
0000
0100
0010
0100
0000
0001
0010
,
0001
0000
0010
1000
0010
0000
0010
0100
0001
0000
0001
1000
0001
0000
0010
0100
,
0010
0000
0001
0100
0010
0000
0001
1000
0010
0000
0100
0010
0001
0000
0010
0100
,
0010
0000
0001
0010
0001
0000
0010
0100
0001
0000
0001
1000
0001
0000
0010
0100
,
0001
0000
0001
1000
0100
0000
0100
1000
0001
0000
0010
1000
0010
0000
0010
0100
,
0001
0000
0010
1000
0001
0000
0001
0010
0001
0000
0010
1000
0001
0000
0001
1000
,
0010
0000
0010
0100
1000
0000
0000
0000
0000
0000
0000
0000
0000
0000
0000
0000
;
