#TITLE:ABSOLUTE;
#SUBTITLE:~Rock Guitar~;
#ARTIST:dj TAKA feat.good-cool;
#GENRE:ROCK GUITAR;
#CREDIT:B. M'Rey;
#MUSIC:ABSOLUTE ~Rock Version~.ogg;
#BANNER:ABSOLUTE ~Rock Version~.png;
#BACKGROUND:ABSOLUTE ~Rock Version~-bg.png;
#CDTITLE:./CDTITLES/Pop'n Music.PNG;
#SAMPLESTART:19.31;
#SAMPLELENGTH:12;
#OFFSET:-0.236;
#BPMS:0=144;

//--------------- dance-single - B. M'Rey ----------------
#NOTES:
     dance-single:
     B. M'Rey:
     Beginner:
     2:
     0,0,0,0,0:
0000
0000
0000
0000
,
0000
0000
0000
0000
,
0000
0000
0000
0000
,
0000
0000
0000
0000
,
0000
0000
1000
0000
,
0001
0000
1000
0000
,
0000
0000
0010
0000
,
0100
0000
0020
0000
,
0000
0000
0000
0000
,
0000
0000
0000
0000
,
0000
0000
0000
0000
,
0000
0030
0001
0000
,
1000
0000
0100
0000
,
0000
0000
0010
0000
,
0001
0000
0100
0000
,
0000
0000
1000
0000
,
0010
0000
0100
0000
,
0000
0000
0001
0000
,
0010
0000
0001
0000
,
0000
0000
1000
1000
,
1000
0000
0010
0000
,
0100
0000
0001
0001
,
0001
0000
0010
0000
,
0100
0000
0010
0010
,
0010
0000
0100
0000
,
1000
0000
0100
0100
,
0100
0000
0001
0000
,
0010
0000
0001
0000
,
1000
0000
0010
0000
,
0100
0000
0001
0001
,
0001
0000
1000
0000
,
0010
0000
0100
0100
,
0100
0000
1000
0000
,
0001
0000
0010
0010
,
0010
0000
0100
0000
,
1000
0000
0001
0001
,
0001
0000
1000
1000
,
1000
0000
0010
0000
,
0100
0000
0001
0000
,
1000
0000
0001
0000
,
0100
0000
0010
0000
,
1000
0000
0100
0000
,
1000
0000
0010
0000
,
0100
0000
0001
0000
,
1000
0000
0010
0000
,
0100
0000
0001
0000
,
0001
0000
1000
0000
,
1000
0000
0100
0000
,
0100
0000
0010
0000
,
0010
0000
0001
0000
,
0001
0000
1000
0000
,
1000
0000
0010
0000
,
0100
0000
0010
0000
,
0000
0000
0001
0000
,
1000
0000
0010
0000
,
0100
0000
0001
0000
,
1000
0000
0100
0000
,
1000
0000
0110
0000
,
0001
0000
0010
0000
,
0001
0000
0100
0000
,
0100
0000
0100
0000
,
0000
0000
0010
0000
,
0001
0000
1000
0000
,
0000
0000
0100
0000
,
0010
0000
0001
0000
,
0000
0000
1000
0000
,
0010
0000
0100
0000
,
0000
0000
0001
0000
,
0001
0000
0000
0000
,
0000
0000
0000
2002
0000
0000
0000
0000
,
0000
0000
0000
0000
,
0000
0000
0000
0000
,
0000
0000
0000
0000
,
0000
0000
0000
0000
,
0000
0000
0000
0000
,
3003
0000
0000
0000
;

//--------------- dance-single - B. M'Rey ----------------
#NOTES:
     dance-single:
     B. M'Rey:
     Easy:
     3:
     0,0,0,0,0:
0000
0000
0000
0000
,
0000
0000
0000
0000
,
0000
0000
0000
0000
,
0000
0000
0000
0000
,
0000
0000
1010
0000
,
1010
0000
0110
0000
,
0000
0000
0101
0000
,
1010
0000
0220
0000
,
0000
0000
0000
0000
,
0000
0000
0000
0000
,
0000
0000
0000
0000
,
0000
0330
0001
0010
,
0001
0010
0200
0000
,
0000
1300
0100
0010
,
0001
0010
0002
0000
,
0000
0000
0103
1000
,
0100
0010
0002
0000
,
0000
0000
0103
1000
,
0100
1000
0200
0000
,
0000
0000
0301
0010
,
0100
1000
0100
0000
,
0100
0000
0001
0010
,
0001
1000
0001
0000
,
0010
0000
0010
0100
,
0001
1000
0001
0000
,
0001
0000
0100
0010
,
0100
0010
0001
0000
,
0001
0000
0002
0000
,
0003
1100
0100
1000
,
0010
0100
0010
0000
,
0010
0000
0001
1000
,
0001
1000
0010
0000
,
0010
0000
0010
1000
,
0001
0010
0001
0000
,
0001
0000
0010
1000
,
0010
1000
0001
0000
,
0001
0000
0002
0000
,
0000
0000
0103
0000
,
0100
0000
0010
0000
,
0010
0000
0010
0100
,
0001
0100
0001
0010
,
0001
0010
0100
0000
,
0100
0000
0010
0000
,
0010
0000
0001
0010
,
0001
0010
0100
0000
,
0100
0000
0100
0000
,
0001
0100
0001
1000
,
0001
0010
0200
0000
,
0000
1300
0000
0010
,
0001
0010
0200
0000
,
0000
0000
0300
1000
,
0001
0100
0101
0000
,
1001
0000
1010
0000
,
0001
1000
0001
0000
,
0001
0010
0100
0010
,
0100
1000
0200
0000
,
0000
1300
0000
0100
,
0001
0100
0020
0000
,
0000
0000
0030
0010
,
0001
0100
0110
0000
,
0110
0000
1001
0000
,
0000
1000
0001
0010
,
0001
0010
0200
0000
,
0000
1300
0100
0010
,
0001
0010
0002
0000
,
0000
0000
0103
1000
,
0100
0010
0002
0000
,
0000
0000
0203
0000
,
0000
0000
0000
0000
0000
2300
0000
0000
0000
0000
0000
0000
0000
0000
0000
0000
,
0000
0000
0000
0002
0000
0000
0000
0000
,
0000
0000
0000
0000
,
0000
0000
0000
0000
,
0000
0000
0000
0000
,
0000
0000
0000
0000
,
0000
0000
0000
0000
,
3003
0000
0000
0000
;

//--------------- dance-single - B. M'Rey ----------------
#NOTES:
     dance-single:
     B. M'Rey:
     Medium:
     7:
     0,0,0,0,0:
0000
0000
0000
0000
,
0000
0000
0000
0000
,
0000
0000
0000
0000
,
0000
0000
0000
0000
,
0000
0000
1010
0000
,
1001
0000
2200
0000
,
0000
0000
0000
3300
0110
0000
0000
0000
,
1010
0000
0220
0000
,
0000
0000
0000
0000
,
0000
0000
0000
0000
,
0000
0000
0000
0000
,
0000
0000
0330
0000
0010
0000
0010
0100
,
0001
0000
0010
1000
0100
0000
0010
0000
,
0100
0000
0001
0000
0001
0100
0001
0000
,
0010
1000
0010
0000
0100
0000
0001
0000
,
0100
0000
0010
0000
0010
1000
0100
0000
,
0001
1000
0100
0000
0100
0000
0001
0000
,
0010
0000
0100
0000
0001
0010
0001
0000
,
0100
0010
0100
0000
0010
0000
0001
1000
,
0010
0000
0011
0000
0001
0000
0010
1000
,
0100
0000
0100
0010
0100
0000
0010
0000
,
0001
0000
0010
0000
0100
0000
0001
1000
,
0100
0000
0100
0010
0001
0000
0100
0000
,
0010
0000
1000
0000
0100
0000
0100
1000
,
0001
0000
0001
0100
0010
0000
1000
0000
,
0001
0000
1000
0000
0010
0000
0001
0100
,
0010
0000
0001
0100
0100
0000
0010
0000
,
0001
0010
0100
1000
,
0001
0000
0110
0000
0001
0010
0100
0000
,
0001
0100
0010
0000
0010
0000
1000
0000
,
0001
0000
1000
0000
0100
0001
0010
0000
,
0001
1000
0001
0000
0100
0000
1000
0000
,
0001
0000
0100
0000
0010
1000
0010
0000
,
0001
1000
0100
0000
0010
0000
1000
0000
,
0010
0000
1000
0000
0001
0100
0010
0000
,
0001
0010
0001
0000
1100
0000
0110
0000
,
0101
1001
0110
0000
,
0000
1000
0100
0000
0001
0000
0100
0000
,
0010
1000
0001
1000
,
0100
0000
0001
0000
0010
0100
0010
1000
,
0010
0000
0001
0000
0100
0000
0001
1000
,
0010
0000
0010
0100
0001
0000
0010
0000
,
0001
0100
0010
1000
,
0010
0000
1000
0000
0100
0010
0100
0010
,
0100
0000
0010
0100
0110
0000
0010
0000
,
0001
0001
0100
1000
,
0001
0000
0010
1000
0001
0000
0001
0100
,
0001
0010
0010
0001
,
1000
0000
0010
0000
0100
0000
0001
1000
,
0010
0000
0010
0100
0001
0000
0100
0000
,
0010
0000
0100
0000
0001
0000
1000
0100
,
0010
0100
1100
0100
,
0101
0010
0110
0000
,
0100
1000
0001
1000
0001
0000
1000
0000
,
0001
0000
0010
1000
0001
0000
0010
0100
,
0010
0001
1000
0100
,
0010
0000
0001
0000
1000
0000
0100
0010
,
0001
0000
0001
0100
1010
0000
0010
0000
,
1000
0000
0001
0000
1000
0000
0001
1000
,
0010
0000
0001
1000
0011
0000
0000
0000
,
0110
0000
0001
0100
,
0001
0000
1000
0000
0010
0000
0010
0100
,
0001
0000
0010
1000
0100
0000
0010
0000
,
0100
0000
0001
0000
0001
0100
0001
0000
,
0010
1000
0010
0000
0100
0000
0001
0000
,
0100
0000
0010
0000
0010
1000
0100
0000
,
0001
1000
0100
0000
0100
0000
0001
0000
,
0010
0000
0000
0000
0100
0000
0000
0000
0001
0000
0000
0010
0000
0000
0100
0000
,
0000
0000
0010
0000
0000
0010
0000
0000
0000
0000
0001
0000
0000
1000
0000
0000
,
0000
0010
0000
0000
0000
0000
0022
0000
0000
0000
0000
0000
0000
0000
0000
0000
,
0000
0000
0000
0000
,
0000
0000
0000
0000
,
0000
0000
0000
0000
,
0000
0000
0000
0000
,
0000
0000
0000
0000
,
0033
0000
0000
0000
;

//--------------- dance-single - B. M'Rey ----------------
#NOTES:
     dance-single:
     B. M'Rey:
     Hard:
     9:
     0,0,0,0,0:
0000
0000
0000
0000
,
0000
0000
0000
0000
,
0000
0000
0000
0000
,
0000
0000
0000
0000
,
0000
0000
1001
0000
,
1100
0000
0220
0000
,
0000
0330
0011
0000
,
0110
0000
2100
0001
,
0010
0001
0010
0001
,
0010
0001
0010
0001
,
0010
0001
0010
0001
,
0010
0000
0000
0000
3001
0000
0000
0000
0001
0000
0010
0001
0010
0000
0010
0000
,
0001
0000
1000
0100
1000
0000
1000
0000
0100
0000
1000
0000
0010
0000
0100
0000
,
0010
0000
0100
0000
0010
0000
1000
0000
0001
0000
1000
0100
1000
0000
1000
0000
,
0100
0000
0010
0100
0010
0000
1000
0000
0010
0000
1000
0000
0010
0000
1000
0000
,
0001
0000
0100
0000
0010
0000
0100
0000
0001
0000
0100
0001
0100
0000
1000
0000
,
0100
0000
1000
0100
1000
0000
1000
0000
0001
0000
0100
0000
0001
0000
0100
0000
,
0010
0000
0100
0000
0010
0000
1000
0000
0010
0000
1000
0100
1000
0000
1000
0000
,
0100
0000
0010
0100
0010
0000
0010
0000
0001
0000
0010
0000
0001
0000
1000
0000
,
0001
0000
1000
0000
0100
0000
1000
0000
0100
0000
0010
0100
0000
0000
0010
0000
,
0001
0000
0010
0001
0000
0000
1000
0000
0001
0000
1000
0000
0100
0000
1000
0000
,
0100
0000
0010
0000
0100
0000
0010
0000
0001
0000
1000
0001
0000
0000
0010
0000
,
0001
0000
0010
0100
0000
0000
0010
0000
0100
0000
1000
0000
0100
0000
0010
0000
,
0001
0000
0010
0000
0001
0000
0010
0000
0100
0000
1000
0100
0000
0000
1000
0000
,
0100
0000
0010
0001
0000
0000
0010
0000
0001
0000
0010
0000
0100
0000
1000
0000
,
0100
0000
1000
0000
0100
0000
0010
0000
0001
0000
0010
0001
0000
0000
0010
0000
,
0100
0000
1000
0001
0000
0000
1000
0000
0001
0000
1000
0000
0010
0000
0100
0000
,
0010
0100
0010
1000
0001
0100
0001
1000
,
1001
0000
0000
0000
1010
0000
0000
0000
0001
0000
0010
0001
0010
0000
0010
0000
,
0001
0000
1000
0010
1000
0000
1000
0000
0010
0000
0100
0000
0010
0000
0100
0000
,
0001
0000
0100
0000
0001
0000
1000
0000
0100
0000
1000
0100
1000
0000
1000
0000
,
0001
0000
0100
0010
0100
0000
1000
0000
0010
0000
0100
0000
0010
0000
0100
0000
,
0001
0000
0010
0000
0001
0000
0100
0000
0001
0000
1000
0100
1000
0000
0010
0000
,
0100
0000
0010
0100
0010
0000
1000
0000
0001
0000
1000
0000
0001
0000
1000
0000
,
0010
0000
0100
0000
0001
0000
1000
0000
0001
0000
1000
0001
1000
0000
0100
0000
,
0010
0000
1000
0010
1000
0000
1000
0000
0001
1000
0000
0000
0100
0010
0000
0000
,
0100
1000
0000
0000
0100
1000
0000
0000
1001
0000
0000
0000
0001
0000
0000
0000
,
0100
0000
0110
0000
0010
1000
0001
1000
,
0100
0010
0100
1000
0001
0010
0100
0010
,
0100
1000
0001
0010
0001
0010
0100
0010
,
0100
1000
0010
0100
0010
0100
0010
1000
,
0001
0100
0010
0100
0001
0100
0001
0010
,
0100
0010
0100
0010
0001
0100
0010
1000
,
0001
0010
0100
0010
0100
1000
0010
0100
,
0010
1000
0010
0100
0001
0100
0001
0010
,
0100
0010
0001
0010
1010
0000
0101
0000
,
0001
0100
0001
0000
0010
1000
0010
0000
,
0100
0010
0100
0000
0100
1000
0001
0000
,
0100
0010
0100
0000
0001
1000
0001
0000
,
0001
0010
0100
0010
0100
0000
0001
1000
,
0001
0000
0001
0010
0100
0000
0100
0010
,
0001
0000
0001
0100
0001
0000
0010
1000
,
0001
0000
0001
0010
0001
0000
0010
0000
,
0100
1000
0100
0010
0100
1000
0100
0000
,
0001
1000
0001
0000
0001
0100
0010
0000
,
0010
1000
0010
0000
0001
0100
0010
0000
,
0010
0100
0001
0000
0001
1000
0100
0000
,
0001
0100
0001
0100
0001
0000
0010
1000
,
0010
0000
0001
0010
0001
0000
0001
1000
,
0010
1000
0010
1000
0001
0000
0001
0010
,
0001
0000
0010
0100
0010
0100
0001
1000
,
0001
0000
1000
0000
0001
0000
0010
0000
0100
0000
0010
0100
0010
0000
0010
0000
,
0001
1000
0001
0000
0001
0000
1000
0000
0010
0000
0100
0000
0010
0000
0100
0000
,
0010
0000
1000
0000
0100
0000
1000
0000
0010
0000
0010
1000
0010
0000
0100
0000
,
0010
0000
0100
0001
0100
0000
0100
0000
0001
0000
1000
0000
0001
0000
1000
0000
,
0100
0000
1000
0000
0100
0000
0010
0000
0100
0000
0010
0001
0010
0000
1000
0000
,
0001
0000
1000
0010
1000
0000
1000
0000
0001
0000
0100
0000
0010
0000
0100
0000
,
0010
0000
0100
0000
0001
0000
1000
0000
0100
0000
0000
0001
0000
0000
0100
0000
,
0000
0000
0010
0000
0000
1001
0000
0000
0000
0000
0100
0000
0000
0010
0000
0000
,
0000
0001
0000
0000
0000
0000
2002
0000
0000
0000
0000
0000
0000
0000
0000
0000
,
0000
0000
0000
0000
,
0000
0000
0000
0000
,
0000
0000
0000
0000
,
0000
0000
0000
0000
,
0000
0000
0000
0000
,
3003
0000
0000
0000
;

//--------------- dance-double - B. M'Rey ----------------
#NOTES:
     dance-double:
     B. M'Rey:
     Easy:
     3:
     0,0,0,0,0:
00000000
00000000
00000000
00000000
,
00000000
00000000
00000000
00000000
,
00000000
00000000
00000000
00000000
,
00000000
00000000
00000000
00000000
,
00000000
00000000
00011000
00000000
,
01010000
00000000
01010000
00000000
,
00000000
00000000
01010000
00000000
,
00011000
00000000
00022000
00000000
,
00000000
00000000
00000000
00000000
,
00000000
00000000
00000000
00000000
,
00000000
00000000
00000000
00000000
,
00000000
00033000
00000010
00000000
,
00010000
00000000
00010000
00000100
,
00010000
00001000
00100000
00000000
,
01000000
00000000
00001000
00100000
,
00010000
00000010
00010000
00000000
,
00000100
00000000
00000100
00000001
,
00001000
00000001
00001000
00000000
,
00000100
00000000
00000010
00000100
,
00000010
00000001
00001000
00000000
,
00001000
00000000
00001000
00000010
,
00000100
00000000
00000100
00000000
,
00000010
00000000
00000010
00010000
,
00000010
00000000
00101000
00000000
,
00100000
00000000
00010000
00001000
,
00100000
00000000
01000000
00000000
,
10000000
00000000
01000000
00010000
,
01000000
00000000
10000000
00000000
,
01000000
11000000
00110000
00000000
,
00110000
00000000
00100000
00010000
,
10000000
00000000
00101000
00000000
,
00101000
00000000
00100000
00001000
,
01000000
00000000
00010100
00000000
,
00001100
00000000
00001000
00000001
,
00000010
00000000
00000011
00000000
,
00001100
00000000
00001000
00000100
,
00010000
00000100
00020000
00000000
,
00000000
00000000
00030010
00000000
,
00010000
00000000
00001000
00000000
,
01000000
00000000
01000000
00010000
,
01000000
00000000
00001000
00010000
,
00001000
00000000
00001000
00000000
,
01000000
00000000
00010000
00000000
,
01000000
00000000
00100000
00010000
,
00100000
00000000
00100000
00001000
,
01000000
00000000
00200000
00000000
,
00000000
00310000
00100000
01000000
,
10000000
01000000
00200000
00000000
,
00000000
00000000
00000000
00310000
,
00100000
10000000
00200000
00000000
,
00000000
00000000
00300000
00100000
,
10000000
00010000
10010000
00000000
,
10100000
00000000
01010000
00000000
,
00100000
00010000
02000000
00000000
,
00000000
03001000
01000000
00001000
,
01000000
00100000
02000000
00000000
,
00000000
00000000
00000000
03010000
,
00100000
00001000
00020000
00000000
,
00000000
00000000
00030000
00000100
,
00010000
00000100
00001100
00000000
,
00001010
00000000
00001100
00000000
,
00000000
00000000
00000100
00000000
,
00000010
00000000
00000010
00000001
,
00000010
00000100
00001000
00000000
,
00010000
00000000
00000100
00001000
,
00010000
00001000
00010000
00000000
,
00000010
00000000
00000010
00000001
,
00001000
00000000
00000000
00000000
00000001
00000000
00000000
00000000
00000100
00000000
00000000
00000000
00000000
00000000
00000000
00000010
,
00000000
00000000
00000000
00000000
00000000
00000000
00000000
00000000
00000000
00000000
00000000
00000000
00000000
00000000
00000000
00000101
00000000
00000000
00000000
00000000
00000000
00000000
00000000
00000000
00000000
00000000
00000000
00000000
00000000
00000000
00000000
00000000
00000000
00000000
00000000
00000000
00000000
00000000
00001000
00000000
00000000
00000000
00000000
00000000
00000000
00000000
00000000
00000000
,
00000000
00000000
00000001
00000000
00000000
00000000
00000000
00000000
00000000
00000202
00000000
00000000
00000000
00000000
00000000
00000000
00000000
00000000
00000000
00000000
00000000
00000000
00000000
00000000
,
00000000
00000000
00000000
00000000
,
00000000
00000000
00000000
00000000
,
00000000
00000000
00000000
00000000
,
00000000
00000000
00000000
00000000
,
00000000
00000000
00000000
00000000
,
00000303
00000000
00000000
00000000
;

//--------------- dance-double - B. M'Rey ----------------
#NOTES:
     dance-double:
     B. M'Rey:
     Medium:
     7:
     0,0,0,0,0:
00000000
00000000
00000000
00000000
,
00000000
00000000
00000000
00000000
,
00000000
00000000
00000000
00000000
,
00000000
00000000
00000000
00000000
,
00000000
00000000
00011000
00000000
,
00011000
00000000
00022000
00000000
,
00000000
00000000
00000000
00033000
00001100
00000000
00000000
00000000
,
00001100
00000000
00002200
00000000
,
00000000
00000000
00000000
00000300
00000100
00000000
00000100
00000000
,
00000010
00000010
00000001
00000001
,
00000010
00000010
00000001
00000100
,
00000001
00003100
00000100
00010000
,
00001000
00000000
01000000
00000000
00100000
10000000
01000000
00000000
,
00010000
00100000
01000000
00000000
00100000
00000000
00010000
00000000
,
01000000
00000000
00010000
00000000
10000000
00010000
10000000
00000000
,
01000000
00010000
01000000
00000000
00001000
00000000
00100000
00000000
,
00001000
00000000
00010000
00000000
00000010
00010000
00000010
00000000
,
00001000
00100000
00001000
00000000
01000000
00000000
00010000
00000000
,
00100000
00000000
00001000
00000000
00010000
00001000
00010000
00000000
,
00001000
00010000
00001000
00000000
00011000
00000000
00000010
00000000
,
00000110
00000000
00000001
00000000
00000010
00000001
00000010
00000000
,
00001000
00000100
00001000
00000000
00010100
00000000
00010000
00000000
,
00011000
00000000
00001000
00000000
01000000
00001000
00000000
00000000
,
01000000
00001000
00000000
00000000
00110000
00000000
01000000
00000000
,
10100000
00000000
01000000
00000000
00100000
10000000
00100000
00000000
,
01000000
00010000
01000000
00000000
01001000
00000000
01000000
00000000
,
01010000
00010000
10000000
01000000
,
00100000
10000000
00010000
00000000
,
01000000
00000000
00110000
00110000
,
00011000
00000000
00011000
00000000
00000100
00001000
00000100
00000000
,
00000010
00000100
00000010
00000000
00000110
00000000
00000110
00000000
,
00001100
00000000
00001100
00000000
00010000
00000100
00010000
00000000
,
00001000
00010000
00001000
00000000
00101000
00000000
00101000
00000000
,
00011000
00011000
00000010
00000100
,
00000010
00010000
00000010
00000000
00011000
00000000
00011000
00000000
,
01010000
01010000
00001000
00100000
,
00010000
00100000
20000000
00000000
,
00000000
00000000
30100000
00010000
,
10000000
00010000
10000000
00010000
,
01000000
00100000
01000000
00001000
,
00010000
00000100
00001000
00000001
,
00000010
00000001
00001000
00000001
,
00000010
00000100
00000010
00000100
,
00001000
00000100
00001000
00000001
,
00001000
00000001
00000010
00000100
,
00010000
00000100
00020000
00000000
,
00000000
00031000
01000000
00001000
,
01000000
00100000
20000000
00000000
,
00000000
32000000
00000000
03100000
,
01000000
00010000
00220000
00000000
,
00000000
00000000
00330000
00001000
,
00100000
00010000
01010000
00000000
,
01001000
00000000
00011000
00000000
,
00010000
00000010
00010000
00000100
,
00001000
00000001
00000100
00000001
,
00000010
00000001
00001000
00000100
,
00001000
00000100
00010000
00000010
,
00010000
00001000
01001000
00001000
,
00100000
01000000
00100000
01000000
,
00100000
00010000
10010000
00010000
,
10010000
00010000
01000000
00001000
,
01000000
00001000
01000000
00001000
,
00010000
00000000
00000010
00000000
00001000
00000100
00000001
00000000
,
00000100
00000010
00001000
00000000
00000010
00000000
00010000
00000000
,
00001000
00000000
00010000
00000000
00000010
00010000
00000010
00000000
,
00000100
00010000
00000100
00000000
00001000
00000000
00000010
00000000
,
00001000
00000000
00000001
00000000
00000010
00000001
00000010
00000000
,
00001000
00000000
00000010
00000000
00001000
00000000
00000000
00000000
00000001
00000000
00000000
00000000
00000000
00000000
00000000
00000100
,
00000000
00000000
00000000
00000000
00000000
00000000
00000000
00000000
00000000
00000000
00000000
00000000
00000000
00000000
00000000
00000011
00000000
00000000
00000000
00000000
00000000
00000000
00000000
00000000
00000000
00000000
00000000
00000000
00000000
00000000
00000000
00000000
00000000
00000000
00000000
00000000
00000000
00000000
00000100
00000000
00000000
00000000
00000000
00000000
00000000
00000000
00000000
00000000
,
00000000
00000000
00000010
00000000
00000000
00000000
00000000
00000000
00000000
00000022
00000000
00000000
00000000
00000000
00000000
00000000
00000000
00000000
00000000
00000000
00000000
00000000
00000000
00000000
,
00000000
00000000
00000000
00000000
,
00000000
00000000
00000000
00000000
,
00000000
00000000
00000000
00000000
,
00000000
00000000
00000000
00000000
,
00000000
00000000
00000000
00000000
,
00000033
00000000
00000000
00000000
;

//--------------- dance-double - B. M'Rey ----------------
#NOTES:
     dance-double:
     B. M'Rey:
     Hard:
     8:
     0,0,0,0,0:
00000000
00000000
00000000
00000000
,
00000000
00000000
00000000
00000000
,
00000000
00000000
00000000
00000000
,
00000000
00000000
00000000
00000000
,
00000000
00000000
00011000
00000000
,
01010000
00000000
01100000
00000000
,
00000000
00000000
11000000
00000000
,
01100000
00000000
01010000
00000000
,
01000000
00000000
00001000
01000000
,
00001000
00010000
00000100
00010000
,
00001000
00100000
00001000
00010000
,
00000010
00000000
00000000
00000000
00000100
00000000
00000000
00000000
00001000
00000000
00000010
00001000
00000010
00000000
00001000
00000000
,
00000010
00000000
00001000
00000001
00001000
00000000
00000100
00000000
00010000
00000000
00000000
00000000
00000010
00000000
00000000
00000000
,
00000100
00000000
00000000
00000000
00000001
00000000
00000000
00000000
00000001
00000000
00000010
00000001
00000010
00000000
00000010
00000000
,
00001000
00000000
00000010
00001000
00000010
00000000
00000001
00000000
00000100
00000000
00000000
00000000
00000010
00000000
00000000
00000000
,
00000001
00000000
00000000
00000000
00001000
00000000
00000000
00000000
00001000
00000000
00000010
00010000
00000010
00000000
00000100
00000000
,
00000001
00000000
00000100
00000001
00000100
00000000
00000010
00000000
00010000
00000000
00000000
00000000
00001000
00000000
00000000
00000000
,
00100000
00000000
00000000
00000000
00010000
00000000
00000000
00000000
00100000
00000000
00010000
10000000
00010000
00000000
10000000
00000000
,
00010000
00000000
00100000
01000000
00100000
00000000
00010000
00000000
01000000
00001000
00000000
00010000
00001000
00000000
00010000
01000000
,
00000000
01000000
00010000
00000000
00100000
00000000
00000000
00000000
00110000
00000000
00001000
00100000
00000000
00000000
00001000
00000000
,
01000000
00000000
00001000
01000000
00000000
00000000
00010000
00000000
01000000
00000000
00010000
00000000
10000000
00000000
00010000
00000000
,
10000000
00000000
01000000
00000000
10000000
00000000
01000000
00000000
00100000
00000000
01000000
00100000
00000000
00000000
00010000
00000000
,
10000000
00000000
00010000
10000000
00000000
00000000
00010000
00000000
00100000
00000000
01000000
00000000
00100000
00000000
00000000
00000000
,
10000000
00000000
00010000
00000000
01000000
00000000
00000000
00000000
01000000
00000000
00010000
01000000
00000000
00000000
00001000
00000000
,
00010000
00000000
00000100
00010000
00000000
00000000
00000100
00000000
00010000
00000000
00000010
00000000
00001000
00000000
00000100
00000000
,
00010000
00000000
00000100
00000000
00001000
00000000
00000100
00000000
00001000
00000000
00000010
00000100
00000000
00000000
00000010
00000000
,
00000100
00000000
00000010
00001000
00000000
00000000
00000001
00000000
00001000
00000000
00000001
00000000
00001000
00000000
00000100
00000000
,
00010000
00000100
00010000
00000100
00001000
00000000
00010000
00000000
,
00000100
00000000
00000000
00000000
00010000
00000000
00000000
00000000
00001000
00000000
01000000
00010000
00000000
00000000
00100000
00000000
,
00010000
00000000
00100000
00010000
00000000
00000000
00001000
00000000
01000000
00000000
00001000
00000000
00010000
00000000
00000000
00000000
,
00100000
00000000
00010000
00000000
00100000
00000000
00000000
00000000
00100000
00000000
00001000
01000000
00000000
00000000
00001000
00000000
,
00010000
00000000
00000100
00001000
00000000
00000000
00000100
00000000
00001000
00000000
00000100
00000000
00000010
00000000
00000000
00000000
,
00000100
00000000
00000001
00000000
00001000
00000000
00000000
00000000
00001000
00000000
00000010
00010000
00000000
00000000
00001000
00000000
,
00010000
00000000
00001000
00010000
00000000
00000000
00000010
00000000
00001000
00000000
00000001
00000000
00001000
00000000
00000000
00000000
,
00000100
00000000
00010000
00000000
00000100
00000000
00000000
00000000
00000100
00000000
00000001
00001000
00000000
00000000
00000001
00000000
,
00001000
00000000
00000010
00001000
00000000
00000000
00000010
00000000
00010000
00000000
00000010
00000000
00010000
00000000
00001000
00000000
,
00100000
01000000
10000000
01000000
00110000
00000000
00010000
00000000
,
10000000
00000000
11000000
00000000
01000000
10000000
01000000
00000000
,
00100000
01000000
00100000
00000000
00100000
00001000
01000000
00000000
,
01000000
00001000
00010000
00000000
00010000
00000100
00010000
00001000
,
00100000
00001000
00100000
00001000
00010000
00000100
00001000
00000010
,
00001000
00000000
00000001
00000000
00000010
00000100
00000010
00000000
,
00001000
00000001
00001000
00000000
00000010
00000100
00000010
00000000
,
00000010
00000001
00001000
00000000
00001000
00000100
00001000
00000100
,
00010000
00000100
00010000
00001000
00010000
00001000
01000000
00001000
,
01000000
00010000
01000000
00010000
00200000
00000000
00010000
00000000
,
10000000
00000000
00310000
00100000
20000000
00000000
00010000
00000000
,
00010000
00000000
00100000
00000000
30100000
00010000
00100000
00000000
,
10000000
00100000
00010000
00000000
00010000
01000000
00001000
00000000
,
00010000
00000000
00001000
00000000
00010000
00001000
00010000
00000000
,
00010000
00000100
00001000
00000000
00001000
00000001
00000010
00000000
,
00001000
00000000
00000010
00000000
00001100
00000000
00001000
00000010
,
00001010
00000000
00000100
00000010
00000101
00000000
00000110
00000000
,
00001000
00000010
00001000
00000010
00020000
00000000
00000100
00000000
,
00001000
00000000
01030000
00010000
02000000
00000000
00010000
00000000
,
00010000
00000000
00100000
00000000
03100000
01000000
10000000
00000000
,
10000000
00010000
01000000
00000000
00001000
00000000
01000000
00010000
,
00100000
00010000
00100000
00010000
10000000
00000000
00010000
00000000
,
10000000
00100000
01000000
00000000
01000000
00000000
00001000
00010000
,
00001000
00010000
00001000
00000010
00001100
00000000
00001000
00000000
,
00000101
00000000
00001000
00000001
00010100
00000000
00001100
00000000
,
00001010
00000000
00000000
00000000
00000101
00000000
00000000
00000000
00000100
00000000
00010000
00000100
00010000
00000000
00001000
00000000
,
00100000
00000000
01000000
00100000
01000000
00000000
01000000
00000000
00100000
00000000
00010000
00000000
10000000
00000000
00010000
00000000
,
10000000
00000000
00010000
00000000
01000000
00000000
00000000
00000000
00101000
00000000
00001000
00100000
00001000
00000000
00001000
00000000
,
00010000
00000000
00000100
00000010
00000100
00000000
00000100
00000000
00001000
00000000
00000001
00000000
00001000
00000000
00000001
00000000
,
00001000
00000000
00000100
00000000
00010000
00000000
00000000
00000000
00010100
00000000
00000100
00001000
00000100
00000000
00010000
00000000
,
00000010
00000000
00010000
00000010
00010000
00000000
00001000
00000000
00010000
00000000
00001000
00000000
01000000
00000000
00001000
00000000
,
01000000
00000000
00010000
00000000
01000000
00000000
00010000
00000000
10000000
00000000
00000000
00010000
00000000
00000000
10000000
00000000
,
00000000
00000000
01000000
00000000
00000000
00100000
00000000
00000000
00000000
00000000
01000000
00000000
00000000
00100000
00000000
00000000
,
00000000
00001000
00000000
00000000
00000000
00000000
00000000
00000000
00000000
00022000
00000000
00000000
00000000
00000000
00000000
00000000
00000000
00000000
00000000
00000000
00000000
00000000
00000000
00000000
,
00000000
00000000
00000000
00000000
,
00000000
00000000
00000000
00000000
,
00000000
00000000
00000000
00000000
,
00000000
00000000
00000000
00000000
,
00000000
00000000
00000000
00000000
,
00033000
00000000
00000000
00000000
;
