#VERSION:0.83;
#TITLE:.59 (Excel Mix);
#ARTIST:dj TAKA;
#GENRE:2STEP;
#MUSIC:.59 (Excel Mix).ogg;
#BANNER:.59 (Excel Mix)-bn.png;
#BACKGROUND:.59 (Excel Mix)-BG.png;
#CDTITLE:./CDTITLES/DANCE DANCE REVOLUTION EXTREME 3.PNG;
#SAMPLESTART:13.446;
#SAMPLELENGTH:15;
#OFFSET:-0.023;
#BPMS:0=143.035;

//--------------- dance-single - B. M'Rey ----------------
#NOTEDATA:;
#STEPSTYPE:dance-single;
#DESCRIPTION:B. M'Rey;
#CREDIT:B. M'Rey;
#DIFFICULTY:Beginner;
#METER:4;
#RADARVALUES:0,0,0,0,0;
#NOTES:
0000
0000
0000
0000
,
0000
0000
0000
0000
,
0000
0000
0000
0000
,
1001
0000
0000
0000
,
0000
0000
0000
0000
,
0000
0000
0000
0000
,
1001
0000
0000
0000
,
0000
0000
0000
0000
,
0100
0000
0010
0000
,
0001
0000
1000
0000
,
0010
0000
0100
0000
,
0001
0000
1000
0000
,
0010
0000
0100
0000
,
1000
0000
0001
0000
,
0010
0000
0001
0000
,
0100
0000
0010
0000
,
1000
1000
1000
0000
,
0010
0010
0010
0000
,
0100
0000
0001
0000
,
0010
0000
1000
0000
,
0001
0001
0001
0000
,
0010
0010
0010
0000
,
0100
0000
1000
0000
,
0010
0000
0001
0000
,
1001
0000
0000
0000
,
0200
0000
0000
0000
,
0000
0000
0000
0000
,
0320
0000
0000
0000
,
0000
0000
0000
0000
,
2032
0000
0000
0000
,
0000
0000
0000
0000
,
3013
0000
0000
0000
,
0200
0000
0000
0000
,
0302
0000
0000
0000
,
0000
0000
0000
0000
,
2003
0000
0000
0000
,
0000
0000
0000
0000
,
3200
0000
0000
0000
,
0000
0000
0000
0000
,
1300
0000
0000
0000
,
0010
0000
0000
0000
,
0100
0000
0001
0000
,
1000
0000
0010
0000
,
0100
0001
1000
0001
,
1000
0001
1000
0001
,
0000
1001
0000
0000
,
0010
0000
0000
0100
,
0001
0000
0000
0000
,
1000
0001
1000
0000
,
0001
0000
0100
0000
,
0010
0000
1000
0000
,
0001
1000
0001
1000
,
0001
1000
0001
1000
,
0002
0000
0000
0000
,
0000
0000
0000
0000
,
0000
0000
0000
0000
,
2000
0000
0000
0000
,
0000
0000
0000
0000
0000
3003
0000
0000
;

//--------------- dance-single - B. M'Rey ----------------
#NOTEDATA:;
#STEPSTYPE:dance-single;
#DESCRIPTION:B. M'Rey;
#CREDIT:B. M'Rey;
#DIFFICULTY:Easy;
#METER:6;
#RADARVALUES:0,0,0,0,0;
#NOTES:
0000
0000
0000
0000
,
0000
0000
0000
0000
,
0000
0000
0000
0000
,
0100
0000
0000
0000
,
0020
0000
0000
0000
,
0000
0000
0000
0000
,
1030
0000
0000
0000
,
0001
0010
0100
1000
,
0010
0100
0010
0100
,
0010
1000
0100
0010
,
0100
1000
0001
0010
,
0100
1000
0001
0100
,
1001
1000
0010
1000
,
0001
0010
0100
1000
,
0001
1000
0010
1000
,
0010
0100
0001
0100
,
0010
1000
0010
0100
,
0010
1000
0100
0010
,
0001
0010
0100
0010
,
0100
1000
0100
0010
,
0011
0010
0001
0010
,
0100
1000
0010
1000
,
0001
1000
0001
0100
,
0010
0100
0010
0100
,
1001
0000
0000
0000
,
0200
0000
0000
0000
,
0000
0000
0000
0000
,
0320
0000
0000
0000
,
0032
0000
0000
0000
,
2003
0000
0000
0000
,
3200
0000
0000
0000
,
0320
0000
0000
0000
,
0032
0000
0000
0000
,
2003
0000
0010
0000
,
0010
0000
0010
0000
,
3002
0000
0100
0000
,
0100
0000
0100
0000
,
0203
0000
0001
0000
,
0001
0000
0001
0000
,
0320
0000
1000
0000
,
1000
0000
0000
0000
,
0130
0010
0001
0010
,
0100
0010
0001
1000
,
0010
0100
0010
1000
,
0010
1000
0100
0010
,
0000
1001
0001
0100
,
0001
0100
0010
1000
,
0100
1000
0100
1000
,
2002
0000
0000
0000
0000
0000
0000
3003
,
0100
1000
0001
0010
,
0100
0010
0100
1000
,
0010
0100
0010
0100
,
0001
1000
0010
0100
,
0002
0000
0000
0000
,
0000
0000
0000
0000
,
0000
0000
0000
0000
,
2000
0000
0000
0000
,
0000
0000
0000
0000
0000
3003
0000
0000
;

//--------------- dance-single - B. M'Rey ----------------
#NOTEDATA:;
#STEPSTYPE:dance-single;
#DESCRIPTION:B. M'Rey;
#CREDIT:B. M'Rey;
#DIFFICULTY:Medium;
#METER:7;
#RADARVALUES:0,0,0,0,0;
#NOTES:
0000
0000
0000
0000
,
0000
0000
0000
0000
,
0000
0000
0000
0000
,
0020
0000
0000
0000
,
0230
0000
0000
0000
,
0000
0000
0000
0000
,
0310
0010
0001
1000
,
0100
1000
0001
1000
,
0100
0000
1000
0000
0010
0000
0100
0010
,
0001
0000
0100
0000
0010
0000
0100
1000
,
0001
0000
1000
0000
0001
0000
0100
0001
,
0010
0000
1000
0000
0100
0000
0010
0001
,
0100
0000
0010
0000
0100
0000
1000
0100
,
0010
0000
0100
0000
0001
0000
1000
0001
,
0100
0000
1000
0000
0010
0000
0100
1000
,
0001
0000
0010
0000
0100
0000
1000
0100
,
0001
0000
0001
0010
0100
0000
0100
1000
,
0010
0000
0001
0010
0100
0000
0100
1000
,
0001
0000
0001
1000
0010
0000
0010
0100
,
0010
0000
0100
1000
0001
0000
0100
0010
,
0001
0000
1000
0000
0001
0000
0100
0010
,
0001
0000
0100
0000
0010
0000
1000
0100
,
0001
0000
1000
0000
0010
0000
0100
0001
,
0010
0000
0100
0000
0010
0000
1000
0001
,
0200
0000
0000
0000
,
2300
0000
0000
0000
,
3200
0000
0000
0000
,
0302
0000
0000
0000
,
0013
0100
1000
0100
,
0020
0000
0000
0000
,
0031
0020
0000
0000
,
0230
0000
0000
0000
,
2300
0000
0000
0000
,
3002
0000
1000
0000
,
2003
0000
0100
0000
,
3020
0000
0100
0000
,
0230
0000
0001
0000
,
0302
0000
1000
0000
,
0023
0000
0100
0000
,
0230
0000
0001
0000
,
0302
0000
1000
0000
,
0013
0100
0001
0011
,
0011
1000
0100
1001
,
0001
0010
1000
0000
0001
0010
0100
0000
,
0001
1000
0100
0000
0010
0001
1000
0000
,
0000
0101
0100
0101
,
0101
0001
0010
0110
,
0010
1000
0001
0000
0010
0001
0100
0000
,
1000
0100
0010
0001
,
0110
0001
0010
1100
,
1100
0100
0010
0001
,
0010
0001
0100
0000
1000
0100
0010
0000
,
1000
0010
0001
0000
0100
1000
0010
0000
,
2002
0000
0000
0000
,
0000
0000
0000
0000
,
0000
0000
0000
0000
,
0000
0000
0000
0000
,
0000
0000
0000
0000
0000
3003
0000
0000
;

//--------------- dance-single - B. M'Rey ----------------
#NOTEDATA:;
#STEPSTYPE:dance-single;
#DESCRIPTION:B. M'Rey;
#CREDIT:B. M'Rey;
#DIFFICULTY:Hard;
#METER:10;
#RADARVALUES:0,0,0,0,0;
#NOTES:
0000
0000
0000
0000
,
0000
0000
0000
0000
,
0000
0000
0000
0000
,
1001
0000
0000
0000
,
0200
0000
0000
0000
,
0000
0000
0000
0000
0000
0000
0000
0000
0000
0000
0000
0000
0000
0000
0000
0301
,
0100
0010
0001
0100
0001
0100
0010
0100
,
0001
0010
0100
0010
,
0100
0000
0001
0010
0001
0000
0010
0100
,
0001
0000
0100
1000
0001
0000
0100
1000
,
0010
0000
0001
0010
0001
0000
0001
0100
,
0010
0000
0100
1000
0001
0000
0001
0100
,
0011
0000
0100
1000
0001
0000
0100
1000
,
0010
0000
0001
1000
0100
0000
0001
0100
,
0010
0000
0100
0010
0100
0000
0001
0010
,
0100
0000
0010
0100
0001
0000
0010
1000
,
0001
1000
0001
0100
0001
0100
0010
0100
,
0010
1000
0010
1000
0001
1000
0001
0010
,
0001
1000
0010
0100
0010
0100
0010
1000
,
0001
1000
0100
1000
0100
0010
0100
0010
,
0001
0010
0100
0000
0010
1000
0100
0000
,
0010
0100
0001
0000
0100
1000
0010
0000
,
0001
0010
0001
0000
0001
0010
0100
0000
,
0100
0010
0100
0000
0010
0100
0001
0000
,
1001
0000
0000
0000
,
0200
0000
0000
1300
,
0002
0000
0000
1003
,
0200
0000
0000
0000
,
0302
0203
0320
2030
,
3020
0000
0000
0130
,
0002
0000
0000
1003
,
0200
0000
0000
0000
,
0302
0023
0230
0320
,
0031
1000
0001
0100
,
0001
0100
0010
1000
,
0001
0010
0100
1000
,
0100
1000
0010
1000
,
0110
0100
0010
1000
,
0001
1000
0100
1000
,
0100
0010
0001
0010
,
0200
0000
0000
0000
,
0301
0000
0100
0010
0100
1000
1001
0000
,
0110
0000
0010
0100
0001
0010
1001
0000
,
0001
1000
0100
0000
0001
0010
0001
0000
,
0100
1000
0100
0000
0001
0010
0001
1000
,
0000
0000
0101
0000
0010
0100
0001
0000
,
0001
0010
0100
0000
0100
0010
0001
0000
,
0010
0100
0010
1000
0010
1000
0100
0010
,
0001
0100
0001
0010
,
0010
0100
0010
0000
0010
1000
0001
0000
,
0010
0100
0010
0000
0100
0010
0001
0000
,
0100
0010
0100
0010
0001
0100
0001
0100
,
0001
1000
0010
1000
0010
0100
0010
1000
,
0200
0000
0000
0000
,
0320
0000
0000
0032
,
0203
0000
0000
0000
,
2000
0000
0000
0000
,
0000
0000
0000
0000
0000
3300
0000
0000
;

//--------------- dance-double - B. M'Rey ----------------
#NOTEDATA:;
#STEPSTYPE:dance-double;
#DESCRIPTION:B. M'Rey;
#CREDIT:B. M'Rey;
#DIFFICULTY:Easy;
#METER:5;
#RADARVALUES:0,0,0,0,0;
#NOTES:
00000000
00000000
00000000
00000000
,
00000000
00000000
00000000
00000000
,
00000000
00000000
00000000
00000000
,
00000000
00000000
00000000
00000000
,
00000000
00000000
00000000
00000000
,
00000000
00000000
00000000
00000000
,
01000000
00001000
00010000
00100000
,
00010000
00000000
00001000
00000000
,
01000000
01000000
00001000
00001000
,
00000010
00000010
00000100
00000100
,
00000010
00000010
00010000
00010000
,
00000010
00000010
00001000
00000100
,
00001000
00000100
00000100
00010000
,
00010000
00001000
00001000
00100000
,
00100000
00010000
00010000
10000000
,
10000000
00010000
00010000
00001000
,
00001000
01000000
00001000
00100000
,
00001000
01000000
00001000
01000000
,
00100000
10000000
00010000
10000000
,
00010000
01000000
00001000
00010000
,
00001100
00000001
00000001
00000100
,
00000100
00000001
00000001
00000010
,
00000010
00000100
00000100
00010000
,
00010000
00000100
00000100
00010000
,
00001010
00000000
00000000
00001010
,
00001010
00000000
00000000
00000000
,
00000000
00000000
00000000
00000000
,
00000100
00000000
00000000
00000000
,
00000100
00001000
00000100
00000001
,
00001000
00000000
00000000
00000000
,
00000010
00000000
00000000
00000000
,
00000001
00000000
00000000
00000000
,
00000010
00001000
00000100
00010000
,
00001000
00000000
01000000
00000000
,
00001000
00000000
00100000
00000000
,
01000000
00000000
00010000
00000000
,
10000000
00000000
00100000
00000000
,
01000000
00000000
00100000
00000000
,
00010000
00000000
01000000
00000000
,
00100000
00000000
00010000
00000000
,
01000000
00000000
00000000
00000000
,
01001000
00000000
00000000
00000000
,
01001000
00000000
00000000
00000000
,
00110000
00000000
00011000
00000000
,
00100000
00010000
00100000
00010000
,
00000000
00110000
00000000
01000000
,
00000000
00001000
00000000
01000000
,
00010000
10000000
01000000
00100000
,
10000000
00010000
10000000
00000000
,
00100000
00000000
00010000
00000000
,
00100000
00000000
10000000
00000000
,
00100000
00010000
00100000
00001000
,
00010000
00000000
00100000
00000000
,
02020000
00000000
00000000
00000000
,
00000000
00000000
00000000
00000000
,
00000000
00000000
00000000
00000000
,
00000000
00000000
00000000
00000000
,
00000000
00000000
03030000
00000000
;

//--------------- dance-double - B. M'Rey ----------------
#NOTEDATA:;
#STEPSTYPE:dance-double;
#DESCRIPTION:B. M'Rey;
#CREDIT:B. M'Rey;
#DIFFICULTY:Medium;
#METER:8;
#RADARVALUES:0,0,0,0,0;
#NOTES:
00000000
00000000
00000000
00000000
,
00000000
00000000
00000000
00000000
,
00000000
00000000
00000000
00000000
,
00110000
00000000
00000000
00000000
,
00002000
00000000
00000000
00000000
,
00000000
00000000
00000000
00000000
,
01003000
01000000
00010000
00100000
00001000
00000000
01000000
00100000
,
00010000
00000000
00000000
00000000
,
00100000
00000000
10000000
00000000
00010000
00000000
01000000
00001000
,
01000000
00000000
00010000
00000000
00100000
00000000
00001000
00010000
,
00001000
00000000
00000010
00000000
00001000
00000000
00000100
00010000
,
00000100
00000000
00000010
00000000
00000100
00000000
00000001
00000010
,
00001000
00000000
00000010
00000000
00000001
00000000
00001000
00000100
,
00010000
00000000
00000010
00000000
00010000
00000000
00010000
00000010
,
00001000
00000000
00000100
00000000
00010000
00000000
00001000
01000000
,
00010000
10000000
00010000
01000000
,
00011000
00011000
00110000
00110000
,
00001000
01000000
00001000
00000000
00010000
00100000
00010000
00000000
,
01010000
01010000
11000000
11000000
,
01000000
00010000
01000000
00000000
00100000
00000000
10000000
00000000
,
00100000
00000000
01000000
00000000
00010000
10000000
00100000
00000000
,
00010000
00000000
01000000
00000000
00001000
00010000
00000100
00000000
,
00001000
00000000
00000001
00000000
00001000
00000001
00000010
00000000
,
00000100
00000000
00000001
00000000
00001000
00000000
00000100
00000010
,
00000001
00000000
00000000
00001000
,
00000200
00000000
00000000
00000000
,
00000000
00000000
00000000
00000000
,
00002300
00000000
00000000
00000000
,
00003020
00000000
00000230
00000302
,
00000023
00000000
00000000
00000000
,
00000230
00000000
00000000
00002300
,
00003020
00000000
00000000
00000000
,
00000230
00002300
00003200
00000320
,
00000032
00000013
00001000
00000000
,
00000100
00000000
00001000
00000000
,
00000100
00000000
00010000
00000000
,
00001000
00000000
01000000
00010000
,
00100000
00000000
00001000
00000000
,
00010000
00000000
00001000
00000000
,
01000000
00000000
00100000
00000000
,
20000000
00000000
00000000
30000000
,
00110000
10000000
00100000
10000000
,
00110000
00001000
00010000
00000010
,
00011000
00000000
00000100
00001000
00000100
00000000
00000010
00001000
,
00000010
00000000
00000001
00000000
00000010
00000000
00000100
00001000
,
00000000
00011000
00000010
00001000
,
00000100
00010000
00001000
00000000
01000000
00000000
00001000
00000000
,
01000000
00001000
00010000
00000000
00000010
00000100
00000001
00000000
,
00001001
00010100
00101000
10010000
,
10000000
00000000
01000000
00000000
00100000
00000000
00010000
01000000
,
00001000
00000000
00010000
00000000
00000100
00000000
00001000
00100000
,
00001000
00000000
00010000
01000000
00010000
00000000
10000000
00100000
,
01010000
00011000
00001100
00010010
,
00002002
00000000
00000000
00000000
,
00000000
00000000
00000000
00000000
,
00000000
00000000
00000000
00000000
,
00000000
00000000
00000000
00000000
,
00000000
00000000
00003003
00000000
;

//--------------- dance-double - B. M'Rey ----------------
#NOTEDATA:;
#STEPSTYPE:dance-double;
#DESCRIPTION:B. M'Rey;
#CREDIT:B. M'Rey;
#DIFFICULTY:Hard;
#METER:10;
#RADARVALUES:0,0,0,0,0;
#NOTES:
00000000
00000000
00000000
00000000
,
00000000
00000000
00000000
00000000
,
00000000
00000000
00000000
00000000
,
00001100
00000000
00000000
00000000
,
00020000
00000000
00000000
00000000
,
00000000
00000000
00000000
00030000
,
00000100
00010000
00001000
01000000
00001000
01000000
00001000
00010000
,
00000100
00000010
00010000
00000010
,
00000010
00001000
00000100
00000000
00010000
00000100
00001000
00000000
,
00010000
00100000
00000000
00010000
00000000
00001000
00000000
00100000
,
00010000
00100000
00010000
00000000
00001000
00010000
00001000
00000000
,
00010000
00000000
01000000
00000000
00010000
00000000
01000000
00000000
00010000
00000000
00000000
00001000
00000000
00000000
00100000
00000000
,
00011000
00000000
10000000
01000000
00010000
00000000
00100000
10000000
,
00100000
00010000
00000000
01000000
00000000
10000000
00000000
10000000
,
01000000
00100000
00000000
10000000
00010000
10000000
00000000
00100000
,
00010000
00000000
01000000
00000000
00000000
00000000
01000000
00000000
00100000
00000000
00000000
00001000
00000000
01000000
00000000
00000000
,
00010000
00000010
00010000
00000010
00010000
00000100
00010000
00000010
,
00001000
00000010
00001000
00000010
00000100
00000001
00001000
00000001
,
00001000
00000100
00001000
00000100
00001000
00000001
00001000
00000001
,
00000100
00000010
00001000
00000010
00001000
00000100
00001000
00000100
,
00001000
00000000
00000100
00010000
00000100
00000000
00010000
00001000
,
00000010
00000000
00001000
00010000
00000100
00000000
00001000
00010000
,
00001000
00000000
01000000
00100000
01000000
00000000
00010000
00100000
,
01000000
00000000
00000000
00000000
01000000
00000000
00100000
00000000
00010000
00000000
00000000
00010000
00000000
00000000
01000000
00000000
,
10100000
00000000
00000000
01000000
,
00020000
00000000
00000000
01030000
,
20000000
00000000
00000000
30100000
,
02000000
00000000
00000000
00000000
,
03020000
02030000
03002000
00023000
,
00030020
00000000
00000000
00000130
,
00000020
00000000
00000000
00001030
,
00000002
00000000
00000000
00000000
,
00000023
00002030
00003002
00002003
,
00003100
00000010
00000100
00001000
,
00000100
00001000
00000001
00000010
,
00000100
00010000
00001000
00000100
,
00001000
00000100
00000010
00000100
,
00011000
00000010
00000100
00010000
,
00000010
00010000
00001000
00010000
,
00001000
01000000
00100000
01000000
,
00020000
00000000
00000000
00000000
,
00130000
00000000
01000000
00010000
01000000
00000000
00001000
00100000
,
00010000
00000000
00100000
10000000
00010000
00000000
10000000
00010000
,
01000000
00000000
10000000
00100000
10000000
00000000
00010000
00100000
,
00011000
00000000
00101000
00000000
00110000
00000000
00011000
00011000
,
00000000
00000000
00001010
00000000
00000001
00000010
00000100
00000000
,
00000010
00001000
00000001
00000000
00000100
00001000
00000100
00000000
,
00001000
00000010
00000100
00000000
00000001
00000100
00000001
00000000
,
00011000
00010100
00000101
00011000
,
00000101
00000000
00001000
00000010
00001000
00000000
00001000
00000001
,
00001000
00000000
00000010
00000001
00000010
00000000
00000100
00001000
,
00001010
00000000
00001000
00000010
00001000
00000000
00001000
00000010
,
00010010
00101000
00011000
01010000
,
20000000
00000000
00000000
00000000
,
30200000
00000000
00000000
02300000
,
23000000
00000000
00000000
00000000
,
00020000
00000000
00000000
00000000
,
00000000
00000000
00000000
00000000
00000000
30030000
00000000
00000000
;
