#TITLE:Silence (Airscape Remix);
#ARTIST:Delerium with Sarah McLachlan;
#BANNER:Silence (Airscape Remix).png;
#BACKGROUND:Silence (Airscape Remix)-bg.png;
#CDTITLE:./CDTITLES/Dance Dance Revolution EXTREME 2.png;
#MUSIC:Silence (Airscape Remix).ogg;
#SAMPLESTART:37.941;
#SAMPLELENGTH:15;
#BPMS:0=136;
#BGCHANGES:3.75=Silence (Airscape Remix).avi=1=1=0=0,206.75=Silence (Airscape Remix)-bg.png=1=0=0=1;

//---------------dance-single - ----------------
#NOTES:
     dance-single:
     :
     Beginner:
     1:
     :
0000
0000
0000
0000
,
0000
0000
0000
0000
,
0000
0000
0000
0000
,
0000
0000
0000
0000
,
0000
0000
0000
0000
,
1000
0000
0001
0000
,
1000
0000
0000
0000
,
0001
0000
1000
0000
,
0001
0000
0000
0000
,
1000
0000
1000
0000
,
1000
0000
1000
0000
,
0001
0000
0000
0000
,
0000
0000
0000
0000
,
0100
0000
0010
0000
,
0100
0000
0000
0000
,
0010
0000
0100
0000
,
0010
0000
0000
0000
,
0100
0000
0100
0000
,
0100
0000
0100
0000
,
0100
0000
0010
0000
,
0000
0000
0000
0000
,
1000
0000
2000
0000
,
0000
3000
0000
0000
,
0001
0000
0002
0000
,
0000
0003
0000
0000
,
0010
0000
0020
0000
,
0000
0030
0000
0000
,
0100
0000
0200
0000
,
0000
0300
0000
0000
,
1000
0000
0001
0000
,
1000
0000
0010
0010
,
0010
0000
0100
0000
,
0010
0000
1000
1000
,
1000
0000
0100
0000
,
1000
0000
0001
0001
,
0001
0000
0010
0000
,
0001
0000
0100
0100
,
0100
0000
0001
0000
,
1000
0000
0010
0010
,
0010
0000
1000
0000
,
0100
0000
1000
1000
,
1000
0000
0001
0000
,
0010
0000
0100
0100
,
0100
0000
1000
0000
,
0001
0000
1000
0000
,
0200
0000
0300
0000
,
0020
0000
0030
0000
,
2000
0000
3000
0000
,
0002
0000
0003
0000
,
0010
0000
0100
0000
,
1000
0000
0001
0000
,
0100
0000
0000
0000
;

//---------------dance-single - ----------------
#NOTES:
     dance-single:
     :
     Easy:
     4:
     :
0000
0000
0000
0000
,
0000
0000
0000
0000
,
0000
0000
0000
0000
,
0000
0000
0000
0000
,
0000
0000
0000
0000
,
0010
0001
0100
0000
,
0010
1000
0100
0000
,
0010
0100
1000
0000
,
0010
0100
0001
0000
,
2000
0000
0000
3000
,
0002
0000
0000
0003
,
0100
0100
0010
0000
,
1000
1000
0001
0000
,
1001
0000
0100
0010
,
1000
0000
0100
0010
,
0001
0000
1000
0001
,
0100
0000
0001
1000
,
0200
0300
0020
0000
,
0000
0030
0002
0000
,
0000
1003
0200
0300
,
0000
0000
0000
0000
,
0010
0200
0300
0001
,
1000
0200
0300
0010
,
0001
2000
3000
0010
,
0100
0002
0003
1000
,
0100
0020
0030
0001
,
1000
0002
0003
0100
,
0010
0200
0300
0001
,
1000
0002
0003
1000
,
1000
0002
0013
0000
,
0001
2000
3010
0000
,
1000
0002
0103
0000
,
0001
2000
3100
0000
,
0020
0031
0100
0000
,
0020
1030
0100
0000
,
2000
3010
0100
0000
,
0002
0013
0100
0000
,
2000
3100
2000
3000
,
0002
0103
0002
0003
,
0020
0130
0020
0030
,
0002
1003
0002
0003
,
2000
3010
2000
3000
,
0002
0013
0002
0003
,
0200
0310
0200
0300
,
0002
1003
0002
0003
,
1001
0000
1000
1000
,
0010
0000
0010
0010
,
0100
0000
0100
0100
,
0001
0000
0001
0001
,
0020
0030
0200
0300
,
2000
3000
0002
0003
,
1001
0000
0000
0000
;

//---------------dance-single - ----------------
#NOTES:
     dance-single:
     :
     Medium:
     5:
     :
0000
0000
0000
0000
,
0000
0000
0000
0000
,
0000
0000
0000
0000
,
0000
0000
0000
0000
,
0000
0000
0000
0000
,
1001
0000
0100
0000
1000
0100
1000
0000
,
0001
0000
0100
0000
0001
0100
0001
0000
,
0010
0010
0100
0100
,
1000
0000
1000
0000
0001
1000
0001
0000
,
0200
0000
0000
0000
,
0320
0000
0000
0030
,
1000
0001
1000
0001
,
1000
0100
0001
0000
0001
0100
1000
0000
,
1001
0000
0001
0000
0100
0001
1000
0000
,
0100
0000
0010
0000
0100
1000
0001
0000
,
1000
0000
0100
0000
0010
0001
1000
0000
,
0100
0000
1000
0000
0001
0100
0010
0000
,
1000
0000
0001
0000
0010
0100
1000
0000
,
0010
0000
0100
0000
0001
0100
0010
0000
,
1000
0000
0010
0000
1000
0001
0010
0000
,
0200
0000
0000
0300
,
1001
0000
0010
0000
0100
0001
2000
0000
,
3100
1000
0002
0000
1003
0000
0100
0000
,
0010
0000
0001
0000
0100
0001
0200
0000
,
0310
1000
0020
0000
0130
0000
0001
0000
,
0010
0000
0100
0000
1000
0100
0020
0000
,
0031
0100
0020
0000
1030
0000
0010
0000
,
0100
0000
0001
0000
1000
0010
0200
0000
,
0301
0010
0200
0000
1300
0001
1000
0000
,
1001
0100
1000
0001
,
0100
0000
0001
0000
1000
0100
0010
0001
,
0100
0001
1000
0100
,
0010
0000
0001
0000
1000
0001
0100
0010
,
0100
0001
0010
0100
,
1000
0000
0010
0000
0100
0001
0010
0001
,
1000
0100
0010
0001
,
1000
0000
0010
0000
0100
0001
1000
0100
,
0010
0100
1000
0002
,
0100
0000
0100
0000
0010
0000
0013
0100
,
1000
0001
0100
0020
,
1000
0000
1000
0000
0100
0000
0130
0010
,
1000
0001
0010
2000
,
0100
0000
0100
0000
0010
0000
3010
0100
,
0001
1000
0100
0020
,
0001
0000
0001
0000
0100
0000
0130
0010
,
0001
0100
1000
0100
,
0010
0000
0100
0000
0001
1000
0010
0000
,
1000
0100
0001
0010
,
0001
0000
1000
0000
1000
0010
0100
0000
,
0001
0010
0001
0010
,
1000
0010
1000
0010
,
1001
0000
0000
0000
;

//---------------dance-single - ----------------
#NOTES:
     dance-single:
     :
     Hard:
     7:
     :
0000
0000
0000
0000
,
0000
0000
0000
0000
,
0000
0000
0000
0000
,
0000
0000
0000
0000
,
0000
0000
0000
0000
,
1000
0020
0000
0230
0000
0301
1000
0000
,
0001
0020
0000
0230
0000
1300
0001
0000
,
1000
0002
0000
0203
0000
1300
0100
0000
,
0001
2000
0000
3200
0000
0301
0100
0000
,
2200
0000
0300
3001
,
0202
0000
0300
1003
,
0010
2000
0000
3002
0000
1003
0100
0000
,
0010
0002
0000
2003
0000
3001
0100
0010
,
1000
0000
1100
0000
0001
1000
0100
0000
,
1000
0001
1000
0000
0001
1000
0010
0000
,
0100
0000
0101
0000
1000
0001
0100
0000
,
0001
1000
0001
0000
1000
0001
0010
0000
,
0100
0000
0110
0000
1000
0100
0010
0000
,
0100
0010
0100
0000
0010
0100
0001
0000
,
0100
0000
1100
0000
0010
0100
0001
0000
,
1000
0100
0010
0001
0010
0100
1000
0001
,
0100
0010
0001
0000
0010
0100
0010
0000
,
1000
0010
0100
0000
0001
0000
0011
0000
,
0100
0010
1000
0000
0010
0100
0010
0000
,
0001
0010
0100
0000
1000
0000
1010
0000
,
0010
1000
0001
0000
0100
0001
1000
0000
,
0010
1000
0100
0000
0010
0000
1001
0000
,
0100
0001
1000
0000
0010
1000
0001
0000
,
0100
0001
0010
0000
0100
0000
1001
0000
,
1000
0010
1000
0001
1000
0100
1000
0001
,
0100
0000
0010
0000
0100
0000
0001
0100
0010
0000
0100
0000
0001
0000
0100
0000
,
0010
1000
0010
0100
0010
0001
0010
0100
,
0001
0000
1000
0000
0001
0000
0100
0001
1000
0000
0001
0000
1000
0010
1000
0000
,
0100
0010
0100
0001
0100
0010
0100
1000
,
0001
0000
0010
0000
0001
0000
1000
0001
0010
0000
0001
0000
1000
0000
0010
0000
,
0100
0001
0100
0010
0100
1000
0100
0001
,
0010
0000
0100
0000
0010
0000
0001
0010
0100
0000
0010
0000
0001
0010
0001
0000
,
0100
0000
0000
0000
0001
0000
0000
1000
0000
0001
0000
0000
1000
0000
0100
0000
,
0001
0000
0000
0000
0100
0000
0000
0010
0000
0100
0000
0000
0010
0000
0001
0000
,
0100
0000
0000
0000
0010
0000
0000
0100
0000
0001
0000
0000
1000
0000
0010
0000
,
0001
0000
0000
0000
0010
0000
0000
1000
0000
0010
0000
0000
0100
0001
0100
0000
,
0010
0000
0000
0000
1000
0000
0000
0001
0000
1000
0000
0000
0001
0000
0010
0000
,
1000
0000
0000
0000
0010
0000
0000
0100
0000
0010
0000
0000
0100
0000
1000
0000
,
0010
0000
0000
0000
0100
0000
0000
0010
0000
1000
0000
0000
0001
0000
0100
0000
,
1000
0000
0000
0000
0100
0000
0000
0001
0000
0100
0000
0000
0010
1000
0010
0000
,
1000
1010
0100
0101
,
0001
0010
0001
1000
0001
0100
0001
0000
,
0010
0011
0100
1100
,
1000
0010
1000
0001
1000
0100
1000
0000
,
0200
0010
0320
0001
,
0032
0000
1000
0000
2003
0000
3002
0200
,
0000
0000
0303
0000
;

//---------------dance-double - ----------------
#NOTES:
     dance-double:
     :
     Easy:
     4:
     :
00000000
00000000
00000000
00000000
,
00000000
00000000
00000000
00000000
,
00000000
00000000
00000000
00000000
,
00000000
00000000
00000000
00000000
,
00000000
00000000
00000000
00000000
,
10000000
00010000
01000000
00000000
,
00010000
10000000
01000000
00000000
,
00100000
00010000
01000000
00000000
,
00001000
00010000
00000100
00000000
,
00002000
00000000
00000000
00003000
,
00000002
00000000
00000000
00000003
,
00001000
00001000
00000100
00000000
,
00010000
00010000
00001000
00000000
,
00011000
00000000
00001000
00001000
,
00100000
00000000
00010000
00010000
,
01000000
00000000
00100000
00100000
,
10000000
00000000
01000000
01000000
,
00020000
00030000
00002000
00000000
,
00000000
00003000
00000200
00000000
,
00000300
00000001
00000020
00000030
,
00000000
00000000
00000000
00000000
,
00011000
00020000
00030000
00100000
,
10000000
02000000
03000000
00100000
,
00010000
02000000
03000000
00001000
,
00010000
00002000
00003000
00000100
,
00000001
00000020
00000030
00000100
,
00001000
00000200
00000300
00010000
,
00001000
00020000
00030000
00001000
,
00010000
02000000
03000000
10000000
,
10010000
00020000
01030000
00000000
,
00010000
20000000
31000000
00000000
,
00100000
00002000
00013000
00000000
,
00001000
00020000
00030100
00000000
,
00002000
00003100
00000010
00000000
,
00000002
00000103
00000010
00000000
,
00020000
00031000
00100000
00000000
,
00020000
01030000
00010000
00000000
,
20000000
31000000
20000000
30000000
,
00020000
01030000
00020000
00030000
,
00002000
00013000
00002000
00003000
,
00000200
00001300
00000200
00000300
,
00000020
00000031
00000020
00000030
,
00000002
00000103
00000002
00000003
,
00000020
00001030
00000020
00000030
,
00020000
00031000
00020000
00030000
,
00011000
00000000
00010000
00010000
,
01000000
00000000
10000000
10000000
,
00100000
00000000
00010000
00010000
,
00001000
00000000
00000100
00000100
,
00000002
00000003
00000020
00000030
,
00002000
00003000
00020000
00030000
,
00011000
00000000
00000000
00000000
;

//---------------dance-double - ----------------
#NOTES:
     dance-double:
     :
     Medium:
     6:
     :
00000000
00000000
00000000
00000000
,
00000000
00000000
00000000
00000000
,
00000000
00000000
00000000
00000000
,
00000000
00000000
00000000
00000000
,
00000000
00000000
00000000
00000000
,
00001001
00000000
00000010
00000000
00000001
00000100
00000001
00000000
,
00001000
00000000
00000010
00000000
00001000
00000100
00001000
00000000
,
00000100
00000100
00010000
00010000
,
00001000
00000000
00001000
00000000
00100000
00010000
00100000
00000000
,
02000000
00000000
00000000
00000000
,
23000000
00000000
00000000
30000000
,
00010000
01000000
00100000
10000000
,
10000000
01000000
00010000
00000000
01000000
00010000
00001000
00000000
,
00011000
00000000
00010000
00000000
00001000
00010000
00000100
00000000
,
00001000
00000000
00000010
00000000
00000100
00000001
00000010
00000000
,
00000100
00000000
00010000
00000000
00001000
00100000
00010000
00000000
,
00100000
00000000
01000000
00000000
10000000
01000000
00010000
00000000
,
01000000
00000000
00100000
00000000
00001000
00010000
00000100
00000000
,
00001000
00000000
00000100
00000000
00000010
00000001
00000100
00000000
,
00000010
00000000
00000100
00000000
00001000
00010000
01000000
00000000
,
00200000
00000000
00000000
00300000
,
01010000
00000000
00010000
00000000
01000000
00010000
20000000
00000000
,
31000000
10000000
00020000
00000000
00130000
00000000
00001000
00000000
,
00010000
00000000
00000100
00000000
00001000
00000100
00002000
00000000
,
00003001
00000100
00000002
00000000
00000103
00000000
00000010
00000000
,
00001000
00000000
00000100
00000000
00010000
00000100
00002000
00000000
,
00003100
00010000
00002000
00000000
00013000
00000000
01000000
00000000
,
10000000
00000000
00010000
00000000
10000000
00100000
02000000
00000000
,
03010000
00100000
02000000
00000000
13000000
00010000
00100000
00000000
,
00011000
00001000
00010000
00000100
,
00001000
00000000
00000010
00000000
00000100
00000001
00000100
00001000
,
00010000
00001000
00100000
00010000
,
01000000
00000000
00100000
00000000
10000000
01000000
00100000
00010000
,
00100000
00001000
00010000
00000100
,
00001000
00000000
00000001
00000000
00000010
00000100
00001000
00000001
,
00000100
00001000
00010000
00001000
,
00100000
00000000
00010000
00000000
01000000
00010000
10000000
01000000
,
00100000
00010000
00100000
00002000
,
00100000
00000000
00100000
00000000
00010000
00000000
00013000
00000100
,
00001000
00000100
00001000
00000002
,
00000100
00000000
00000100
00000000
00001000
00000000
00001003
00000100
,
00000010
00000001
00000100
00002000
,
00010000
00000000
00010000
00000000
00100000
00000000
00103000
00010000
,
01000000
00100000
10000000
02000000
,
00100000
00000000
00100000
00000000
10000000
00000000
13000000
00100000
,
01000000
01010000
00001000
00011000
,
00000100
00000000
00001100
00000000
00000100
00000010
00000001
00000000
,
00000100
00000101
00001000
00001100
,
00010000
00000000
00011000
00000000
00001000
00100000
00010000
00000000
,
11000000
00010000
11000000
00010000
,
01010000
00001000
01010000
00001000
,
00011000
00000000
00000000
00000000
;

//---------------dance-double - ----------------
#NOTES:
     dance-double:
     :
     Hard:
     7:
     :
00000000
00000000
00000000
00000000
,
00000000
00000000
00000000
00000000
,
00000000
00000000
00000000
00000000
,
00000000
00000000
00000000
00000000
,
00000000
00000000
00000000
00000000
,
10000000
02000000
00000000
03200000
00000000
00310000
10000000
00000000
,
00100000
20000000
00000000
30020000
00000000
01030000
00001000
00000000
,
00010000
00000200
00000000
00002300
00000000
00003001
00000010
00000000
,
00000001
00000200
00000000
00002300
00000000
00013000
00001000
00000000
,
00202000
00000000
00300000
01003000
,
02020000
00000000
00030000
03100000
,
10000000
02000000
00000000
03200000
00000000
00301000
00010000
00000000
,
00001000
00020000
00000000
00030200
00000000
00001300
00000100
00000010
,
00000001
00000000
00001001
00000000
00000010
00000001
00000100
00000000
,
00000010
00010000
00001000
00000000
01000000
00010000
00100000
00000000
,
01000000
00000000
10010000
00000000
01000000
10000000
00100000
00000000
,
01000000
00001000
00010000
00000000
00000010
00001000
00000100
00000000
,
00000010
00000000
00001001
00000000
00000100
00001000
00010000
00000000
,
00100000
10000000
01000000
00000000
00010000
00001000
00000100
00000000
,
00000001
00000000
00001001
00000000
00000010
00000001
00000100
00000000
,
00001000
00010000
01000000
10000000
00010000
10000000
00100000
01000000
,
00010000
10000000
00100000
00000000
01000000
00001000
00010000
00000000
,
00000100
00001000
00000010
00000000
00000100
00000000
00000101
00000000
,
00001000
00000001
00000010
00000000
00000100
00010000
00001000
00000000
,
01000000
00010000
00100000
00000000
01000000
00000000
11000000
00000000
,
01000000
10000000
00100000
00000000
00010000
00001000
00010000
00000000
,
00000010
00001000
00000100
00000000
00000010
00000000
00000011
00000000
,
00000100
00000001
00000010
00000000
00001000
00010000
00001000
00000000
,
00100000
00010000
01000000
00000000
00100000
00000000
10100000
00000000
,
10000000
01000000
10000000
00010000
01000000
00010000
00100000
00001000
,
00100000
00000000
00010000
00000000
00100000
00000000
00001000
00010000
00001000
00000000
00010000
00000000
00000100
00000000
00001000
00000000
,
00000010
00001000
00000001
00000100
00000001
00001000
00000100
00001000
,
00000001
00000000
00000010
00000000
00000100
00000000
00001000
00000100
00001000
00000000
00000100
00000000
00010000
00001000
00010000
00000000
,
00001000
00100000
00010000
10000000
00010000
01000000
00100000
01000000
,
00010000
00000000
00100000
00000000
00001000
00000000
00010000
00001000
00010000
00000000
00000100
00000000
00010000
00000000
00000100
00000000
,
00001000
00000010
00001000
00000001
00000100
00000001
00001000
00000100
,
00001000
00000000
00000010
00000000
00010000
00000000
00001000
00010000
00001000
00000000
00100000
00000000
00010000
00100000
00010000
00000000
,
01000000
00000000
00000000
00000000
00100000
00000000
00000000
10000000
00000000
00010000
00000000
00000000
00100000
00000000
00001000
00000000
,
00010000
00000000
00000000
00000000
00000100
00000000
00000000
00001000
00000000
00000001
00000000
00000000
00000100
00000000
00000010
00000000
,
00000100
00000000
00000000
00000000
00001000
00000000
00000000
00010000
00000000
00001000
00000000
00000000
00010000
00000000
01000000
00000000
,
10000000
00000000
00000000
00000000
00010000
00000000
00000000
00100000
00000000
00001000
00000000
00000000
00010000
00001000
00010000
00000000
,
00001000
00000000
00000000
00000000
00000100
00000000
00000000
00000001
00000000
00001000
00000000
00000000
00000100
00000000
00010000
00000000
,
00001000
00000000
00000000
00000000
00100000
00000000
00000000
00010000
00000000
10000000
00000000
00000000
00100000
00000000
01000000
00000000
,
00100000
00000000
00000000
00000000
00010000
00000000
00000000
00001000
00000000
00010000
00000000
00000000
00001000
00000000
00000010
00000000
,
00000001
00000000
00000000
00000000
00001000
00000000
00000000
00000100
00000000
00000010
00000000
00000000
00000100
00001000
00000100
00000000
,
00010000
00011000
00001000
00011000
,
00010000
00000010
00010000
00001000
00010000
00000100
00010000
00000000
,
00001000
00101000
00010000
00010100
,
00001000
01000000
00001000
00010000
00001000
00100000
00001000
00000000
,
00020000
00100000
00230000
10000000
,
20300000
00000000
00010000
00000000
30020000
00000000
00230000
02000000
,
00000000
00000000
03300000
00000000
;
