#TITLE:Play That Funky Music;
#ARTIST:wg feat. Tony L.;
#BANNER:Play That Funky Music.png;
#BACKGROUND:Play That Funky Music-bg.png;
#CDTITLE:./CDTITLES/Dance Dance Revolution EXTREME 2.png;
#MUSIC:Play That Funky Music.ogg;
#SAMPLESTART:63.93;
#SAMPLELENGTH:15;
#DISPLAYBPM:108;
#BPMS:0=108.108,12=109.756,16=109.312,19=116.883,20=108.108,24=108.761,28=109.756,32=110.769,36=108.761,40=109.422,44=108.434,48=108.761,52=107.784,56=105.882,57=109.756,60=108.761,64=108,67=111.111,68=108.434,72=107.784,80=106.509,82=109.091,84=108.108,88=107.784,92=107.143,95=111.111,96=108.434,98=111.111,100=112.5,101=108,104=110.092,108=109.091,112=110.769,116=109.091,120=110.092,124=109.756,128=110.092,132=108.761,136=112.033,139=113.924,140=109.422,144=111.111,148=110.092,156=109.312;
#BGCHANGES:3.75=Play That Funky Music.avi=1=1=0=0,155.75=Play That Funky Music-bg.png=1=0=0=1;

//---------------dance-single - ----------------
#NOTES:
     dance-single:
     :
     Beginner:
     1:
     :
0000
0000
0000
0000
,
0000
0000
0000
0000
,
0000
0000
0000
0000
,
0000
0000
0000
0000
,
0000
0000
0000
0000
,
1000
0000
0000
0000
,
0001
0000
0000
0000
,
1000
0000
0000
0000
,
0001
0000
0000
0000
,
1000
0000
1000
0000
,
0100
0000
0000
0000
,
0010
0000
0010
0000
,
0001
0000
0000
0000
,
1000
0000
1000
0000
,
0100
0000
0000
0000
,
0010
0000
0010
0000
,
0001
0000
0000
0000
,
0001
0000
0010
0000
,
0001
0000
0000
0000
,
1000
0000
0100
0000
,
1000
0000
0000
0000
,
1000
1000
0000
0000
,
0001
0001
0000
0000
,
0100
0100
0000
0000
,
0010
0010
0000
0000
,
0010
0000
0100
0000
,
0010
0000
0100
0000
,
0001
0000
1000
0000
,
0001
0000
1000
0000
,
0020
0000
0030
0000
,
0010
0000
0010
0000
,
2000
0000
3000
0000
,
1000
0000
1000
0000
,
0002
0000
0003
0000
,
0001
0000
0001
0000
,
1000
1000
1000
0000
,
0001
0001
0001
0000
,
1000
0000
1000
0000
,
0001
0000
0001
0000
,
1000
0000
0000
0000
;

//---------------dance-single - ----------------
#NOTES:
     dance-single:
     :
     Easy:
     2:
     :
0000
0000
0000
0000
,
0000
0000
0000
0000
,
0000
0000
0000
0000
,
0000
0000
0000
0000
,
0000
0000
0000
0000
,
1000
0000
1000
0000
,
0001
0000
0001
0000
,
0010
0000
0010
0000
,
0001
0000
1000
0000
,
0010
0000
0000
0000
,
0010
0010
0100
0000
,
0100
0000
0000
0000
,
1000
1000
0001
0000
,
0001
0000
0000
0000
,
0100
0100
0010
0000
,
0010
0000
0000
0000
,
0001
0001
1000
0000
,
0100
0000
0010
0000
,
0001
0001
0001
0000
,
0100
0000
0010
0000
,
1000
1000
1000
0000
,
0001
0001
0010
0000
,
1000
1000
0100
0000
,
0010
0010
0001
0000
,
0100
0100
1000
0000
,
0010
0000
0100
0000
,
0010
0010
0100
0000
,
0001
0000
1000
0000
,
0001
0001
1000
0000
,
0010
0010
0010
0010
,
1000
0000
0000
0000
,
0100
0100
0100
0100
,
0001
0000
0000
0000
,
0010
0010
0010
0010
,
1000
0000
0001
0000
,
0100
0000
0100
0000
,
0010
0000
0010
0000
,
1000
0001
1000
0000
,
0001
1000
0001
0000
,
0010
0000
0000
0000
;

//---------------dance-single - ----------------
#NOTES:
     dance-single:
     :
     Medium:
     4:
     :
0000
0000
0000
0000
,
0000
0000
0000
0000
,
0000
0000
0000
0000
,
0000
0000
0000
0000
,
0000
0000
0000
0000
,
1001
0000
0010
0000
,
1000
0000
0001
0001
0100
0000
0000
0000
,
1001
0000
0010
0000
,
0001
0000
1000
1000
0100
0000
0100
0000
,
1000
0001
0100
0010
,
2000
0000
3000
0100
1000
0000
0000
0000
,
0001
1000
0010
0100
,
0002
0000
0003
1000
0001
0000
0000
0000
,
0010
0100
0001
0010
,
0200
0000
0300
1000
0100
0000
0000
0000
,
1000
0100
0010
0001
,
2000
0000
3000
0001
1000
0000
0002
0000
,
0103
0001
1000
0010
,
1000
0000
0001
1000
0100
0000
0000
0000
,
0010
0100
0001
0010
,
0001
0000
0100
0010
1000
0000
2000
0000
,
3001
0100
0010
0100
,
0001
0000
1000
0010
0100
0000
0001
0000
,
1000
0100
0010
0100
,
1000
0000
0001
0100
0010
0000
1001
0000
,
0001
0001
1000
1000
,
0001
1000
0001
0000
1000
0001
1000
0000
,
0100
1000
0100
0000
0010
0001
0010
0000
,
0001
0100
0001
0000
1000
0010
1000
0000
,
0010
0010
0100
0000
0100
0100
0010
0000
,
0002
0003
2000
3000
,
0010
0010
0100
0000
0100
0100
0010
0000
,
0002
0003
2000
3000
,
0100
0010
0001
0010
0100
0000
1000
0000
,
0002
0003
2000
3000
,
0020
0000
0130
0001
0200
0000
0310
1000
,
0200
0000
0310
0001
0020
0000
0130
1000
,
0100
0000
0100
0100
,
1001
0000
0000
0000
0001
0000
0001
1000
,
0100
0000
0000
0000
;

//---------------dance-single - ----------------
#NOTES:
     dance-single:
     :
     Hard:
     6:
     :
0000
0000
0000
0000
,
0000
0000
0000
0000
,
0000
0000
0000
0000
,
0000
0000
0000
0000
,
0000
0000
0000
0000
,
0001
0000
0010
0000
0100
0000
1000
0000
0001
0000
0000
0010
0000
0000
0100
0000
,
1000
0000
0010
0000
0100
0000
0001
0000
1000
0000
0000
0010
0000
0000
0100
0000
,
0001
0000
0100
0000
0010
0000
0100
0000
0001
0000
0000
1000
0000
0000
0010
0000
,
1000
0100
0010
0100
2000
0000
3000
0000
,
0100
0000
0010
0000
0001
0000
0100
0000
0001
0000
0000
1001
0000
0000
0001
0000
,
0010
0000
0001
0000
1000
0000
0001
0000
1000
0000
0000
1010
0000
0000
1000
0000
,
0100
0000
1000
0000
0010
0000
0001
0000
0010
0000
0000
0110
0000
0000
0100
0000
,
0001
0010
0100
1000
0100
0000
0020
0000
,
0031
0000
0001
0000
1000
0000
0001
0000
0010
0000
0000
0011
0000
0000
0001
0000
,
1000
0000
0001
0000
1000
0000
0010
0000
0100
0000
0000
0110
0000
0000
0100
0000
,
0010
0000
1000
0000
0001
0000
1000
0000
0010
0000
0000
1010
0000
0000
1000
0000
,
0001
1000
0001
0010
0100
0000
0020
0000
,
0031
0000
0001
0000
1000
0000
0010
0000
0100
0000
0000
0101
0000
0000
1000
0000
,
0100
0000
0000
0000
0001
0000
0100
0000
0001
0000
0000
1100
0000
0000
0010
0000
,
0001
0000
0000
0000
0010
0000
0100
0000
1000
0000
0000
0101
0000
0000
1000
0000
,
0010
0000
0100
0010
0001
0000
2000
0000
,
3100
0000
0100
0000
0010
0000
0001
0000
1000
0000
0000
1010
0000
0000
0001
0000
,
0010
0000
0000
0000
0010
0000
1000
0000
0010
0000
0000
0011
0000
0000
1000
0000
,
0010
0000
0000
0000
0001
0000
0010
0000
0100
0000
0000
0110
0000
0000
1000
0000
,
0001
0000
1000
0100
0001
0000
0000
0000
,
0100
1100
0000
0001
0100
0101
0000
0010
,
0100
1000
0100
0010
0001
1000
0000
0001
,
1000
1100
0000
0001
0100
0101
0000
0010
,
1000
0010
0100
0001
0010
0010
0001
0001
,
0010
0001
0010
0100
1000
0000
1001
0000
,
0220
0330
0000
0000
,
0010
1000
0010
0100
0001
0000
1001
0001
,
0200
0300
0000
0000
,
0010
0001
0100
0001
1000
0000
1001
0100
,
0001
1000
0001
0000
,
0010
0000
0010
1000
0100
0000
0010
0001
,
0100
0010
1000
0100
0010
0001
0100
0010
,
1000
0010
0000
0000
1000
0000
0001
0000
0100
0000
0000
0000
0001
0000
0010
0000
,
0100
0010
0000
0000
0100
0000
1000
0000
0100
0000
0000
0000
1000
0000
0001
0000
,
1000
0000
0000
0000
;

//---------------dance-double - ----------------
#NOTES:
     dance-double:
     :
     Beginner:
     1:
     :
00000000
00000000
00000000
00000000
,
00000000
00000000
00000000
00000000
,
00000000
00000000
00000000
00000000
,
00000000
00000000
00000000
00000000
,
00000000
00000000
00000000
00000000
,
00000000
00000000
00000000
00000000
,
00000000
00000000
00000000
00000000
,
00000001
00000000
00000001
00000000
,
00001000
00000000
00001000
00000000
,
00000010
00000000
00001000
00000000
,
00000100
00000000
00000100
00000000
,
00010000
00000000
00001000
00000000
,
01000000
00000000
00100000
00000000
,
10000000
00000000
00010000
00000000
,
10000000
00000000
00000000
00000000
,
00010000
00000000
00010000
00000000
,
10000000
00000000
10000000
00000000
,
00100000
00100000
00100000
00000000
,
00100000
00000000
00000000
00000000
,
10000000
00000000
10000000
00000000
,
01000000
00000000
01000000
00000000
,
00100000
00000000
00001000
00000000
,
00010000
00000000
00000000
00000000
,
00000100
00000000
00001000
00000000
,
00000001
00000000
00000001
00000000
,
00001000
00000000
00001000
00000000
,
00000100
00000000
00000000
00000000
,
00000110
00000000
00000000
00000000
,
00000000
00000000
00000000
00000000
,
00001001
00000000
00000000
00000000
,
00000000
00000000
00000000
00000000
,
00000001
00000001
00000001
00000000
,
00000100
00000000
00000000
00000000
,
00000010
00000010
00000010
00000000
,
00001000
00000000
00000000
00000000
,
00000100
00000100
00000100
00000000
,
00010000
00000000
00000000
00000000
,
01000000
00000000
00000000
00000000
,
00100000
00100000
00100000
00000000
,
01100000
00000000
00000000
00000000
;

//---------------dance-double - ----------------
#NOTES:
     dance-double:
     :
     Easy:
     3:
     :
00000000
00000000
00000000
00000000
,
00000000
00000000
00000000
00000000
,
00000000
00000000
00000000
00000000
,
00000000
00000000
00000000
00000000
,
00000000
00000000
00000000
00000000
,
00100000
00000000
00100000
00000000
,
00001000
00000000
00001000
00000000
,
00010000
00000000
00010000
00000000
,
00000010
00000000
00000010
00000000
,
00000001
00000000
00000000
00000000
,
00001000
00001000
00010000
00000000
,
01000000
00000000
00000000
00000000
,
00010000
00010000
00001000
00000000
,
00000100
00000000
00000000
00000000
,
00000010
00000010
00010000
00000000
,
00001000
00000000
00000000
00000000
,
00000001
00000001
00000100
00000000
,
00001000
00000000
00010000
00000000
,
01000000
01000000
10000000
00000000
,
00100000
00000000
00100000
00000000
,
01000000
01000000
00010000
00000000
,
00001000
00001000
00001000
00000000
,
00000001
00000001
00000001
00000000
,
00001000
00000100
00010000
00000000
,
00001000
01000000
00010000
00000000
,
10000000
00000000
00010000
00000000
,
00100000
00100000
00001000
00000000
,
00010000
00000000
00000100
00000000
,
00000010
00000010
00000001
00000001
,
00000100
00000100
00000100
00000100
,
00001000
00000000
00010000
00000000
,
00100000
00100000
00100000
00100000
,
00010000
00000000
00010000
00000000
,
00001000
00001000
00001000
00001000
,
00010000
00000000
00001000
00000000
,
00000001
00000000
00001000
00000000
,
00010000
00000000
10000000
00000000
,
10000000
01000000
00010000
00000000
,
00001000
00000100
00000001
00000000
,
00001001
00000000
00000000
00000000
;

//---------------dance-double - ----------------
#NOTES:
     dance-double:
     :
     Medium:
     4:
     :
00000000
00000000
00000000
00000000
,
00000000
00000000
00000000
00000000
,
00000000
00000000
00000000
00000000
,
00000000
00000000
00000000
00000000
,
00000000
00000000
00000000
00000000
,
00001001
00000000
00001000
00000000
,
00000100
00000000
00010000
00010000
00001000
00000000
00000000
00000000
,
01000000
00000000
10000000
00000000
,
01000000
00000000
00100000
00100000
00001000
00000000
00001000
00000000
,
00010000
00000010
00001000
00000001
,
00000200
00000000
00000300
00000010
00001000
00000000
00000000
00000000
,
00000001
00000100
00001000
00010000
,
00002000
00000000
00003000
00100000
00010000
00000000
00000000
00000000
,
00100000
00010000
10000000
01000000
,
00020000
00000000
00030000
00000010
00001000
00000000
00000000
00000000
,
00001000
00000001
00000010
00000100
,
00000020
00000000
00000030
00000100
00010000
00000000
00002000
00000000
,
00103000
00010000
10000000
01000000
,
00100000
00000000
00001000
00010000
00000100
00000000
00000000
00000000
,
00000010
00000001
00001000
00000001
,
00000100
00000000
00000100
00001000
00010000
00000000
02000000
00000000
,
13000000
00010000
00100000
01000000
,
10000000
00000000
01000000
00010000
00001000
00000000
00100000
00000000
,
00001000
00010000
00000010
00001000
,
00000001
00000000
00001000
00000010
00000100
00000000
00001001
00000000
,
00000001
00001000
00000000
00000000
00000100
00000010
00000000
00000000
,
00001000
00010000
00001000
00000000
00010000
00000000
01000000
00000000
,
10000000
00010000
00000000
00000000
01000000
00100000
00000000
00000000
,
00010000
00001000
00010000
00000000
00001000
00000000
00000100
00000000
,
00000001
00000100
00001000
00000000
00001000
00010000
01000000
00000000
,
20000000
30000000
00200000
00300000
,
10000000
01000000
00010000
00000000
00010000
00001000
00000100
00000000
,
00000002
00000003
00000020
00000030
,
00000001
00000100
00001000
00010000
01000000
00000000
10000000
00000000
,
00200000
00300000
02000000
03000000
,
00020000
00000000
00130000
01000000
20000000
00000000
30100000
01000000
,
00001000
00000000
00010000
00000000
00000010
00000000
00001000
00000001
,
00000010
00000000
00001000
00001000
00000001
00000000
00000100
00000000
,
00001000
00000000
00010000
00010000
01000000
00000000
10000000
00010000
,
01000000
00000000
00000000
00000000
;

//---------------dance-double - ----------------
#NOTES:
     dance-double:
     :
     Hard:
     6:
     :
00000000
00000000
00000000
00000000
,
00000000
00000000
00000000
00000000
,
00000000
00000000
00000000
00000000
,
00000000
00000000
00000000
00000000
,
00000000
00000000
00000000
00000000
,
00010000
00000000
00000000
00000000
10000000
00000000
00010000
00000000
01000000
00000000
00000000
01000000
00000000
00000000
01000000
00000000
,
00100000
00000000
00000000
00000000
10000000
00000000
01000000
00000000
00010000
00000000
00000000
00010000
00000000
00000000
00010000
00000000
,
00001000
00000000
00000000
00000000
00001000
00000000
00010000
00000000
00000100
00000000
00000000
00000100
00000000
00000000
00000100
00000000
,
00000010
00000000
00000001
00000100
00001000
00000000
00000000
00000000
,
00010000
00000000
00000000
00000000
00001000
00000000
00100000
00000000
01000000
00000000
00000000
00010000
00000000
00000000
01000000
00000000
,
20000000
00000000
00000000
00000000
00000000
00000000
30020000
00000000
01000000
00000000
00000000
00130000
00000000
00000000
00001000
00000000
,
00010000
00000000
00000000
00000000
00000100
00000000
00001000
00000000
00000010
00000000
00000000
00000001
00000000
00000000
00000010
00000000
,
00000200
00000000
00000000
00000301
00001000
00000000
00000200
00000000
,
00010300
00000000
00000000
00000000
00001000
00000000
01000000
00000000
00100000
00000000
00000000
00010000
00000000
00000000
00100000
00000000
,
20000000
00000000
00000000
00000000
00000000
00000000
30020000
00000000
00100000
00000000
00000000
01030000
00000000
00000000
00001000
00000000
,
00010000
00000000
00000000
00000000
00000010
00000000
00001000
00000000
00000100
00000000
00000000
00000001
00000000
00000000
00000100
00000000
,
00000020
00000000
00000000
00001030
00010000
00000000
00020000
00000000
,
00031000
00000000
00000000
00000000
00010000
00000000
00000100
00000000
00000010
00000000
00000000
00001000
00000000
00000000
00000010
00000000
,
00000002
00000000
00000000
00000000
00000000
00000000
00002003
00000000
00000010
00000000
00000000
00003100
00000000
00000000
00010000
00000000
,
00001000
00000000
00000000
00000000
00100000
00000000
00010000
00000000
01000000
00000000
00000000
10000000
00000000
00000000
01000000
00000000
,
00200000
00000000
00000000
10300000
00010000
00000000
00200000
00000000
,
00301000
00000000
00000000
00000000
00010000
00000000
00000010
00000000
00000100
00000000
00000000
00001000
00000000
00000000
00000100
00000000
,
00000002
00000000
00000000
00000000
00000000
00000000
00002003
00000000
00000100
00000000
00000000
00003010
00000000
00000000
00010000
00000000
,
00001000
00000000
00000000
00000000
01000000
00000000
00010000
00000000
00100000
00000000
00000000
10000000
00000000
00000000
00100000
00000000
,
02000000
00000000
00000000
03010000
00001000
00000000
00001000
00000000
,
00010000
00001000
00100000
00100000
00010000
10000000
00100000
00100000
,
10000000
00010000
00100000
01000000
00100000
01000000
00000000
00010000
,
00001000
00010000
00010000
00001000
00010000
00001000
00001000
00010000
,
00001000
00000100
00000001
00001000
00000001
00000001
00000010
00000010
,
00000100
00010000
00001000
00100000
01000000
00000000
10000000
00100000
,
00010000
00000000
00000000
00000000
,
10000000
01000000
00010000
00001000
00000010
00000000
00000001
00000100
,
00001000
00000000
00000000
00000000
,
00010000
10000000
00100000
00010000
00001000
00000000
00000010
00001000
,
00010000
00000000
00000000
00001000
00002000
00000000
00003000
00000000
,
00001000
00010000
01000000
00010000
00001000
00000100
00001000
00100000
,
00010000
00100000
00001000
00010000
00000010
00001000
00000010
00010000
,
00001000
00010000
00000000
00000000
01000000
00000000
10000000
00000000
00100000
00000000
00000000
00000000
00010000
00000000
00001000
00000000
,
00010000
00001000
00000000
00000000
00000100
00000000
00000001
00000000
00000010
00000000
00000000
00000000
00001000
00000000
00010000
00000000
,
01000000
00000000
00000000
00000000
;
