#TITLE:Oops!... I Did It Again;
#ARTIST:AKIRA feat. Susan Z;
#BANNER:Oops!... I Did It Again.png;
#BACKGROUND:Oops!... I Did It Again-bg.png;
#CDTITLE:./CDTITLES/Dance Dance Revolution EXTREME 2.png;
#MUSIC:Oops!... I Did It Again.ogg;
#SAMPLESTART:55.512;
#SAMPLELENGTH:15;
#DISPLAYBPM:96;
#BPMS:0=95.491,4=95.053;
#BGCHANGES:7.75=Oops!... I Did It Again.avi=1=1=0=0,147.5=Oops!... I Did It Again-bg.png=1=0=0=1;

//---------------dance-single - ----------------
#NOTES:
     dance-single:
     :
     Beginner:
     1:
     :
0000
0000
0000
0000
,
0000
0000
0000
0000
,
0000
0000
0000
0000
,
0000
0000
0000
0000
,
0001
0000
0001
0000
,
0100
0000
0000
0000
,
0001
0000
0000
0000
,
0010
0000
0000
0000
,
0100
0000
0100
0000
,
1000
0000
0000
0000
,
1001
0000
0000
0000
,
0001
0000
0001
0000
,
1000
0000
0000
0000
,
0100
0000
0100
0000
,
0010
0000
0000
0000
,
1000
0000
1000
0000
,
0001
0000
0000
0000
,
0001
0000
1000
0000
,
1001
0000
0000
0100
,
0100
0000
0000
0010
,
0010
0000
0010
0000
,
0010
0000
0000
0000
,
1000
1000
1000
0000
,
0001
0000
1000
0000
,
0001
0001
0001
0000
,
1000
0000
0001
0000
,
0100
0100
0100
0000
,
0010
0000
0100
0000
,
1000
0000
0001
0000
,
1001
1001
0000
0000
,
1001
0000
1000
0000
,
0001
0000
0100
0000
,
0100
0000
0010
0000
,
1000
0000
1000
0000
,
0001
0000
0100
0000
,
0100
0000
0010
0000
,
1000
0000
0000
0000
,
1001
1001
1001
0000
;

//---------------dance-single - ----------------
#NOTES:
     dance-single:
     :
     Easy:
     3:
     :
0000
0000
0000
0000
,
0000
0000
0000
0000
,
0000
0000
0000
0000
,
0000
0000
0000
0000
,
1000
0000
0001
0000
,
0010
0100
0010
0000
,
0001
0000
1000
0000
,
0001
0000
0100
0000
,
0100
0000
0010
0000
,
1000
0000
0001
0000
,
0220
0000
0000
0330
,
0010
0010
1000
0001
,
0010
0000
0100
0000
,
1000
0000
0001
0000
,
2002
0000
0000
3003
,
0010
0010
0001
1000
,
0010
0000
0001
0000
,
0100
0000
0000
0000
,
0100
0001
0100
0000
,
0001
1000
0001
0000
,
0100
1000
0100
0000
,
1001
0000
0001
0001
,
0010
1000
0100
0000
,
0010
0000
0001
0010
,
1000
0000
0100
0000
,
1000
0000
0010
0010
,
1000
0001
1000
0000
,
0100
0000
0001
0000
,
0001
0100
1000
0000
,
0100
0010
0110
0000
,
0010
0100
0010
0100
,
0010
0000
1000
0000
,
0001
0000
0100
0000
,
0010
0000
1000
1000
,
0010
0001
1000
0000
,
0010
0000
0001
0000
,
1000
0000
0100
0000
,
1000
0001
1001
1001
;

//---------------dance-single - ----------------
#NOTES:
     dance-single:
     :
     Medium:
     4:
     :
0000
0000
0000
0000
,
0000
0000
0000
0000
,
0000
0000
0000
0000
,
0000
0000
0000
0000
,
1001
0000
0000
0100
0000
0000
0000
0000
,
0010
0001
0100
1000
,
1001
0000
0000
0000
,
0010
1000
0100
0001
,
1001
0000
0000
0100
0000
0000
0000
0000
,
0001
0010
0100
1000
,
0001
0000
1000
0000
0010
0100
0010
0000
,
1000
0000
0001
0000
0010
0100
0010
0000
,
0001
0010
0100
1000
,
0001
1000
0100
0010
,
0001
0000
1000
0000
0010
0100
0010
0100
,
0000
0001
1000
0000
0100
1000
0010
0000
,
0100
0000
0001
0000
1000
0001
1000
1001
,
0000
0000
0000
0100
,
0010
1000
0100
0000
0010
0001
0100
0000
,
0010
1000
0100
0000
0010
0001
0100
0000
,
0010
0000
1000
0000
0001
1000
0001
2002
,
0000
0000
3003
0000
0001
0100
1000
0100
,
0001
0000
1000
0000
0010
1000
0100
0001
,
0000
0000
0100
0000
1000
0001
0100
0000
,
0001
0000
1000
0000
0001
1000
0100
0000
,
0010
0000
0100
0000
1000
0100
0001
0100
,
1000
0000
0100
0000
0010
0001
0100
0000
,
1000
0000
0100
0000
0001
0010
0100
0000
,
1000
0100
0010
0001
,
0101
0000
1100
0000
0001
1000
0001
0000
,
1000
0000
0001
0000
0010
0001
0100
1000
,
0000
0000
0100
0000
0001
1000
0100
0000
,
1000
0000
0001
0000
1000
0001
0100
0000
,
0010
0000
0100
0000
0001
0100
1000
0100
,
0001
0000
0100
0000
0010
1000
0100
0000
,
1000
0000
0100
0000
1000
0010
0100
0000
,
0001
0100
0010
1000
,
1100
0000
0101
0000
1000
0001
1000
1001
;

//---------------dance-single - ----------------
#NOTES:
     dance-single:
     :
     Hard:
     6:
     :
0000
0000
0000
0000
,
0000
0000
0000
0000
,
0000
0000
0000
0000
,
0000
0000
0000
0000
,
1001
0000
0000
1100
0000
0000
0000
0010
,
0001
0100
0001
0100
0010
1000
1000
0000
,
0101
0000
0000
0000
0000
0000
0000
1000
,
0001
1000
0001
0010
0100
0000
0000
0000
,
1001
0000
0000
0101
0000
0000
0000
0010
,
0100
0010
0100
1000
0001
0000
0000
0000
,
0010
1000
0100
0010
0001
1000
0001
1000
,
0000
0000
0000
0001
0010
1000
0010
0001
,
0000
0000
0000
1000
0100
0001
0100
1000
,
0000
1001
0110
1001
,
2000
0000
3002
0000
1003
0100
0010
0001
,
0000
0110
0110
0000
0001
0010
0100
1000
,
0000
0000
0110
0000
0001
1000
0001
1000
,
0000
0010
0100
0000
0000
0000
1000
0000
,
0001
0100
0010
1000
0001
0010
0001
1000
,
0100
1000
0010
0100
0001
0010
0001
1000
,
0001
0000
0100
0000
0010
1000
0010
1000
,
0000
0000
0000
0000
0000
0000
2002
0000
0000
3003
0010
0000
1000
0000
1001
0000
,
0001
0000
0001
0010
0100
1000
0001
1000
,
0100
0001
0100
1000
0010
0100
0001
0010
,
0001
1000
0100
1000
0100
0010
0001
1000
,
0001
0000
0000
0001
0010
1000
0010
0001
,
1000
0000
1000
0001
0100
0001
0010
0001
,
1000
0001
0100
0010
1000
0001
1000
0010
,
0000
0100
0000
1001
0000
0110
0000
1001
,
1001
0000
0010
0000
0001
1000
0001
0000
,
1000
0100
0010
0001
1000
0100
0010
0001
,
0100
1000
0100
0010
1000
0001
0010
0001
,
1000
0010
0100
0001
0100
1000
0100
0001
,
1000
0000
0000
0010
0001
0100
0010
1000
,
0100
0000
0010
0100
0001
1000
0010
0100
,
0001
0010
1000
0010
0001
1000
0100
0001
,
0000
0100
0000
1001
0000
0110
0000
1001
,
1001
0000
0001
0000
0010
0001
0100
1000
;

//---------------dance-double - ----------------
#NOTES:
     dance-double:
     :
     Easy:
     3:
     :
00000000
00000000
00000000
00000000
,
00000000
00000000
00000000
00000000
,
00000000
00000000
00000000
00000000
,
00000000
00000000
00000000
00000000
,
00000100
00000100
00000001
00000000
,
00001000
00000000
00000100
00000000
,
00010000
00000000
01000000
00000000
,
10000000
00000000
00100000
00000000
,
00010000
00010000
00001000
00000000
,
00000010
00000000
00000001
00000000
,
00001000
00000001
00001000
00000000
,
00000001
00000100
00001000
00010000
,
01000000
00000000
10000000
00000000
,
01000000
00000000
00100000
00000000
,
00010000
10000000
00010000
00000000
,
10000000
01000000
00010000
00001000
,
00000100
00000000
00000001
00000000
,
00002002
00000000
00000000
00003003
,
00000001
00000100
00001000
00010000
,
01000000
00000000
10000000
00000000
,
10000000
01000000
00010000
00001000
,
00012000
00000000
00010000
00013000
,
00001000
00000100
00001000
00010000
,
01000000
00000000
00010000
00001000
,
00010000
00000000
00000100
00000000
,
00000010
00000000
00000001
00000001
,
00000100
00001000
00010000
00001000
,
01000000
00000000
00010000
00001000
,
00010000
00000000
01000000
00000000
,
10000000
00010000
10010000
00000000
,
10000000
01000000
00010000
01000000
,
00010000
00000000
00001000
00000100
,
00000001
00000000
00000001
00000000
,
00000010
00000000
00001000
00001000
,
00010000
01000000
00010000
00001000
,
00000100
00000000
00001000
00010000
,
00100000
00010000
00001000
00000000
,
00000100
00000010
00001001
00001001
;

//---------------dance-double - ----------------
#NOTES:
     dance-double:
     :
     Medium:
     4:
     :
00000000
00000000
00000000
00000000
,
00000000
00000000
00000000
00000000
,
00000000
00000000
00000000
00000000
,
00000000
00000000
00000000
00000000
,
00011000
00000000
00000000
00000100
00000000
00000000
00000000
00000000
,
00001000
00000000
00000001
00000000
00000000
00000100
00001000
00000100
,
00000001
00000000
00000000
00000000
,
00010000
10000000
01000000
00010000
,
00011000
00000000
00000000
01000000
00000000
00000000
00000000
00000000
,
00001000
00000100
00000001
00000010
,
00000001
00000000
00001000
00000000
00000100
00010000
00000100
00010000
,
00000000
00000000
00001000
00000000
00010000
01000000
00010000
01000000
,
00000000
00000000
10000000
00000000
00100000
01000000
00100000
01000000
,
00000000
00000000
00001000
00000000
00010000
00000000
00001000
00001000
,
00000010
00000000
00000001
00000000
00001000
00000100
00001000
00000100
,
00000000
00010000
00001000
00000000
00010000
01000000
10000000
00000000
,
00010000
00000000
10000000
00000000
10000000
01000000
00010000
00001000
,
00000100
00000000
00000000
00010000
,
00001000
00000100
00000001
00000000
00000100
00001000
00010000
00000000
,
00001000
00010000
01000000
00000000
10000000
01000000
00010000
00000000
,
01000000
00000000
10000000
00000000
01000000
00010000
00001000
00000200
,
00000000
00000000
00000300
00000000
00000001
00000100
00001000
00000100
,
00000001
00000000
00000001
00000000
00000010
00000001
00000100
00001000
,
00000000
00000000
00010000
00000000
00001000
00010000
01000000
00000000
,
10000000
00000000
00010000
00000000
10000000
01000000
00010000
00000000
,
00001000
00000000
00010000
00000000
00001000
00010000
00001000
00010000
,
00001000
00000000
00000100
00000000
00000001
00000010
00000100
00000000
,
00001000
00000000
00000001
00000000
00000100
00001000
00010000
00000000
,
01000000
10000000
00100000
00010000
,
00011000
00000000
01001000
00000000
00010000
01000000
10000000
00000000
,
00010000
00000000
10000000
00000000
00100000
10000000
01000000
00010000
,
00000000
00000000
00001000
00000000
00010000
00001000
00000100
00000000
,
00000001
00000000
00001000
00000000
00000001
00000100
00001000
00000000
,
00010000
00000000
00001000
00000000
00010000
00001000
00010000
00001000
,
00010000
00000000
01000000
00000000
10000000
00100000
01000000
00000000
,
00010000
00000000
10000000
00000000
01000000
00010000
00001000
00000000
,
00000100
00000001
00000010
00001000
,
00011000
00000000
01001000
00000000
00010000
00001000
00010000
00001000
;

//---------------dance-double - ----------------
#NOTES:
     dance-double:
     :
     Hard:
     6:
     :
00000000
00000000
00000000
00000000
,
00000000
00000000
00000000
00000000
,
00000000
00000000
00000000
00000000
,
00000000
00000000
00000000
00000000
,
00010100
00000000
00000000
00000110
00000000
00000000
00000000
00000010
,
00000001
00000100
00001000
00010000
01000000
00000000
10000000
00100000
,
01100000
00000000
00000000
00000000
00000000
00000000
00000000
00010000
,
00001000
00010000
00001000
00000010
00000001
00000000
00000100
00001000
,
00001001
00000000
00000000
00000110
00000000
00000000
00000000
00000100
,
00001000
00000100
00001000
00010000
01000000
00000000
10000000
00000000
,
00000000
00010000
10000000
00010000
01000000
00100000
00010000
00001000
,
00000000
00000000
00000000
00100000
00010000
00001000
00000100
00000010
,
00000000
00000000
00000000
00010000
00001000
00000100
00000010
00000001
,
00000000
00000000
00000010
00000000
00001000
00000000
00000001
00000100
,
00000101
00000000
00001100
00000000
00000100
00010000
00001000
00100000
,
00000000
10010000
10010000
00000000
00100000
00001000
00010000
00000100
,
00000000
00000000
00000010
00000001
00000100
00001000
00010000
01000000
,
20000000
00000000
30100000
00000000
00000000
00000000
00100000
00010000
,
10000000
00010000
10000000
01000000
10000000
01000000
00010000
01000000
,
00010000
00001000
00010000
00001000
00000100
00001000
00000100
00000001
,
00000100
00000001
00000010
00000001
00000010
00000100
00000010
00000110
,
00000000
00000000
00000000
00010000
00000100
00010000
00000100
00001000
,
00000010
00000000
00000100
00000000
00001000
00010000
01000000
10000000
,
00000000
00100000
10000000
01000000
00010000
00001000
00000100
00000001
,
00000000
00000100
00000001
00000010
00001000
00010000
00100000
10000000
,
00000000
01000000
00010000
00001000
00000100
00001000
00010000
01000000
,
00010000
00000000
00001000
00000100
00000001
00000100
00001000
00010000
,
01000000
00000000
00000000
10000000
01000000
00100000
00010000
01100000
,
00000000
00000000
00101000
00000000
00000000
00000000
00011000
00000000
00000000
00000000
00010100
00000000
00000000
00000000
00022000
00033000
,
00010000
00000000
00022000
00033000
00001000
00000000
00022000
00033000
00010000
00000000
00001000
00000000
00011000
00000000
00000000
00000000
,
00100000
00000000
01000000
00000000
00010000
00001000
00000100
00000001
,
00000000
00000010
00000001
00000100
00001000
00010000
01000000
10000000
,
00000000
01000000
10000000
00100000
00010000
00001000
00000010
00000001
,
00000000
00000100
00001000
00010000
01000000
00010000
00001000
00000100
,
00001000
00000000
00010000
01000000
10000000
01000000
00010000
00001000
,
00000100
00000000
00000000
00000001
00000010
00000100
00001000
00000110
,
00000000
00010010
00000000
00011000
00000000
01001000
00000000
00010000
,
01010000
00000000
11000000
00000000
10000000
01000000
00010000
00001000
;
