#TITLE:My My My;
#ARTIST:Armand Van Helden;
#BANNER:My My My.png;
#BACKGROUND:My My My-bg.png;
#CDTITLE:./CDTITLES/Dance Dance Revolution EXTREME 2.png;
#MUSIC:My My My.ogg;
#SAMPLESTART:80.92;
#SAMPLELENGTH:15;
#DISPLAYBPM:128;
#BPMS:0=127.51;
#BGCHANGES:3.75=My My My.avi=1=1=0=0;

//---------------dance-single - ----------------
#NOTES:
     dance-single:
     :
     Beginner:
     1:
     :
0000
0000
0000
0000
,
0000
0000
0000
0000
,
0000
0000
0000
0000
,
1000
0000
0000
0000
,
0001
0000
0000
0000
,
1000
0000
1000
0000
,
0001
0000
0001
0000
,
0010
0000
0000
0000
,
0100
0000
0000
0000
,
1000
0000
1000
0000
,
0001
0000
0001
0000
,
1000
0000
0000
0000
,
0001
0000
0000
0000
,
1000
0000
1000
0000
,
0001
0000
0001
0000
,
0100
0000
0000
0000
,
0010
0000
0000
0000
,
0100
0000
0100
0000
,
0010
0000
0010
0000
,
1000
0000
1000
0000
,
0001
0000
0000
0000
,
0001
0000
0001
0000
,
1000
0000
0000
0000
,
0100
0000
0000
0000
,
0100
0000
0000
0000
,
0010
0000
0000
0000
,
0010
0000
0000
0000
,
0001
0001
0000
0000
,
1000
1000
0000
0000
,
0001
0001
0000
0000
,
1000
1000
0000
0000
,
0010
0000
0010
0000
,
0100
0000
0100
0000
,
0001
0000
0000
0000
,
1000
0000
0000
0000
,
1000
0000
0000
0000
,
0000
0000
0000
0000
,
1000
0000
0000
0000
,
0001
0000
0000
0000
,
0010
0000
0000
0000
,
0100
0000
0000
0000
,
0010
0000
0000
0000
,
0001
0000
0000
0000
,
1000
0000
1000
0000
,
0001
0000
0001
0000
,
0010
0000
0010
0000
,
0100
0000
0100
0000
,
1000
1000
1000
0000
,
0001
0001
0001
0000
,
1000
0000
1000
0000
,
0001
0000
0001
0001
;

//---------------dance-single - ----------------
#NOTES:
     dance-single:
     :
     Easy:
     3:
     :
0000
0000
0000
0000
,
0000
0000
0000
0000
,
0000
0000
0000
0000
,
1000
0000
1000
0000
,
0001
0000
0001
0000
,
0010
0000
0100
0000
,
0010
0100
0010
0000
,
1000
0000
0001
0000
,
1000
0001
1000
0000
,
0010
0000
0100
0000
,
0010
0100
0010
0000
,
0001
0000
1000
0000
,
0001
0001
1000
0000
,
0010
0010
0100
0100
,
0001
1000
0001
0000
,
0010
0000
0001
0000
,
1000
0100
1000
0000
,
0010
0000
1000
0000
,
0001
0100
0001
0000
,
2000
0000
3002
0000
,
0023
0000
0030
0000
,
0001
0000
1000
0000
,
0010
0100
0010
0000
,
0002
0000
2003
0000
,
3200
0000
0300
0000
,
0010
0000
0010
0000
,
0010
0000
0010
0000
,
1000
0000
0001
0000
,
1000
0010
1000
0000
,
0010
0010
0100
0100
,
0001
1000
1000
0000
,
0001
0000
1000
0000
,
0001
0010
0001
0000
,
0010
0010
0100
0100
,
1000
0001
0001
0000
,
0010
0000
0000
0000
,
0001
0000
0000
0000
,
1000
0000
0001
0000
,
0100
0000
0000
0000
,
0020
0000
0000
0030
,
0200
0000
0000
0300
,
0002
0000
2003
0000
,
3200
0000
0300
0000
,
1000
1000
0100
0000
,
0001
0001
0100
0000
,
1000
0000
0001
0000
,
0010
0010
0010
0000
,
0001
0001
0100
0000
,
1000
1000
0100
0000
,
1000
0000
0001
0000
,
1000
0001
1000
1001
;

//---------------dance-single - ----------------
#NOTES:
     dance-single:
     :
     Medium:
     5:
     :
0000
0000
0000
0000
,
0000
0000
0000
0000
,
0000
0000
0000
0000
,
1000
0000
0001
0000
1000
0001
1000
0000
,
0010
0000
0100
0000
0010
0100
0010
0000
,
1000
0010
1000
0000
0001
0100
0001
0000
,
1000
0001
0010
0100
,
1000
0000
0001
0000
1000
0001
1000
0000
,
0100
0000
0010
0000
0100
0010
0100
0000
,
1000
0100
1000
0000
0001
0010
0001
0000
,
1000
0001
0100
0010
,
1000
0000
0001
0000
0010
0001
0010
0000
,
0100
0000
1000
0000
0100
1000
0100
0000
,
0010
0001
0100
0000
0010
1000
0100
0000
,
0100
1000
0001
0000
0001
1000
0100
0000
,
0001
0000
1000
0000
0010
1000
0010
0000
,
0100
0000
0001
0000
0100
0001
0100
0000
,
0010
1000
0100
0000
0010
0001
0100
0000
,
0001
1000
0001
1000
0100
0000
0000
0000
,
1000
0100
0001
0000
,
0001
0100
1000
0000
,
1000
1000
1000
0000
,
0001
0000
0000
0000
,
2000
0000
3100
0000
,
0020
0000
0031
0000
,
0100
0001
1000
0000
,
0100
1000
0001
0100
,
0101
0000
0001
0000
1000
0001
1000
0000
,
1100
0000
1000
0000
0001
1000
0001
0000
,
1010
0100
0101
0001
,
0010
0100
1001
0000
,
1100
0000
1000
0000
0001
1000
0001
0000
,
0101
0000
0001
0000
1000
0001
1000
0000
,
0011
0100
1100
1000
,
0010
0100
1001
0000
,
1000
0010
1000
0000
0100
0000
0010
0000
,
0001
0100
0001
0000
1000
0000
0001
0000
,
1000
0100
1000
0000
0001
0100
0001
0000
,
1000
0001
1000
0001
0010
0000
0000
0000
,
0200
0000
0000
0300
,
2000
0000
0000
3000
,
0002
0000
0023
0000
,
0230
0000
0300
0110
,
1000
0100
1000
0100
0010
0000
0001
0000
,
0001
0100
0001
0100
0010
0000
1000
0000
,
1000
0100
1000
0000
0001
0010
0001
0000
,
1000
0100
1000
0010
0100
0000
0100
0000
,
0010
0100
0001
0100
0010
0000
0010
0000
,
1000
0100
0010
0100
1000
0000
1000
0000
,
0100
0010
0001
0000
0100
0010
1000
0000
,
0100
1000
0001
0100
0010
0000
0002
0000
,
0000
0000
0000
0003
;

//---------------dance-single - ----------------
#NOTES:
     dance-single:
     :
     Hard:
     7:
     :
0000
0000
0000
0000
,
0000
0000
0000
0000
,
0000
0000
0000
0000
,
1000
0000
0000
1000
0000
0000
1000
0000
0001
0000
0000
0001
0000
0000
0001
0000
,
0010
0000
0000
0001
0000
0000
0100
0000
0010
0000
0000
0000
0100
0000
0000
0000
,
0100
0001
0010
0100
1000
0001
1000
0000
,
0010
1000
0100
0010
0001
1000
0001
0000
,
0001
0000
0000
0001
0000
0000
0001
0000
1000
0000
0000
1000
0000
0000
1000
0000
,
0100
0000
0000
1000
0000
0000
0010
0000
0100
0000
0000
0000
0010
0000
0000
0000
,
0010
1000
0100
0010
0001
1000
0001
0000
,
0100
0001
0010
0100
1000
0001
1000
0000
,
0010
0000
0000
0001
0000
0000
0001
0000
0100
0000
0000
1000
0000
0000
1000
0000
,
0100
0000
0000
0001
0000
0000
0100
0000
0001
0000
0000
0000
1000
0000
0000
0000
,
0010
1000
0100
0010
0100
1000
0001
0000
,
0100
0001
0010
0100
1000
0010
0100
0000
,
0100
0000
0000
1000
0000
0000
1000
0000
0010
0000
0000
0001
0000
0000
0001
0000
,
0010
0000
0000
1000
0000
0000
0010
0000
1000
0000
0000
0000
0001
0000
0000
0000
,
0100
0001
0010
0100
0010
0001
1000
0000
,
0010
1000
0100
0010
0001
0100
0110
0000
,
1000
0000
0000
0001
0000
0000
0100
0000
0010
0000
0000
0000
0010
0000
0000
0000
,
0100
0000
0000
0001
0000
0000
1000
0000
0100
0000
0000
0000
0100
0000
0000
0000
,
0010
1000
0001
0010
0001
1000
0100
0000
,
0001
1000
0010
0100
0001
0000
1000
0000
,
0001
0000
0000
0100
0000
0000
0001
0000
1000
0000
0000
0000
1000
0000
0000
0000
,
0100
0000
0000
0010
0000
0000
0001
0000
1000
0000
0000
0000
0100
0000
0000
0000
,
0001
0100
0010
1000
,
2002
0000
0000
3003
,
1001
0000
0000
0010
0000
0000
1000
0000
0100
0000
0000
0000
1001
0000
0000
0000
,
0100
0000
0000
0001
0000
0000
0010
0000
0100
0000
0000
0000
1000
0000
0000
0000
,
0010
1000
0000
0010
1000
0000
0001
0000
0010
0001
0000
0010
0001
0000
1000
0000
,
0010
0100
0000
0010
,
1001
0000
0000
0010
0000
0000
0100
0000
0010
0000
0000
0000
1001
0000
0000
0000
,
0001
0000
0000
0010
0000
0000
0100
0000
0010
0000
0000
0000
0001
0000
0000
0000
,
0010
0001
0000
0010
0001
0000
1000
0000
0100
1000
0000
0100
1000
0000
0001
0000
,
0100
0010
0000
1000
,
0010
1000
0000
1000
0100
0000
0010
0000
0001
0000
0000
0000
0011
0000
0000
0000
,
0010
0001
0000
0001
0100
0000
0010
0000
1000
0000
0000
0000
1001
0000
0000
0000
,
0100
1000
0000
1000
0010
0000
0100
0000
0001
0010
0000
0010
0100
0000
1000
0000
,
0001
1000
0000
1000
0100
0000
0010
0000
0000
0000
0000
0000
1001
0000
0000
0000
,
0010
0001
0000
0001
1000
0000
0100
0000
0000
0000
0000
0000
0000
0000
0000
0000
,
0010
1000
0000
1000
0001
0000
0100
0000
0000
0000
0000
0000
0000
0000
0000
0000
,
1000
0100
0000
0100
0010
0000
0001
0000
0100
0010
0000
0010
1000
0000
0001
0000
,
0010
0001
0000
0001
0010
0000
0100
0000
0000
0000
0000
0000
1001
0000
0000
0000
,
0010
1000
0000
0001
1000
0000
0001
0000
0100
0000
0010
0000
0100
0000
0000
0000
,
0001
0010
0000
0001
1000
0000
0100
0000
1000
0000
0010
0000
0100
0000
0000
0000
,
0010
1000
0000
0010
1000
0000
0100
0000
1000
0001
0000
1000
0001
0000
0010
0000
,
0001
0100
0000
0001
0100
0000
0010
0000
1000
0000
0100
0000
1000
0000
0000
0000
,
0100
0010
0000
0100
0010
0000
0100
0000
1000
0000
1000
0000
0010
0000
0000
0000
,
0010
0100
0000
0010
0100
0000
0010
0000
0100
0000
0100
0000
0001
0000
0000
0000
,
1000
0100
0000
1000
0100
0000
0010
0000
0001
0100
0000
0001
0100
0000
0010
0000
,
1000
0010
0000
1000
0010
0000
0100
0000
0001
0000
0001
0000
2000
0000
0000
0000
,
0000
0000
0000
3000
;

//---------------dance-double - ----------------
#NOTES:
     dance-double:
     :
     Easy:
     3:
     :
00000000
00000000
00000000
00000000
,
00000000
00000000
00000000
00000000
,
00000000
00000000
00000000
00000000
,
00010000
00000000
00010000
00000000
,
00001000
00000000
00001000
00000000
,
00000010
00000000
00000100
00000000
,
00001000
00000001
00001000
00000000
,
00001000
00000000
00001000
00000000
,
00010000
00000000
00010000
00000000
,
00100000
00000000
01000000
00000000
,
00010000
10000000
00010000
00000000
,
10000000
00000000
01000000
00000000
,
00010000
00010000
00001000
00000000
,
00000010
00000010
00000001
00000001
,
00000100
00000010
00000100
00000000
,
00001000
00000000
00010000
00000000
,
00001000
00010000
00001000
00000000
,
00100000
00000000
01000000
00000000
,
10000000
01000000
10000000
00000000
,
00020000
00000000
00230000
00000000
,
00302000
00000000
00003000
00000000
,
00010000
00000000
00000100
00000000
,
00000010
00000100
00000010
00000000
,
00002000
00000000
00003020
00000000
,
00020030
00000000
00030000
00000000
,
00001000
00000000
00100000
00000000
,
00010000
00000000
10000000
00000000
,
10000000
00000000
00010000
00000000
,
10000000
00010000
10000000
00000000
,
01000000
00010000
00001000
00000000
,
00010000
00001000
00000100
00000000
,
00000001
00000000
00001000
00000000
,
00000001
00001000
00000001
00000000
,
00000100
00001000
00010000
00000000
,
00001000
00010000
01000000
00000000
,
01000000
00000000
00000000
00000000
,
00010000
00000000
00000000
00000000
,
00001000
00000000
00000100
00000000
,
00000001
00000000
00000000
00000000
,
00000200
00000000
00000000
00000300
,
00002000
00000000
00000000
00003000
,
00020000
00000000
00032000
00000000
,
00203000
00000000
00300000
00000000
,
00010000
00010000
01000000
00000000
,
10000000
10000000
01000000
00000000
,
01000000
00000000
00010000
00000000
,
00001000
00000100
00000001
00000000
,
00001000
00001000
00000100
00000000
,
00000001
00000001
00000100
00000000
,
00000010
00000000
00000001
00000000
,
00000100
00001000
00010000
00011000
;

//---------------dance-double - ----------------
#NOTES:
     dance-double:
     :
     Medium:
     6:
     :
00000000
00000000
00000000
00000000
,
00000000
00000000
00000000
00000000
,
00000000
00000000
00000000
00000000
,
00000001
00000000
00001000
00000000
00000001
00000100
00001000
00000000
,
00010000
00000000
00001000
00000000
00010000
01000000
10000000
00000000
,
00100000
10000000
01000000
00000000
01000000
00010000
00001000
00000000
,
00010000
00100000
10000000
01000000
,
10000000
00000000
00010000
00000000
10000000
01000000
00010000
00000000
,
00001000
00000000
00010000
00000000
00001000
00000100
00000001
00000000
,
00000010
00000001
00000100
00000000
00000100
00001000
00010000
00000000
,
00001000
00000010
00000001
00000100
,
00000001
00000000
00000010
00000000
00000100
00010000
00001000
00000000
,
00100000
00000000
00010000
00000000
10000000
00010000
01000000
00000000
,
00100000
10000000
01000000
00000000
00010000
00001000
00000100
00000000
,
00001000
00010000
01000000
00000000
10000000
00010000
00100000
00000000
,
10000000
00000000
00100000
00000000
01000000
00001000
00010000
00000000
,
00000010
00000000
00001000
00000000
00000001
00001000
00000100
00000000
,
00000010
00000001
00000100
00000000
00001000
00010000
01000000
00000000
,
00010000
00001000
00000100
00000000
00000001
00001000
00000010
00000000
,
00001000
00000001
00000100
00000000
,
00001000
00010000
00100000
00000000
,
10000000
01000000
00010000
00000000
,
00001000
00000000
00000000
00000000
,
00000002
00000000
00000103
00000000
,
00002000
00000000
00013000
00000000
,
00100000
10000000
01000000
00000000
,
00100000
00010000
10000000
00100000
,
10100000
00000000
10000000
00000000
01000000
00010000
00001000
00000000
,
00011000
00000000
00001000
00000000
00000100
00000001
00000010
00000000
,
00000011
00000100
00001100
00001000
,
00001010
00000101
00001100
00000000
,
00000011
00000000
00000001
00000000
00000100
00001000
00010000
00000000
,
00011000
00000000
00010000
00000000
01000000
10000000
00100000
00000000
,
10100000
01000000
01010000
00010000
,
00110000
11000000
01010000
00000000
,
00100000
01000000
00010000
00000000
00001000
00000000
00000100
00000000
,
00000010
00001000
00000100
00000000
00001000
00000000
00000001
00000000
,
00000001
00000100
00000001
00000000
00001000
00000100
00001000
00000000
,
00000100
00010000
00001000
00010000
00001000
00000000
00000000
00000000
,
02000000
00000000
00000000
03000000
,
00200000
00000000
00000000
00300000
,
20000000
00000000
32000000
00000000
,
03020000
00000000
00030000
00011000
,
00010000
00001000
00000100
00000001
00000100
00000000
00000001
00000000
,
00000010
00000100
00000001
00000100
00001000
00000000
00000001
00000000
,
00000010
00000001
00000100
00000000
00000100
00001000
00010000
00000000
,
00001000
00010000
01000000
10000000
01000000
00000000
10000000
00000000
,
01000000
00010000
00001000
00010000
00001000
00000000
00000100
00000000
,
00000001
00000010
00000100
00000010
00000001
00000000
00001000
00000000
,
00000010
00000100
00001000
00000000
00001000
00010000
00100000
00000000
,
00100000
10000000
00010000
01000000
00001000
00010000
00002000
00000000
,
00000000
00000000
00000000
00003000
;

//---------------dance-double - ----------------
#NOTES:
     dance-double:
     :
     Hard:
     7:
     :
00000000
00000000
00000000
00000000
,
00000000
00000000
00000000
00000000
,
00000000
00000000
00000000
00000000
,
00000001
00000000
00000000
00000010
00000000
00000000
00000100
00000000
00000000
00000000
00000000
00000000
00000000
00000000
00000000
00000000
,
00010000
00000000
00000000
00100000
00000000
00000000
01000000
00000000
00000000
00000000
00000000
00000000
00000000
00000000
00000000
00000000
,
00100000
10000000
01000000
00010000
01000000
00010000
00001000
00000100
,
00001000
00000100
00001000
00010000
01000000
10000000
01000000
00000000
,
10000000
00000000
00000000
01000000
00000000
00000000
00100000
00000000
00000000
00000000
00000000
00000000
00000000
00000000
00000000
00000000
,
00001000
00000000
00000000
00000100
00000000
00000000
00000010
00000000
00000000
00000000
00000000
00000000
00000000
00000000
00000000
00000000
,
00000010
00000001
00000100
00001000
00000100
00001000
00010000
01000000
,
00010000
01000000
00010000
00001000
00000100
00000001
00000100
00000000
,
00000001
00000000
00000000
00000010
00000000
00000000
00000100
00000000
00000010
00000000
00000000
00000100
00000000
00000000
00001000
00000000
,
00000010
00000000
00000000
00000100
00000000
00000000
00001000
00000000
00000100
00000000
00000000
00001000
00000000
00000000
00010000
00000000
,
00100000
00010000
00100000
00010000
00001000
00010000
00001000
00000010
,
00001000
00000010
00001000
00010000
01000000
10000000
01000000
00000000
,
10000000
00000000
00000000
01000000
00000000
00000000
00100000
00000000
01000000
00000000
00000000
00100000
00000000
00000000
00010000
00000000
,
01000000
00000000
00000000
00100000
00000000
00000000
00010000
00000000
00100000
00000000
00000000
00010000
00000000
00000000
00001000
00000000
,
00000010
00001000
00000010
00001000
00010000
00001000
00010000
00100000
,
00010000
00100000
00010000
00001000
00000100
00000001
00000100
00000000
,
00000010
00000000
00000000
00000100
00000000
00000000
00001000
00000000
00000000
00000000
00000000
00000000
00000000
00000000
00000000
00000000
,
00100000
00000000
00000000
01000000
00000000
00000000
10000000
00000000
00000000
00000000
00000000
00000000
00000000
00000000
00000000
00000000
,
10000000
01000000
00100000
00000000
00100000
00010000
00001000
00000000
,
00001000
00000001
00000010
00000000
00000001
00000000
00001000
00000000
,
00000200
00000000
00000000
00020000
00000300
00000000
00002000
00000000
00030000
00000000
00000000
00000000
00000000
00000000
00000000
00003000
,
00020000
00000000
00000000
02030000
00000000
00000000
20000000
00000000
03000000
00000000
00000000
00000000
32000000
00000000
00000000
00000000
,
00200000
03000000
00000000
00000000
00020000
00300000
00000000
00000000
00002000
00030000
00000000
00000000
00000002
00003000
00000000
00000000
,
00000020
00000003
00000000
00000000
00002000
00000030
00000000
00000000
00020000
00000000
00000000
00000000
00033000
00000000
00000000
00000000
,
01000000
10000000
00100000
10000000
01000000
10000000
00010000
00100000
,
01000000
10000000
01000000
00010000
00001000
00010000
01000000
00010000
,
00001000
00000100
00001000
00010000
00001000
00000100
00000001
00000010
,
00000001
00000100
00000001
00000010
00000100
00001000
00000001
00000000
,
00001000
00000001
00000010
00001000
00010000
00100000
10000000
01000000
,
00100000
00010000
10000000
00010000
00100000
01000000
10000000
01000000
,
00010000
00001000
00000100
00000001
00000010
00000001
00000010
00000100
,
00001000
00000001
00000010
00001000
00010000
00100000
10000000
00000000
,
01000000
00000000
00000000
00100000
01000000
00000000
00100000
00000000
00000000
00000000
00000000
00000000
00000000
00000000
00000000
00000000
,
00001000
00000000
00000000
00010000
00001000
00000000
00010000
00000000
00000000
00000000
00000000
00000000
00000000
00000000
00000000
00000000
,
00100000
00000000
00000000
00010000
00100000
00000000
00010000
00000000
00001000
00000000
00000000
00010000
00001000
00000000
00000010
00000000
,
00000001
00000000
00000000
00000010
00000001
00000000
00000010
00000000
00000000
00000000
00000000
00000000
00000000
00000000
00000000
00000000
,
00000100
00000000
00000000
00000010
00000100
00000000
00000010
00000000
00000000
00000000
00000000
00000000
00000000
00000000
00000000
00000000
,
00010000
00000000
00000000
00001000
00010000
00000000
00001000
00000000
00000000
00000000
00000000
00000000
00000000
00000000
00000000
00000000
,
00000002
00000000
00000000
00000000
00000203
00000000
00000000
00000000
00002300
00000000
00000000
00000000
00020000
00003000
00000000
00000000
,
02000000
00030000
00000000
00000000
20000000
00000000
00000000
33000000
00000000
00000000
00000000
00000000
10010000
00000000
00000000
00000000
,
10000000
00010000
10000000
01000000
00010000
00001000
00010000
00001000
,
00000100
00000001
00001000
00000001
00000010
00000100
00001000
00000000
,
00000001
00001000
00000001
00000100
00001000
00010000
00001000
00010000
,
01000000
10000000
00010000
10000000
00100000
01000000
00010000
00000000
,
01000000
00000000
00000000
00100000
00000000
00000000
00010000
00000000
00000000
00000000
00000000
00000000
00000000
00000000
00000000
00000000
,
00000100
00000000
00000000
00000010
00000000
00000000
00000001
00000000
00000000
00000000
00000000
00000000
00000000
00000000
00000000
00000000
,
00000001
00000010
00000100
00000010
00000100
00001000
00000010
00000100
,
00001000
00000100
00001000
00010000
00100000
00010000
00200000
00000000
,
00000000
00000000
00000000
00300000
;
