#TITLE:INJECTION OF LOVE (HINA MIX);
#ARTIST:AKIRA YAMAOKA;
#BANNER:INJECTION OF LOVE (HINA MIX).png;
#BACKGROUND:INJECTION OF LOVE (HINA MIX)-bg.png;
#CDTITLE:./CDTITLES/beatmaniaIIDX.PNG;
#MUSIC:INJECTION OF LOVE (HINA MIX).ogg;
#SAMPLESTART:59.982;
#SAMPLELENGTH:15;
#DISPLAYBPM:160;
#BPMS:0=161.435,4=160.028,54=159.993;
#STOPS:54=0.373,157=0.38;
#BGCHANGES:7.75=INJECTION OF LOVE (HINA MIX).avi=1=1=0=0,248.75=INJECTION OF LOVE (HINA MIX)-bg.png=1=0=0=1;

//---------------dance-single - ----------------
#NOTES:
     dance-single:
     :
     Beginner:
     1:
     :
0000
0000
0000
0000
,
0000
0000
0000
0000
,
0000
0000
0000
0000
,
0000
0000
0000
0000
,
0000
0000
0000
0000
,
0000
0000
0000
0000
,
1000
0000
1000
0000
,
0001
0000
0001
0000
,
1000
0000
1000
0000
,
0001
0000
0001
0000
,
0100
0000
0100
0000
,
0010
0000
0010
0000
,
0001
0000
1000
0000
,
0001
0000
1001
0000
,
0000
0010
0000
0010
,
0000
0001
0001
0000
,
0000
1000
0000
1000
,
0000
0100
0100
0000
,
0000
1000
0000
1000
,
0000
0001
0000
0001
,
0000
0010
0000
0010
,
0000
0100
0000
0100
,
0000
0001
0000
1000
,
0000
0001
0001
0000
,
0000
1000
0000
0001
,
0000
0100
0100
0000
,
0000
0001
0000
1000
,
0000
1000
0000
0001
,
0000
0001
0000
0100
,
0000
0001
0000
1000
,
0000
0000
0000
0000
,
0000
0001
0001
0000
,
0000
0000
0000
0000
,
0000
1000
1000
0000
,
0000
0001
0000
0001
,
0000
1000
1000
0000
,
0000
1000
0000
0000
,
0000
1000
1000
1000
,
0000
0001
0000
1000
,
1000
1000
0000
0000
,
1000
0000
0001
0001
,
0001
0000
1000
0000
,
0100
0000
0010
0010
,
0010
0000
0100
0000
,
1000
0000
0001
0000
,
1000
0000
0001
0000
,
1000
0000
0001
0001
,
0001
0001
0000
0000
,
1000
0000
0010
0000
,
0100
0000
0001
0000
,
1000
0000
0010
0000
,
1000
1000
0000
0000
,
0100
0000
0010
0000
,
0001
0001
0000
1000
,
0000
0100
0000
1000
,
0000
0001
0000
0000
,
1000
0000
1000
0000
,
0001
0000
1000
0000
,
0100
0000
0010
0000
,
0001
0000
0010
0000
,
0001
0000
0001
0000
,
0100
0000
0010
0000
,
1000
0000
0100
0000
,
1000
1000
0000
0000
;

//---------------dance-single - ----------------
#NOTES:
     dance-single:
     :
     Easy:
     4:
     :
0000
0000
0000
0000
,
0000
0000
0000
0000
,
0000
0000
0000
0000
,
0000
0000
0000
0000
,
0000
0000
0000
0000
,
0000
0000
0000
0000
,
0001
0000
1000
0000
,
0001
0000
1000
0001
,
1000
0000
0001
0000
,
0100
0000
0001
0010
,
0001
0000
1000
0000
,
1000
0000
0001
0100
,
0001
0000
1000
0000
,
0001
1000
1001
1000
,
0000
0100
0000
1000
,
0100
1000
0001
0000
,
0000
1000
0000
0001
,
0000
1000
1000
0001
,
0001
0100
0000
1000
,
1000
0100
0000
0001
,
0001
0100
0000
0001
,
1000
0001
0100
0000
,
0000
0010
1000
0001
,
0000
0100
0001
0100
,
0000
1000
0000
0001
,
0000
0001
1000
0001
,
0001
0010
0000
1000
,
1000
0010
0000
0001
,
0001
0010
0000
0001
,
0001
1000
1000
0010
,
0000
0100
0000
0001
,
0000
1001
1001
0000
,
0000
0010
0000
1000
,
0000
1001
1001
0000
,
0000
0001
0000
0100
,
0000
1001
1001
0000
,
0000
1000
0000
0100
,
0000
1000
0001
0010
,
0001
1000
0001
1000
,
1000
0001
1000
0000
,
0001
0000
0100
0010
,
0100
0100
0010
0000
,
0100
0000
0001
1000
,
0001
0001
1000
0000
,
0100
0000
1000
0000
,
0010
0000
1000
0001
,
1000
0001
0010
0100
,
0100
0000
0000
0100
,
0000
1000
0000
0100
,
0100
0100
0000
0010
,
0000
0001
0000
1000
,
1000
1000
0000
0001
,
0000
1000
0000
0010
,
0000
0100
0000
0001
,
0100
0001
1000
0010
,
1000
0010
0000
1000
,
0000
0001
0000
1000
,
0000
0001
0000
1000
,
0000
0100
0010
0001
,
0010
0100
0000
1000
,
0000
0010
0000
1000
,
0000
0010
0000
0100
,
0000
1000
0100
0001
,
0010
1000
0000
0000
;

//---------------dance-single - ----------------
#NOTES:
     dance-single:
     :
     Medium:
     6:
     :
0000
0000
0000
0000
,
0000
0000
0000
0000
,
0000
0000
0000
0000
,
0000
0000
0000
0000
,
0000
0000
0000
0000
,
0000
0000
0000
0000
,
0010
2000
0010
3100
,
1100
0000
0001
0001
,
0100
0002
0100
0013
,
0011
0000
1000
1000
,
0001
0020
0001
0130
,
0110
0000
0100
0100
,
1000
0020
1000
0130
,
0110
0001
2000
3001
,
1000
0001
0010
0100
,
1000
0100
0010
0001
,
0001
1000
0100
0010
,
0001
0001
0100
0010
,
1000
0001
1001
0010
,
0100
0001
0101
0010
,
0100
1000
1100
0001
,
1000
0010
0001
0010
,
1000
0100
0010
0001
,
0010
0001
0100
1000
,
0100
0001
0010
0100
,
1000
0001
0001
0010
,
0001
0010
0011
0100
,
1000
0010
1010
0100
,
0001
1000
1001
0010
,
1000
0100
0100
0200
,
0300
2000
3000
0002
,
0003
1000
0100
0020
,
0030
0200
0300
0020
,
0030
0001
0100
0020
,
0030
0200
0300
0020
,
0030
1000
0100
0002
,
0003
0200
0300
1000
,
0010
0100
0001
0001
,
1000
1000
0001
0100
,
0010
0220
0330
1000
,
1000
0001
0001
1000
,
1100
0011
0000
0010
,
0010
0100
0100
0010
,
0110
1001
0000
1000
,
0100
1100
0000
0001
,
0100
0101
0002
0013
,
0020
0130
0200
1300
,
0010
1001
0000
0001
,
0001
1000
1000
0001
,
0101
1010
0000
0100
,
0100
0010
0010
0100
,
0110
1001
0000
0001
,
0100
0101
0000
1000
,
0100
1100
2000
3010
,
0020
0130
0200
0301
,
0010
1001
0000
0001
,
0100
0110
0000
1000
,
0100
0110
0000
1000
,
0100
0001
0010
1000
,
0100
0001
0000
1100
,
1000
0100
1000
0101
,
0001
0100
0001
1000
,
0001
1000
0100
0010
,
0100
1001
0000
0000
;

//---------------dance-single - ----------------
#NOTES:
     dance-single:
     :
     Hard:
     7:
     :
0000
0000
0000
0000
,
0000
0000
0000
0000
,
0000
0000
0000
0000
,
0000
0000
0000
0000
,
0000
0000
0000
0000
,
0000
0000
0000
0000
,
1000
0000
0000
0000
0000
0000
0000
0000
1100
0000
0000
0000
0000
0000
0000
0000
0010
0000
0000
0000
0000
0000
0000
0000
0100
0000
0000
0000
0000
1000
0000
0000
,
0000
0000
0000
0000
0000
0000
0000
0000
0000
0000
0000
0000
0000
0000
0000
0000
0000
0000
0000
0000
0000
0000
0000
0000
0000
0000
0000
0000
0000
0000
0000
0000
1000
0000
0000
0000
0000
0000
0000
0000
0000
0000
0001
0000
0000
0000
0000
0000
0000
0000
0000
0000
0000
0010
0000
0000
0000
0000
0000
0000
0000
0000
0000
0000
,
0001
0000
0000
0000
0000
0000
0000
0000
0101
0000
0000
0000
0000
0000
0000
0000
0010
0000
0000
0000
0000
0000
0000
0000
0010
0000
0000
0000
0000
0001
0000
0000
,
0000
0000
0000
0000
0000
0000
0000
0000
0000
0000
0000
0000
0000
0000
0000
0000
0000
0000
0000
0000
0000
0000
0000
0000
0000
0000
0000
0000
0000
0000
0000
0000
1000
0000
0000
0000
0000
0000
0000
0000
0000
0000
0100
0000
0000
0000
0000
0000
0000
0000
0000
0000
0000
0010
0000
0000
0000
0000
0000
0000
0000
0000
0000
0000
,
0100
0000
0000
0000
0000
0000
0000
0000
0110
0000
0000
0000
0000
0000
0000
0000
0100
0000
0000
0000
0000
0000
0000
0000
1000
0000
0000
0000
0000
0001
0000
0000
,
0000
0000
0000
0000
0000
0000
0000
0000
0000
0000
0000
0000
0000
0000
0000
0000
0000
0000
0000
0000
0000
0000
0000
0000
0000
0000
0000
0000
0000
0000
0000
0000
0001
0000
0000
0000
0000
0000
0000
0000
0000
0000
0100
0000
0000
0000
0000
0000
0000
0000
0000
0000
0000
0010
0000
0000
0000
0000
0000
0000
0000
0000
0000
0000
,
0100
0000
0000
0000
0000
0000
0000
0000
0110
0000
0000
0000
0000
0000
0000
0000
0100
0000
0000
0000
0000
0000
0000
0000
0001
0000
0000
0000
0000
1000
0000
0000
,
0000
1001
0210
0301
,
0001
0000
0000
0000
0000
0000
0000
0000
0000
0000
0000
0000
0000
1000
0000
0000
0002
0000
0000
0000
0000
0000
0000
0000
0013
0000
0000
0000
0000
0000
0000
0000
,
0010
0000
0000
0000
0000
0000
0000
0000
0000
0000
0000
0000
0000
0001
0000
0000
0200
0000
0000
0000
0000
0000
0000
0000
0301
0000
0000
0000
0000
0000
0000
0000
,
0001
0000
0000
0000
0000
0000
0000
0000
0000
0000
0000
0000
0000
1000
0000
0000
0020
0000
0000
0000
0000
0000
0000
0000
0130
0000
0000
0000
0000
0000
0000
0000
,
0100
0000
0000
0000
0000
0000
0000
0000
0010
0000
0000
0000
0000
1000
0000
0000
0000
0000
0000
0000
0000
0010
0000
0000
1000
0000
0000
0000
0000
0001
0000
0000
,
0010
0000
0000
0000
0000
0100
0000
0000
0000
0000
0000
0000
0000
1000
0000
0000
0000
0000
0000
0000
0000
0100
0000
0000
1000
0000
0000
0000
0000
0001
0000
0000
,
0100
0000
0000
0000
0000
0010
0000
0000
0000
0000
0000
0000
0000
1000
0000
0000
0000
0000
0000
0000
0000
0100
0000
0000
0010
0000
0000
0000
0000
0001
0000
0000
,
1000
0000
0000
0000
0000
0010
0000
0000
0000
0000
0000
0000
0000
0100
0000
0000
0000
0000
0000
0000
0000
0001
0000
0000
1000
0000
0000
0000
0000
1000
0000
0000
,
0100
0000
0000
0000
0000
0100
0000
0000
0010
0000
0000
0000
0000
0010
0000
0000
0001
0000
0000
0000
0000
0000
0000
0000
1000
0000
0000
0000
0000
0000
0000
0000
,
1000
0000
0000
0000
0000
0000
0000
0000
1000
0000
0000
0000
0000
0001
0000
0000
0100
0000
0000
0000
0000
0001
0000
0000
0100
0000
0000
0000
0000
0000
0000
0000
,
0010
0000
0000
0000
0000
0000
0000
0000
0010
0000
0000
0000
0000
1000
0000
0000
0001
0000
0000
0000
0000
0000
0000
0000
0010
0000
0000
0000
0000
0000
0000
0000
,
0010
0000
0000
0000
0000
0000
0000
0000
0010
0000
0000
0000
0000
0100
0000
0000
2000
0000
0000
0000
0000
0000
0000
0000
3010
0000
0000
0000
0000
0000
0000
0000
,
0010
0000
0000
0000
0000
0000
0000
0000
0010
0000
0000
0000
0000
1000
0000
0000
0001
0000
0000
0000
0000
0010
0000
0000
0001
0000
0000
0000
0000
1000
0000
0000
,
0010
0000
0000
0000
0000
0100
0000
0000
0000
0000
0000
0000
0000
0001
0000
0000
0000
0000
0000
0000
0000
0100
0000
0000
0001
0000
0000
0000
0000
1000
0000
0000
,
0100
0000
0000
0000
0000
0010
0000
0000
0000
0000
0000
0000
0000
0001
0000
0000
0000
0000
0000
0000
0000
0100
0000
0000
0010
0000
0000
0000
0000
1000
0000
0000
,
0001
0000
0000
0000
0000
0010
0000
0000
0000
0000
0000
0000
0000
0100
0000
0000
0000
0000
0000
0000
0000
1000
0000
0000
0001
0000
0000
0000
0000
0001
0000
0000
,
0100
0000
0000
0000
0000
0100
0000
0000
0010
0000
0000
0000
0000
0010
0000
0000
1000
0000
0000
0000
0000
0000
0000
0000
0002
0000
0000
0000
0000
0000
0000
0000
,
0000
0100
0000
0100
,
0003
1001
1001
2000
,
0000
0100
0000
0100
,
3000
1001
1001
0001
,
0000
0000
0000
0000
0000
1000
0000
0000
0010
0000
0000
0000
0000
0000
0000
0000
0000
0000
0000
0000
0000
1000
0000
0000
0100
0000
0000
0000
0000
0000
0000
0000
,
0000
0110
1001
1000
,
0000
0000
0000
0000
0000
0001
0000
0000
0010
0000
0000
0000
0000
0000
0000
0000
0000
0000
0000
0000
0000
0001
0000
0000
0100
0000
0000
0000
0000
0000
0000
0000
,
0001
0000
0000
0000
0000
0010
0000
0000
0001
0000
0000
0000
0000
0000
0000
0000
1000
0000
0000
0000
0000
0100
0000
0000
1000
0000
0000
0000
0000
0000
0000
0000
,
0001
0000
0000
0000
0000
0100
0000
0000
0001
0000
0000
0000
0000
0000
0000
0000
1000
0000
0000
0000
0000
0010
0000
0000
1000
0000
0000
0000
0000
0000
0000
0000
,
0001
0000
0000
0000
0000
0010
0000
0000
0000
0000
0100
0000
0000
0000
0000
0000
2000
0000
0000
0000
0000
0000
0000
0000
0000
0000
0000
0000
0000
0000
0000
0000
3010
0000
0000
0000
0000
0000
0000
0000
0000
0000
0000
0000
0000
0000
0000
0000
0110
0000
0000
0000
0000
0000
0000
0000
0000
0000
0000
0000
0000
0000
0000
0000
,
0101
1010
0101
0011
,
1100
1001
0000
0011
,
1001
0101
1010
1001
,
1100
0000
0000
0000
0000
0000
0000
0000
0110
0000
0000
0000
0000
0000
0000
0000
0001
0000
0000
0000
0000
0100
0000
0000
0010
0000
0000
0000
0000
1000
0000
0000
,
0000
0000
0000
0000
0000
0100
0000
0000
0010
0000
0000
0000
0000
0001
0000
0000
0000
0000
0000
0000
0000
0100
0000
0000
0010
0000
0000
0000
0000
1000
0000
0000
,
0000
0000
0000
0000
0000
0001
0000
0000
0010
0000
0000
0000
0000
0010
0000
0000
0100
0000
0000
0000
0000
0100
0000
0000
1000
0000
0000
0000
0000
0010
0000
0000
,
0000
0000
0000
0000
0000
0100
0000
0000
0001
0000
0000
0000
0000
0010
0000
0000
0000
0000
0000
0000
0000
0100
0000
0000
1000
0000
0000
0000
0000
0010
0000
0000
,
1000
0000
0000
0000
0000
0001
0000
0000
0000
0000
1000
0000
0000
0000
0000
0000
0001
0000
0000
0000
0000
1000
0000
0000
0000
0000
0001
0000
0000
0000
0000
0000
1000
0000
0000
0000
0000
0000
0000
0000
0000
0000
0000
0000
0000
0000
0000
0000
1100
0000
0000
0000
0000
0000
0000
0000
0000
0000
0000
0000
0000
0000
0000
0000
,
0110
0011
0101
0110
,
1100
0110
0000
0101
,
1010
1100
0011
1001
,
1100
0000
0000
0000
0000
0000
0000
0000
0110
0000
0000
0000
0000
0000
0000
0000
0001
0000
0000
0000
0000
1000
0000
0000
0100
0000
0000
0000
0000
0010
0000
0000
,
0000
0000
0000
0000
0000
0001
0000
0000
0100
0000
0000
0000
0000
0010
0000
0000
0000
0000
0000
0000
0000
1000
0000
0000
0100
0000
0000
0000
0000
0010
0000
0000
,
0000
0000
0000
0000
0000
0001
0000
0000
0100
0000
0000
0000
0000
0100
0000
0000
0010
0000
0000
0000
0000
0010
0000
0000
1000
0000
0000
0000
0000
0100
0000
0000
,
0000
0000
0000
0000
0000
0010
0000
0000
0001
0000
0000
0000
0000
0100
0000
0000
0000
0000
0000
0000
0000
0010
0000
0000
1000
0000
0000
0000
0000
0100
0000
0000
,
1000
0000
0000
0000
0000
0100
0000
0000
0000
0000
1000
0000
0000
0000
0000
0000
0100
0000
0000
0000
0000
1000
0000
0000
0000
0000
0100
0000
0000
0000
0000
0000
1000
0000
0000
0000
0000
0000
0000
0000
0000
0000
0000
0000
0000
0000
0000
0000
0001
0000
0000
0000
0000
0000
0000
0000
0000
0000
0100
0000
0000
0000
0000
0000
,
0010
0000
0000
0000
0000
0100
0000
0000
0010
0000
0000
0000
0000
1000
0000
0000
0000
0000
0000
0000
0000
0000
0000
0000
0100
0000
0000
0000
0000
0010
0000
0000
,
0001
0000
0000
0000
0000
0010
0000
0000
0001
0000
0000
0000
0000
1000
0000
0000
0000
0000
0000
0000
0000
0000
0000
0000
0020
0000
0000
0000
0000
0000
0000
0000
,
0230
0302
0023
2030
,
3020
0000
0000
0000
0000
0000
0000
0000
0031
0000
0000
0000
0000
0000
0000
0000
1000
0000
0000
0000
0000
0001
0000
0000
0000
0000
0000
0000
0000
0010
0000
0000
,
0001
0000
0000
0000
0000
0010
0000
0000
0000
0000
0000
0000
0000
0100
0000
0000
0000
0000
0000
0000
0000
1000
0000
0000
0000
0000
0000
0000
0000
0100
0000
0000
,
1000
0000
0000
0000
0000
0010
0000
0000
0000
0000
0000
0000
0000
0100
0000
0000
0000
0000
0000
0000
0000
0001
0000
0000
0000
0000
0000
0000
0000
0100
0000
0000
,
0001
0000
0000
0000
0000
0100
0000
0000
0000
0000
0000
0000
0000
0010
0000
0000
0000
0000
0000
0000
0000
1000
0000
0000
0000
0000
0000
0000
0000
0001
0000
0000
,
1000
0001
0000
0000
;

//---------------dance-double - ----------------
#NOTES:
     dance-double:
     :
     Easy:
     4:
     :
00000000
00000000
00000000
00000000
,
00000000
00000000
00000000
00000000
,
00000000
00000000
00000000
00000000
,
00000000
00000000
00000000
00000000
,
00000000
00000000
00000000
00000000
,
00000000
00000000
00000000
00000000
,
10000000
00000000
01000000
00000000
,
00010000
00000000
00001000
00010000
,
00001000
00000000
00001000
00000000
,
00000100
00000000
00000001
00001000
,
00000001
00000000
00000010
00000000
,
00001000
00000000
00010000
00000100
,
00010000
00000000
00001000
00000000
,
01000000
00010000
10010000
10000000
,
00000000
01000000
00000000
10000000
,
00100000
10000000
00010000
01000000
,
00000000
00001000
00000000
00010000
,
00000000
00001000
00000100
00000001
,
00000001
00000100
00000000
00000100
,
00000100
00001000
00000000
00010000
,
00010000
00001000
00000000
00100000
,
00010000
00010000
10000000
00000000
,
00000000
01000000
10000000
00010000
,
00000000
00100000
01000000
00100000
,
00000000
00001000
00010000
00001000
,
00000000
00000010
00001000
00000010
,
00000010
00000001
00000000
00000100
,
00000100
00001000
00000000
00010000
,
00010000
01000000
00000000
10000000
,
10000000
00010000
00010000
10000000
,
00000000
01000000
00000000
00010000
,
00000000
00011000
00011000
00000000
,
00000000
00001000
00000000
00000100
,
00000000
00001001
00001001
00000000
,
00000000
00000010
00000000
00001000
,
00000000
00011000
00011000
00000000
,
00000000
00010000
00000000
00100000
,
00000000
10000000
00010000
00100000
,
00010000
10000000
01000000
00010000
,
00010000
00001000
00010000
00000000
,
00000010
00000000
00001000
00000001
,
00001000
00001000
00000100
00000000
,
00010000
00000000
00001000
00010000
,
00001000
00001000
00100000
00000000
,
00010000
00000000
10000000
00000000
,
01000000
00000000
10000000
00010000
,
10000000
00010000
00100000
01000000
,
01000000
10000000
00000000
01000000
,
01000000
00010000
00000000
00001000
,
00010000
00001000
00000000
00000010
,
00000010
00000001
00000000
00001000
,
00000001
00001000
00000000
00000100
,
00000000
00010000
00000000
00001000
,
00000000
00100000
00000000
01000000
,
10000000
00100000
00010000
00001000
,
00010000
00001000
00000000
00000010
,
00000010
00000001
00000000
00001000
,
00001000
00000100
00000000
00000010
,
00000001
00000100
00000001
00000010
,
00001000
00010000
00000000
00001000
,
00001000
00100000
00000000
00010000
,
00010000
10000000
00000000
01000000
,
01000000
00010000
00001000
00000100
,
00000001
00000001
00000000
00000000
;

//---------------dance-double - ----------------
#NOTES:
     dance-double:
     :
     Medium:
     6:
     :
00000000
00000000
00000000
00000000
,
00000000
00000000
00000000
00000000
,
00000000
00000000
00000000
00000000
,
00000000
00000000
00000000
00000000
,
00000000
00000000
00000000
00000000
,
00000000
00000000
00000000
00000000
,
00020000
00032000
00103000
00010000
,
10010000
00000000
01000000
10000000
,
00200000
02300000
03001000
00010000
,
00011000
00000000
00001000
00010000
,
00000200
00002300
00003001
00000010
,
00000011
00000000
00001000
00000010
,
00000200
00000302
00001003
00000100
,
00010100
00001000
00020000
00031000
,
00010000
01000000
10000000
00010000
,
10000000
00200000
00310000
00001000
,
00000100
00000001
00001000
00000001
,
00000010
00001000
00010000
00001000
,
00100000
00001000
00101000
00010000
,
00000010
00010000
00010010
00001000
,
00100000
01000000
10010000
00200000
,
00320000
00032000
00003200
00000301
,
00000100
00001000
00000100
00000001
,
00001000
00000001
00000010
00001000
,
00010000
01000000
10000000
00010000
,
10000000
01000000
00010000
00001000
,
01000000
00001000
01001000
00010000
,
00000100
00010000
00010100
00001000
,
00000100
00000010
00001001
00000001
,
00001000
00000010
00000100
00002000
,
00003000
00000200
00000300
00000020
,
00000030
00001010
00011000
00020000
,
00030000
02000000
03000000
00200000
,
00300000
00110000
00011000
00020000
,
00030000
00000200
00000300
00002000
,
00003000
00001010
00010010
00002000
,
00003000
00200000
00300000
00020000
,
01030000
01010000
00100000
00101000
,
00010000
00001100
00000010
00001010
,
00010000
00002000
00013000
00200000
,
20300000
30020000
10030000
11000000
,
10010000
00110000
00000000
00002000
,
00023000
00030200
00000310
00000011
,
00001001
00000101
00000000
00000010
,
00001000
00010000
00000000
01000000
,
10000000
00100000
00020000
00031000
,
00002000
00003100
00000200
00000301
,
00000010
00001000
00010000
00002000
,
00203000
00320000
10030000
10100000
,
01100000
01010000
00000000
00002000
,
00023000
00030020
00000130
00000101
,
00001001
00001100
00000000
00000001
,
00000010
00001000
00000000
00010000
,
00100000
10000000
02000000
03010000
,
00020000
00031000
00002000
00003100
,
00000001
00000010
00000000
00001000
,
00010000
00000100
00000000
00010000
,
00001000
01000000
00000000
00020000
,
00230000
20300000
30200000
00320000
,
00130000
00001000
00000000
00011000
,
00001000
00000100
00000001
00000011
,
00000100
00001000
00000001
00000100
,
00000010
00000001
00000010
00001000
,
00010000
01000000
00000000
00000000
;

//---------------dance-double - ----------------
#NOTES:
     dance-double:
     :
     Hard:
     7:
     :
00000000
00000000
00000000
00000000
,
00000000
00000000
00000000
00000000
,
00000000
00000000
00000000
00000000
,
00000000
00000000
00000000
00000000
,
00000000
00000000
00000000
00000000
,
00000000
00000000
00000000
00000000
,
00001000
00000000
00000000
00000000
00000000
00000000
00000000
00000000
00011000
00000000
00000000
00000000
00000000
00000000
00000000
00000000
01000000
00000000
00000000
00000000
00000000
00000000
00000000
00000000
10000000
00000000
00000000
00000000
00000000
01000000
00000000
00000000
,
00000000
00000000
00000000
00000000
00000000
00000000
00000000
00000000
00000000
00000000
00000000
00000000
00000000
00000000
00000000
00000000
00000000
00000000
00000000
00000000
00000000
00000000
00000000
00000000
00000000
00000000
00000000
00000000
00000000
00000000
00000000
00000000
10000000
00000000
00000000
00000000
00000000
00000000
00000000
00000000
00000000
00000000
01000000
00000000
00000000
00000000
00000000
00000000
00000000
00000000
00000000
00000000
00000000
00010000
00000000
00000000
00000000
00000000
00000000
00000000
00000000
00000000
00000000
00000000
,
00001000
00000000
00000000
00000000
00000000
00000000
00000000
00000000
00011000
00000000
00000000
00000000
00000000
00000000
00000000
00000000
00000100
00000000
00000000
00000000
00000000
00000000
00000000
00000000
00000001
00000000
00000000
00000000
00000000
00000100
00000000
00000000
,
00000000
00000000
00000000
00000000
00000000
00000000
00000000
00000000
00000000
00000000
00000000
00000000
00000000
00000000
00000000
00000000
00000000
00000000
00000000
00000000
00000000
00000000
00000000
00000000
00000000
00000000
00000000
00000000
00000000
00000000
00000000
00000000
00000001
00000000
00000000
00000000
00000000
00000000
00000000
00000000
00000000
00000000
00001000
00000000
00000000
00000000
00000000
00000000
00000000
00000000
00000000
00000000
00000000
00000010
00000000
00000000
00000000
00000000
00000000
00000000
00000000
00000000
00000000
00000000
,
00000100
00000000
00000000
00000000
00000000
00000000
00000000
00000000
00000110
00000000
00000000
00000000
00000000
00000000
00000000
00000000
00001000
00000000
00000000
00000000
00000000
00000000
00000000
00000000
00010000
00000000
00000000
00000000
00000000
00001000
00000000
00000000
,
00000000
00000000
00000000
00000000
00000000
00000000
00000000
00000000
00000000
00000000
00000000
00000000
00000000
00000000
00000000
00000000
00000000
00000000
00000000
00000000
00000000
00000000
00000000
00000000
00000000
00000000
00000000
00000000
00000000
00000000
00000000
00000000
01000000
00000000
00000000
00000000
00000000
00000000
00000000
00000000
00000000
00000000
10000000
00000000
00000000
00000000
00000000
00000000
00000000
00000000
00000000
00000000
00000000
00100000
00000000
00000000
00000000
00000000
00000000
00000000
00000000
00000000
00000000
00000000
,
00010000
00000000
00000000
00000000
00000000
00000000
00000000
00000000
00011000
00000000
00000000
00000000
00000000
00000000
00000000
00000000
00000100
00000000
00000000
00000000
00000000
00000000
00000000
00000000
00000010
00000000
00000000
00000000
00000000
00001000
00000000
00000000
,
00000000
00000000
00011000
00000000
00022000
00003000
00031000
00000000
,
00011000
00000000
00000000
00000000
00000000
00000000
00000000
00000000
00000000
00000000
00000000
00000000
00000000
00000100
00000000
00000000
00000020
00000000
00000000
00000000
00000000
00000000
00000000
00000000
00000130
00000000
00000000
00000000
00000000
00000000
00000000
00000000
,
00000100
00000000
00000000
00000000
00000000
00000000
00000000
00000000
00000000
00000000
00000000
00000000
00000000
00010000
00000000
00000000
00002000
00000000
00000000
00000000
00000000
00000000
00000000
00000000
00013000
00000000
00000000
00000000
00000000
00000000
00000000
00000000
,
00010000
00000000
00000000
00000000
00000000
00000000
00000000
00000000
00000000
00000000
00000000
00000000
00000000
01000000
00000000
00000000
20000000
00000000
00000000
00000000
00000000
00000000
00000000
00000000
31000000
00000000
00000000
00000000
00000000
00000000
00000000
00000000
,
00200000
00000000
00000000
00000000
00000000
00000000
00300000
00000000
00010000
00000000
00000000
00000000
00000000
00010000
00000000
00000000
00000000
00000000
00000000
00000000
00000000
10000000
00000000
00000000
01000000
00000000
00000000
00000000
00000000
00010000
00000000
00000000
,
01000000
00000000
00000000
00000000
00000000
00010000
00000000
00000000
00000000
00000000
00000000
00000000
00000000
00001000
00000000
00000000
00000000
00000000
00000000
00000000
00000000
00010000
00000000
00000000
00000100
00000000
00000000
00000000
00000000
00000010
00000000
00000000
,
00000100
00000000
00000000
00000000
00000000
00001000
00000000
00000000
00000000
00000000
00000000
00000000
00000000
00000001
00000000
00000000
00000000
00000000
00000000
00000000
00000000
00000100
00000000
00000000
00000010
00000000
00000000
00000000
00000000
00000100
00000000
00000000
,
00000001
00000000
00000000
00000000
00000000
00000100
00000000
00000000
00000000
00000000
00000000
00000000
00000000
00001000
00000000
00000000
00000000
00000000
00000000
00000000
00000000
00010000
00000000
00000000
00001000
00000000
00000000
00000000
00000000
00010000
00000000
00000000
,
01000000
10000000
01000000
00010000
,
00011000
00000000
00000000
00000000
00000000
00000000
00000000
00000000
00001000
00000000
00000000
00000000
00000000
00000100
00000000
00000000
00001000
00000000
00000000
00000000
00000000
00000100
00000000
00000000
00000001
00000000
00000000
00000000
00000000
00000000
00000000
00000000
,
00000010
00000000
00000000
00000000
00000000
00000000
00000000
00000000
00001000
00000000
00000000
00000000
00000000
00001000
00000000
00000000
00000020
00000000
00000000
00000000
00000000
00000000
00000000
00000000
00000032
00000000
00000000
00000000
00000000
00000000
00000000
00000000
,
00000203
00000000
00000000
00000000
00000000
00000000
00000300
00000000
00001000
00000000
00000000
00000000
00000000
00010000
00000000
00000000
00001000
00000000
00000000
00000000
00000000
00000000
00000000
00000000
00002000
00000000
00000000
00000000
00000000
00000000
00000000
00000000
,
02003000
00000000
00000000
00000000
00000000
00000000
03000000
00000000
00010000
00000000
00000000
00000000
00000000
00010000
00000000
00000000
00100000
00000000
00000000
00000000
00000000
00000000
00000000
00000000
01000000
00000000
00000000
00000000
00000000
10000000
00000000
00000000
,
01000000
00000000
00000000
00000000
00000000
10000000
00000000
00000000
00000000
00000000
00000000
00000000
00000000
01000000
00000000
00000000
00000000
00000000
00000000
00000000
00000000
00010000
00000000
00000000
00001000
00000000
00000000
00000000
00000000
00010000
00000000
00000000
,
00001000
00000000
00000000
00000000
00000000
00000100
00000000
00000000
00000000
00000000
00000000
00000000
00000000
00000001
00000000
00000000
00000000
00000000
00000000
00000000
00000000
00000010
00000000
00000000
00000100
00000000
00000000
00000000
00000000
00001000
00000000
00000000
,
00000100
00000000
00000000
00000000
00000000
00001000
00000000
00000000
00000000
00000000
00000000
00000000
00000000
00000001
00000000
00000000
00000000
00000000
00000000
00000000
00000000
00001000
00000000
00000000
00000001
00000000
00000000
00000000
00000000
00000000
00000000
00000000
,
00000100
00000000
00000000
00000000
00000000
00000000
00000000
00000000
00000000
00000000
00000000
00000000
00000000
00000000
00000000
00000000
00001000
00000000
00000000
00000000
00000000
00000000
00000000
00000000
00000000
00000000
00000000
00000000
00000000
00000000
00000000
00000000
00010000
00000000
00000000
00000000
00000000
00001000
00000000
00000000
00000000
00000000
00010000
00000000
00000000
00000000
00000000
00000000
00002000
00000000
00000000
00000000
00000000
00000000
00000000
00000000
00000000
00000000
00000000
00000000
00000000
00000000
00000000
00000000
,
00003000
02000000
03000000
00200000
,
00300000
11000000
10010000
02000000
,
03000000
00020000
00030000
00000200
,
00000300
00000000
00000000
00000000
00001100
00000000
00000000
00000000
00001001
00000000
00000000
00000000
00000020
00000000
00000000
00000030
,
00000000
00000000
00000000
00000000
00000000
00000001
00000000
00000000
00000200
00000000
00000000
00000000
00000000
00000000
00000300
00000000
00000000
00000000
00000000
00000000
00000000
00000010
00000000
00000000
00020000
00000000
00000000
00000000
00000000
00000000
00000000
00000000
,
00030000
00000000
00000000
00000000
00011000
00000000
00000000
00000000
01001000
00000000
00000000
00000000
02000000
00000000
00000000
03000000
,
00000000
00000000
00000000
00000000
00000000
00010000
00000000
00000000
00200000
00000000
00000000
00000000
00000000
00000000
00300000
00000000
00000000
00000000
00000000
00000000
00000000
01000000
00000000
00000000
20000000
00000000
00000000
00000000
00000000
00000000
30000000
00000000
,
00010000
00000000
00000000
00000000
00000000
01000000
00000000
00000000
00010000
00000000
00000000
00000000
00000000
00000000
00000000
00000000
10000000
00000000
00000000
00000000
00000000
01000000
00000000
00000000
10000000
00000000
00000000
00000000
00000000
00000000
00000000
00000000
,
00010000
00000000
00000000
00000000
00000000
00100000
00000000
00000000
00010000
00000000
00000000
00000000
00000000
00000000
00000000
00000000
00001000
00000000
00000000
00000000
00000000
00010000
00000000
00000000
00001000
00000000
00000000
00000000
00000000
00000000
00000000
00000000
,
00000010
00000000
00000000
00000000
00000000
00000001
00000000
00000000
00002000
00000000
00000000
00000000
00000000
00000000
00000000
00000000
00003001
00000000
00000000
00000000
00000000
00000000
00000000
00000000
00000101
00000000
00000000
00000000
00000000
00000000
00000000
00000000
,
00000100
00001100
00011000
00001010
,
00001100
00011000
00000000
00011000
,
00010000
01010000
01100000
00110000
,
01010000
00000000
00000000
00000000
00000000
00000000
00000000
00000000
11000000
00000000
00000000
00000000
00000000
00000000
00000000
00000000
10000000
00000000
00000000
00000000
00000000
00100000
00000000
00000000
01000000
00000000
00000000
00000000
00000000
00100000
00000000
00000000
,
00000000
00000000
00000000
00000000
00000000
00010000
00000000
00000000
00001000
00000000
00000000
00000000
00000000
00010000
00000000
00000000
00000000
00000000
00000000
00000000
00000000
00000010
00000000
00000000
00001000
00000000
00000000
00000000
00000000
00000010
00000000
00000000
,
00000000
00000000
00000000
00000000
00000000
00001000
00000000
00000000
00000001
00000000
00000000
00000000
00000000
00001000
00000000
00000000
00000000
00000000
00000000
00000000
00000000
00000010
00000000
00000000
00000100
00000000
00000000
00000000
00000000
00000100
00000000
00000000
,
00000000
00000000
00000000
00000000
00000000
00000001
00000000
00000000
00001000
00000000
00000000
00000000
00000000
00001000
00000000
00000000
00000000
00000000
00000000
00000000
00000000
00000100
00000000
00000000
00000010
00000000
00000000
00000000
00000000
00000001
00000000
00000000
,
00000100
00000000
00000000
00000000
00000000
00000001
00000000
00000000
00000000
00000000
00000100
00000000
00000000
00000000
00000000
00000000
00000001
00000000
00000000
00000000
00000000
00000100
00000000
00000000
00000000
00000000
00000001
00000000
00000000
00000000
00000000
00000000
00000100
00000000
00000000
00000000
00000000
00000000
00000000
00000000
00000000
00000000
00000000
00000000
00000000
00000000
00000000
00000000
00000101
00000000
00000000
00000000
00000000
00000000
00000000
00000000
00000000
00000000
00000000
00000000
00000000
00000000
00000000
00000000
,
00000100
00001100
00011000
00101000
,
01100000
01010000
00000000
00011000
,
00001000
00001100
00000110
00010010
,
00011000
00000000
00000000
00000000
00000000
00000000
00000000
00000000
01010000
00000000
00000000
00000000
00000000
00000000
00000000
00000000
10000000
00000000
00000000
00000000
00000000
00100000
00000000
00000000
01000000
00000000
00000000
00000000
00000000
00100000
00000000
00000000
,
00000000
00000000
00000000
00000000
00000000
00010000
00000000
00000000
00001000
00000000
00000000
00000000
00000000
00010000
00000000
00000000
00000000
00000000
00000000
00000000
00000000
00000010
00000000
00000000
00001000
00000000
00000000
00000000
00000000
00000010
00000000
00000000
,
00000000
00000000
00000000
00000000
00000000
00001000
00000000
00000000
00000001
00000000
00000000
00000000
00000000
00000100
00000000
00000000
00000000
00000000
00000000
00000000
00000000
00001000
00000000
00000000
00010000
00000000
00000000
00000000
00000000
00010000
00000000
00000000
,
00000000
00000000
00000000
00000000
00000000
00001000
00000000
00000000
00100000
00000000
00000000
00000000
00000000
00100000
00000000
00000000
00000000
00000000
00000000
00000000
00000000
01000000
00000000
00000000
10000000
00000000
00000000
00000000
00000000
01000000
00000000
00000000
,
00100000
00000000
00000000
00000000
00000000
01000000
00000000
00000000
00000000
00000000
00100000
00000000
00000000
00000000
00000000
00000000
01000000
00000000
00000000
00000000
00000000
00100000
00000000
00000000
00000000
00000000
01000000
00000000
00000000
00000000
00000000
00000000
00100000
00000000
00000000
00000000
00000000
00000000
00000000
00000000
00000000
00000000
00000000
00000000
00000000
00000000
00000000
00000000
01000000
00000000
00000000
00000000
00000000
00000000
00000000
00000000
00000000
00000000
10000000
00000000
00000000
00000000
00000000
00000000
,
01000000
00000000
00000000
00000000
00000000
10000000
00000000
00000000
01000000
00000000
00000000
00000000
00000000
00010000
00000000
00000000
00000000
00000000
00000000
00000000
00000000
00000000
00000000
00000000
00010000
00000000
00000000
00000000
00000000
00001000
00000000
00000000
,
00010000
00000000
00000000
00000000
00000000
00001000
00000000
00000000
00010000
00000000
00000000
00000000
00000000
00000010
00000000
00000000
00000000
00000000
00000000
00000000
00000000
00000000
00000000
00000000
00000200
00000000
00000000
00000000
00000000
00000000
00000000
00000000
,
00000001
00000302
00000010
00000023
,
00001000
00000000
00000000
00000000
00000000
00000000
00000000
00000000
00001030
00000000
00000000
00000000
00000000
00000000
00000000
00000000
00000010
00000000
00000000
00000000
00000000
00000001
00000000
00000000
00000000
00000000
00000000
00000000
00000000
00000100
00000000
00000000
,
00001000
00000000
00000000
00000000
00000000
00010000
00000000
00000000
00000000
00000000
00000000
00000000
00000000
00001000
00000000
00000000
00000000
00000000
00000000
00000000
00000000
01000000
00000000
00000000
00000000
00000000
00000000
00000000
00000000
00100000
00000000
00000000
,
10000000
00000000
00000000
00000000
00000000
00100000
00000000
00000000
00000000
00000000
00000000
00000000
00000000
10000000
00000000
00000000
00000000
00000000
00000000
00000000
00000000
00010000
00000000
00000000
00000000
00000000
00000000
00000000
00000000
00100000
00000000
00000000
,
01000000
00000000
00000000
00000000
00000000
00010000
00000000
00000000
00000000
00000000
00000000
00000000
00000000
00001000
00000000
00000000
00000000
00000000
00000000
00000000
00000000
00000100
00000000
00000000
00000000
00000000
00000000
00000000
00000000
00001000
00000000
00000000
,
00010000
01000000
00000000
00000000
;
