#TITLE:I will Survive;
#ARTIST:AKIRA feat. Daline;
#BANNER:I will Survive.png;
#BACKGROUND:I will Survive-bg.png;
#CDTITLE:./CDTITLES/Dance Dance Revolution EXTREME 2.png;
#MUSIC:I will Survive.ogg;
#SAMPLESTART:33.856;
#SAMPLELENGTH:15;
#DISPLAYBPM:132;
#BPMS:0=132.11,8=131.994;
#BGCHANGES:7.75=I will Survive.avi=1=1=0=0,199.5=I will Survive-bg.png=1=0=0=1;

//---------------dance-single - ----------------
#NOTES:
     dance-single:
     :
     Beginner:
     1:
     :
0000
0000
0000
0000
,
0000
0000
0000
0000
,
0000
0000
0000
0000
,
0000
0000
0000
0000
,
0000
0000
0000
0000
,
1000
0000
0000
0000
,
0001
0000
0000
0000
,
0100
0000
0000
0000
,
0010
0000
0000
0000
,
0100
0000
0000
0000
,
0001
0000
0000
0000
,
1000
1000
1000
0000
,
0001
0000
1000
0000
,
0001
0001
0001
0000
,
1000
0000
0001
0000
,
0010
0000
0010
0000
,
0100
0000
0100
0000
,
0010
0000
0010
0000
,
1000
0000
1000
0000
,
0001
0000
0000
0100
,
0100
0000
0000
0010
,
0010
0000
0000
0100
,
0100
0000
0000
0001
,
0001
0000
0000
1000
,
1000
0000
0000
0001
,
0001
0000
0010
0000
,
0010
0000
0100
0000
,
0100
0100
0000
0000
,
1000
1000
0000
0000
,
0001
0000
0001
0000
,
0100
0000
0010
0000
,
0100
0100
0000
0000
,
0010
0010
0000
0000
,
1000
0000
1000
0000
,
0001
0000
0001
0000
,
1000
1000
0000
0000
,
0100
0000
0100
0000
,
0100
0000
0000
0010
,
0010
0000
0010
0000
,
0001
0000
0000
0001
,
0001
0000
0010
0000
,
0010
0000
0100
0000
,
0100
0000
1000
0000
,
1000
1000
0000
0000
,
0001
0000
0001
0000
,
0100
0000
0000
0010
,
0010
0000
0010
0000
,
0100
0000
0000
1000
,
1000
0000
0100
0000
,
0100
0000
0010
0000
,
0010
0000
0001
0000
;

//---------------dance-single - ----------------
#NOTES:
     dance-single:
     :
     Easy:
     3:
     :
0000
0000
0000
0000
,
0000
0000
0000
0000
,
0000
0000
0000
0000
,
0000
0000
0000
0000
,
0000
0000
0000
0000
,
2000
0000
0000
3000
,
0002
0000
0000
0003
,
0010
0001
0100
0000
,
0010
1000
0100
0000
,
1001
0000
0000
0000
,
0010
0010
0010
0000
,
0001
0100
0000
0000
,
1000
0100
0000
0000
,
0010
0001
0100
0100
,
0001
1000
0001
0000
,
0010
0010
0100
0000
,
1000
0001
1000
0000
,
0020
0000
0030
0000
,
0200
0000
0300
0000
,
1000
0100
0001
0000
,
0001
0010
1000
0000
,
1000
0100
0001
0010
,
1000
1000
1000
0000
,
0001
0100
0010
0000
,
1000
1000
0001
1000
,
2001
0000
3000
0000
,
1002
0000
0003
0000
,
0010
0010
0000
0000
,
0100
0100
0000
0000
,
0010
1000
0001
0001
,
1000
0001
0100
0000
,
1000
0010
1000
0000
,
0001
0100
0001
0000
,
2000
0000
3000
0000
,
0002
0000
0003
0000
,
1000
1000
0000
0001
,
0100
0000
1000
0001
,
0200
0000
0000
0300
,
0001
0100
1000
0100
,
0010
0000
0001
1000
,
0010
0001
0100
1000
,
0002
0000
0003
0000
,
2000
0000
3000
0000
,
0001
0001
0000
1000
,
0100
0000
0001
1000
,
0200
0000
0000
0300
,
1000
0100
0001
0100
,
0010
0000
1000
0001
,
0010
1000
0100
0001
,
2000
0000
3000
0000
,
0002
0000
0003
1001
;

//---------------dance-single - ----------------
#NOTES:
     dance-single:
     :
     Medium:
     6:
     :
0000
0000
0000
0000
,
0000
0000
0000
0000
,
0000
0000
0000
0000
,
0000
0000
0000
0000
,
0000
0000
0000
0000
,
2000
0010
3020
0100
,
0230
0001
0302
1000
,
1003
0100
1000
0010
0000
0000
0100
0000
,
0100
0001
0100
0002
0000
0000
0013
0000
,
0220
0000
0330
1001
,
0001
1000
0001
0100
0001
0000
1001
0000
,
0100
0000
0010
0010
0000
1000
1000
0000
,
0001
0000
0010
0010
0000
0000
0100
0000
,
1000
0000
0001
0001
0000
0100
0100
0000
,
0010
0000
1000
1000
0000
0000
0001
0000
,
1000
0000
0100
0100
0000
0010
0010
0000
,
0100
0000
1000
1000
0000
0000
0001
0000
,
0101
0000
0000
1100
0000
0000
0100
0000
,
0110
0000
0000
1001
0000
0000
0001
0000
,
0010
0100
1000
0000
0001
0010
0100
0000
,
0020
0001
0032
1000
,
1003
0010
0100
0000
0010
0100
0001
0000
,
0200
0001
0302
1000
,
1003
0100
1000
0000
0001
0000
1000
0000
,
0001
0100
0001
0000
1000
0000
0001
0000
,
1001
0000
0000
0110
0000
0000
0001
0000
,
0101
0000
0000
1100
0000
0000
1000
0000
,
0001
1000
0001
0000
0000
0000
0010
0000
,
0100
1000
0100
0000
0000
0000
0001
0000
,
0100
0010
0100
0000
1000
0001
1000
0000
,
0001
1000
0002
0000
0000
0000
0013
0000
,
0100
0100
0100
0000
0000
0000
0001
0000
,
1000
1000
1000
0000
0000
0000
0010
0000
,
1001
0000
0000
0110
0000
0000
1000
0000
,
1100
0000
0000
0101
0000
0000
0001
0000
,
0002
1000
2003
0010
,
3010
0000
0100
0000
0010
1000
0010
1000
,
0001
0020
0001
0032
,
1000
0000
1003
0000
0100
1000
0100
1000
,
0001
2000
0010
3010
,
1000
0010
0100
0001
0100
0000
0001
0000
,
1001
0000
0000
0110
0000
0000
0001
0000
,
0101
0000
0000
1100
0000
0000
1000
0000
,
0020
0100
0230
0001
,
0301
0000
0010
0000
0001
0010
0001
0010
,
0100
0020
0001
0031
,
0100
0001
0100
0001
1000
0000
0002
0000
,
1000
2003
0100
3100
,
0001
0010
0100
1000
0100
0000
1000
0000
,
1001
0000
0000
0110
0000
0000
0001
0000
,
0101
0000
0000
1100
0000
0000
1000
0001
;

//---------------dance-single - ----------------
#NOTES:
     dance-single:
     :
     Hard:
     7:
     :
0000
0000
0000
0000
,
0000
0000
0000
0000
,
0000
0000
0000
0000
,
0000
0000
0000
0000
,
0000
0000
0000
0000
,
0010
1000
0100
0000
0010
0001
0100
0000
,
0010
1000
0001
0000
0011
0000
1100
0000
,
0010
0001
0100
2000
0000
0000
3001
0000
,
0001
0010
1000
0200
0000
0000
0301
0000
,
0110
0000
0000
0000
0000
0001
1000
0010
,
1000
0100
0010
0001
0100
0000
1001
0000
,
2000
0000
3001
0100
0000
0001
0100
0010
,
2000
0000
3100
0010
0000
0100
0010
0001
,
0200
0000
0301
0010
0000
0001
0010
1000
,
0200
0000
1300
0001
0000
0100
1001
0000
,
0010
0100
1000
0002
1003
0100
0001
0100
,
0010
0001
0100
1000
0100
0010
1001
0000
,
0101
0000
0000
1100
0000
0000
1001
0000
,
1100
0000
0000
0101
0000
0000
1001
0000
,
0010
0000
1000
0000
0100
0000
0010
0001
0000
0000
1000
0000
0001
0000
0100
0000
,
0010
0000
0001
0000
0010
0000
1000
0100
0000
0000
1000
0000
0001
0000
0100
0000
,
1000
0000
0100
0000
0001
0000
0010
0001
0000
0000
1000
0000
0100
0000
1000
0000
,
0100
0000
0010
0000
0001
0000
0010
1000
0000
0000
0010
0000
0001
0000
1000
0000
,
0010
0000
0100
0000
1000
0000
0100
0001
0000
0000
1000
0000
0100
0000
0010
0000
,
0001
0000
1000
0000
0001
0000
0100
1000
0000
0000
0100
0000
0010
0000
1000
0000
,
1100
0000
0000
0101
0000
0000
1001
0000
,
0101
0000
0000
1100
0000
0000
1001
0000
,
0010
0001
1000
0000
0000
0100
1000
0010
,
0100
0001
1000
0000
0000
0100
0010
0100
,
0010
1000
0100
0001
0100
1000
0010
0010
,
1000
0001
0010
0001
0000
1000
0100
0001
,
0100
0010
0001
0000
0000
0010
0001
1000
,
0010
0100
0001
0000
0000
1000
0001
0010
,
0011
0000
0000
1100
0000
0100
1000
0001
,
1001
0000
0000
0110
0000
0001
1000
0010
,
0001
0000
1100
0000
0001
0010
0001
1000
,
0100
0000
1000
0001
0000
0100
1000
0100
,
0001
0000
0100
0001
0000
1000
0100
0010
,
0001
0000
1000
0100
1000
0000
0100
0000
0010
0000
0001
0010
0001
0000
1000
0000
,
0001
0110
0001
0010
,
1000
0100
0010
0001
0100
0010
1000
0100
,
0010
0100
1000
0001
1000
0010
0100
0010
,
1000
0001
0100
0010
1000
0001
0100
0000
,
1001
0000
0101
0000
1000
0010
1000
0100
,
1000
0000
0001
0100
0000
0010
1000
0100
,
0010
1001
0010
0100
,
0010
0000
0001
0100
0001
0000
0100
0000
0010
0000
1000
0010
1000
0000
0100
0000
,
0010
0110
1000
0100
,
0001
1000
0010
0100
0001
1000
0100
0010
,
0001
1000
0010
0100
0010
1000
0100
0010
,
0001
1000
0010
1000
0001
1000
0100
1001
;

//---------------dance-double - ----------------
#NOTES:
     dance-double:
     :
     Easy:
     3:
     :
00000000
00000000
00000000
00000000
,
00000000
00000000
00000000
00000000
,
00000000
00000000
00000000
00000000
,
00000000
00000000
00000000
00000000
,
00000000
00000000
00000000
00000000
,
00002000
00000000
00000000
00003000
,
00020000
00000000
00000000
00030000
,
00001000
00100000
00010000
00000000
,
10000000
01000000
00010000
00000000
,
00011000
00000000
00000000
00000000
,
00000010
00000010
00000010
00000000
,
00000001
00000100
00000000
00000000
,
00001000
00010000
00000000
00000000
,
00100000
10000000
01000000
10000000
,
00010000
01000000
00001000
00000000
,
00000100
00000100
00000010
00000000
,
00001000
00000001
00000100
00000000
,
00001000
00000000
00000000
00000000
,
00010000
00000000
00000000
00000000
,
00001000
00010000
00100000
00000000
,
00010000
00001000
00000100
00000000
,
00001000
00010000
00100000
00000000
,
00100000
10000000
01000000
00000000
,
01000000
00010000
00001000
00000000
,
00010000
00001000
00000100
00000001
,
00001000
00000000
00000000
00000000
,
00000001
00000000
00000000
00000000
,
00001000
00001000
00000000
00000000
,
00010000
00010000
00000000
00000000
,
00100000
10000000
00010000
00100000
,
10000000
01000000
00010000
00000000
,
00001000
00010000
00000010
00000000
,
00010000
00001000
00100000
00000000
,
01000000
00000000
00000000
00000000
,
00100000
00000000
00000000
00000000
,
10000000
10000000
00000000
01000000
,
00010000
00000000
00010000
00001000
,
00000200
00000000
00000000
00000300
,
00000010
00000100
00000001
00000100
,
00001000
00000000
00010000
01000000
,
10000000
00000000
00100000
00000000
,
00010000
00000000
00000000
00000000
,
00001000
00000000
00000000
00000000
,
00000001
00000001
00000000
00000100
,
00001000
00000000
00001000
00010000
,
02000000
00000000
00000000
03000000
,
00100000
01000000
10000000
01000000
,
00010000
00000000
00001000
00000100
,
00000001
00000000
00000010
00000000
,
00001000
00000000
00000000
00000000
,
00010000
00000000
00000000
00011000
;

//---------------dance-double - ----------------
#NOTES:
     dance-double:
     :
     Medium:
     5:
     :
00000000
00000000
00000000
00000000
,
00000000
00000000
00000000
00000000
,
00000000
00000000
00000000
00000000
,
00000000
00000000
00000000
00000000
,
00000000
00000000
00000000
00000000
,
10000000
00010000
10000000
01000000
,
00010000
00001000
00000100
00000001
,
00000010
00000001
00000010
00000100
00000000
00000000
00001000
00000000
,
00000010
00000100
00001000
00010000
00000000
00000000
00010000
00000000
,
02000000
00000000
00000000
13000000
,
10000000
01000000
00100000
00010000
10000000
00000000
01000000
00000000
,
00010000
00000000
00001000
00010000
00000000
00000000
00000000
00000000
,
00000001
00000000
00000010
00000001
00000000
00000000
00000000
00000000
,
00001000
00000000
00000100
00001000
00000000
00000000
00000000
00000000
,
01000000
00000000
00010000
01000000
00000000
00000000
00000000
00000000
,
00100000
00000000
10000000
00100000
00000000
00000000
00000000
00000000
,
00001000
00000000
00010000
00001000
00000000
00000000
00000000
00000000
,
00000002
00000000
00000000
00000010
00000000
00000000
00000103
00000000
,
00002000
00000000
00000000
00000100
00000000
00000000
00003010
00000000
,
00000010
00000100
00000010
00000100
00000010
00000000
00000000
00000000
,
00010000
00001000
00010000
00001000
00010000
00000000
00000000
00000000
,
01000000
00100000
01000000
00100000
01000000
00000000
00000000
00000000
,
10000000
01000000
10000000
01000000
10000000
00000000
00000000
00000000
,
01000000
00010000
01000000
00000000
00010000
00001000
00010000
00000000
,
00001000
00000100
00001000
00010000
,
02000000
00000000
00000000
00100000
00000000
00000000
13000000
00000000
,
00020000
00000000
00000000
10000000
00000000
00000000
01030000
00000000
,
00100000
10000000
10100000
00000000
00000000
00000000
10000000
00000000
,
01000000
00010000
01010000
00000000
00000000
00000000
00100000
00000000
,
00001000
00010000
00001000
00000000
00000100
00001000
00000100
00000000
,
00000001
00000100
00000001
00000000
00001001
00000000
00000000
00000000
,
00000100
00001000
00001100
00000000
00000000
00000000
00010000
00000000
,
01000000
10000000
11000000
00000000
00000000
00000000
00100000
00000000
,
20000000
00000000
00000000
00010000
00000000
00000000
31000000
00000000
,
00200000
00000000
00000000
00001000
00000000
00000000
00310000
00000000
,
00001000
00010000
00001000
00000100
,
00000001
00000000
00000010
00000000
00000001
00000100
00000001
00000100
,
00001000
00010000
00001000
00010000
,
01000000
10000000
01000000
10000000
00100000
00000000
10000000
00000000
,
01000000
00010000
01000000
10000000
,
01000000
00010000
01000000
00010000
00001000
00000000
00000100
00000000
,
00002000
00000000
00000000
01000000
00000000
00000000
00013000
00000000
,
00020000
00000000
00000000
00000100
00000000
00000000
00031000
00000000
,
00000100
00000001
00000010
00001000
,
00010000
00000000
00100000
00000000
10000000
01000000
10000000
01000000
,
00010000
01000000
10000000
01000000
,
00010000
00001000
00010000
00001000
00000100
00000000
00000001
00000000
,
00000010
00000001
00000100
00001000
,
00010000
01000000
00010000
01000000
10000000
00000000
01000000
00000000
,
00020000
00000000
00000000
01000000
00000000
00000000
00031000
00000000
,
00002000
00000000
00000000
00010000
00000000
00000000
01003000
00010000
;

//---------------dance-double - ----------------
#NOTES:
     dance-double:
     :
     Hard:
     7:
     :
00000000
00000000
00000000
00000000
,
00000000
00000000
00000000
00000000
,
00000000
00000000
00000000
00000000
,
00000000
00000000
00000000
00000000
,
00000000
00000000
00000000
00000000
,
00000010
00001000
00000100
00000000
00000010
00000001
00000100
00000000
,
00000001
00000010
00001000
00000000
00001000
00010000
01000000
00000000
,
00010000
01000000
10000000
01000000
00010000
00000000
00000000
00000000
,
00001000
00010000
01000000
00010000
00001000
00000000
00000000
00000000
,
00011000
00000000
00000000
00000000
,
00000110
00000000
00000001
00000100
00001000
00000100
00000001
00000000
,
00000100
00000000
00010000
00001000
00000000
00100000
01000000
00000000
,
00100000
00000000
00010000
10000000
00000000
01000000
00100000
00000000
,
00001000
00000000
00010000
00001000
00000000
00000100
00000010
00000000
,
00001000
00000000
00000001
00000100
00000000
00001000
00010000
00000000
,
01000000
00000000
10000000
01000000
00000000
00010000
01000000
00000000
,
00100000
00000000
00001000
00010000
00000000
00000100
00001000
00000000
,
00000110
00000000
00000000
00000011
00000000
00000000
00001100
00000000
,
00000110
00000000
00000000
00010100
00000000
00000000
00011000
00000000
,
00001000
00000000
00010000
00000000
01000000
00000000
10000000
01000000
00000000
00000000
10000000
00000000
00100000
00000000
10000000
00000000
,
01000000
00000000
00010000
00000000
00001000
00000000
00000100
00000010
00000000
00000000
00000100
00000000
00000001
00000000
00000100
00000000
,
00001000
00000000
00010000
00000000
00001000
00000000
00010000
01000000
00000000
00000000
10000000
00000000
00100000
00000000
00010000
00000000
,
00100000
00000000
10000000
00000000
01000000
00000000
00010000
01000000
00000000
00000000
00010000
00000000
00001000
00000000
00010000
00000000
,
00000100
00000000
00000010
00000000
00000001
00000000
00001000
00000100
00000000
00000000
00000010
00000000
00000100
00000000
00010000
00000000
,
00001000
00000000
00010000
00000000
01000000
00000000
10000000
01000000
00000000
00000000
10000000
00000000
01000000
00000000
00100000
00000000
,
00110000
00000000
00000000
00101000
00000000
00000000
00011000
00000000
,
00010100
00000000
00000000
00000110
00000000
00000000
00000011
00000000
,
00001000
00000100
00001100
00000000
00000000
00000010
00000001
00000100
,
00000010
00000100
00000110
00000000
00000000
00001000
00010000
00001000
,
00010000
01000000
10000000
00010000
10000000
10000000
01000000
00100000
,
00010000
00010000
10000000
01000000
00000000
00000000
00000000
00000000
,
00010000
00001000
00011000
00000000
00000000
00010000
00001000
00000100
,
00000001
00000010
00000011
00000000
00000000
00001000
00010000
00001000
,
00000200
00000000
00000000
00000301
00000000
00000010
00001000
00010000
,
00002000
00000000
00000000
00013000
00000000
00000000
00010000
00000000
,
01000000
00000000
11000000
00000000
10000000
00100000
10000000
00100000
,
01000000
00000000
00010000
10000000
01000000
10000000
00010000
00100000
,
02000000
00000000
10000000
00000000
00000000
03010000
00000000
00001000
,
00010000
00000000
00001000
00010000
00001000
00000000
00000100
00000000
00000001
00000000
00000100
00000001
00000100
00000000
00001000
00000000
,
00000100
00000001
00001001
00000101
,
00000010
00000001
00000100
00001000
00000100
00000001
00000100
00001000
,
00010000
01000000
10000000
00100000
10000000
01000000
00010000
01000000
,
10000000
01000000
00010000
00001000
00000100
00000001
00000010
00000000
,
00001001
00000000
00000110
00000000
00000001
00000010
00000001
00000010
,
00000100
00000000
00001000
00000001
00000100
00000001
00001000
00000010
,
00000200
00000000
00000001
00000000
00000000
00001300
00000000
00010000
,
00001000
00000000
00010000
00002000
00013000
00000000
01000000
00000000
10000000
00000000
01000000
10000000
01000000
00000000
00010000
00000000
,
01000000
10000000
10010000
11000000
,
00100000
10000000
01000000
00010000
01000000
10000000
01000000
00010000
,
00001000
00000100
00000001
00000010
00000001
00000100
00001000
00000100
,
00000001
00000100
00001000
00010000
01000000
10000000
00100000
01100000
;
