#TITLE:Get Busy;
#ARTIST:Sean Paul;
#BANNER:Get Busy.png;
#BACKGROUND:Get Busy-bg.png;
#CDTITLE:./CDTITLES/Dance Dance Revolution EXTREME 2.png;
#MUSIC:Get Busy.ogg;
#SAMPLESTART:54.78;
#SAMPLELENGTH:15;
#DISPLAYBPM:100;
#BPMS:0=100.2;
#BGCHANGES:6.75=Get Busy.avi=1=1=0=0,173.5=Get Busy-bg.png=1=0=0=1;

//---------------dance-single - ----------------
#NOTES:
     dance-single:
     :
     Beginner:
     1:
     :
0000
0000
0000
0000
,
0000
0000
0000
0000
,
0000
0000
0000
0000
,
0000
0000
0000
0000
,
0000
0000
0000
0000
,
1000
0000
1000
0000
,
0001
0000
0001
0000
,
1000
0000
0001
0000
,
0010
0000
0100
0000
,
1000
0000
0010
0000
,
0100
0000
0001
0000
,
1000
0000
0100
0000
,
0010
0000
0001
0000
,
1000
1000
1000
0000
,
0010
0000
0010
0000
,
0100
0100
0100
0000
,
0001
0000
0001
0000
,
1000
1000
1000
0000
,
0100
0000
0100
0000
,
0010
0010
0010
0000
,
0001
0000
0001
0000
,
0010
0000
1000
1000
,
1000
0000
0001
0001
,
0001
0000
0001
0000
,
1000
0000
1000
0000
,
0001
0000
1000
0000
,
0100
0000
0010
0000
,
0001
0000
0100
0000
,
0010
0000
1000
0000
,
0001
0000
0010
0000
,
0100
0000
1000
0000
,
0001
0001
0001
0000
,
0100
0000
0100
0000
,
0010
0010
0010
0000
,
1000
0000
1000
0000
,
0001
0001
0001
0000
,
0010
0000
0010
0000
,
0100
0100
0100
0000
,
1000
0000
1000
0000
,
0010
0000
0001
0001
,
0001
0000
0100
0100
,
0100
0000
1000
0000
,
0001
0000
1000
0000
,
0001
0000
0000
0000
;

//---------------dance-single - ----------------
#NOTES:
     dance-single:
     :
     Easy:
     4:
     :
0000
0000
0000
0000
,
0000
0000
0000
0000
,
0000
0000
0000
0000
,
0000
0000
0000
0000
,
0000
0000
0000
0000
,
1001
0000
0001
0001
,
1000
1000
0010
0010
,
0110
0000
0100
0100
,
0001
0001
1000
1000
,
1100
0000
0010
0010
,
0001
0001
0100
0100
,
0101
0000
0010
0010
,
1000
1000
0100
0100
,
2000
3002
2003
3002
,
0103
0100
0010
0010
,
2000
3002
2003
3002
,
1003
1000
0100
0100
,
0020
0230
0320
0230
,
1300
1000
0010
0010
,
0200
0320
0230
0320
,
1030
0001
0010
0100
,
1000
1000
0001
0001
,
0100
0100
0010
0010
,
2002
3003
1000
1000
,
0001
0001
0100
0100
,
0220
0330
0010
0010
,
1000
1000
0001
0001
,
0022
0033
0100
0100
,
1000
1000
0010
0010
,
2020
3030
0100
0100
,
0001
0001
0010
0010
,
0002
2003
3002
2003
,
3010
0010
0100
0100
,
0002
2003
3002
2003
,
3001
0001
0010
0010
,
0200
0320
0230
0320
,
0031
0001
0100
0100
,
0020
0230
0320
0230
,
0301
1000
0100
0010
,
0001
0001
1000
1000
,
0010
0010
0100
0100
,
1001
0000
0001
1000
,
0010
0100
0010
0100
,
1001
0000
0000
0000
;

//---------------dance-single - ----------------
#NOTES:
     dance-single:
     :
     Medium:
     5:
     :
0000
0000
0000
0000
,
0000
0000
0000
0000
,
0000
0000
0000
0000
,
0000
0000
0000
0000
,
0000
0000
0000
0000
,
0010
1000
0002
0000
1000
0000
0103
0000
,
2000
0010
3001
1000
,
0010
0001
2000
0000
0001
0000
3100
0000
,
0002
0010
1003
0001
,
0100
0001
2000
0000
0001
0000
3010
0000
,
0002
0100
1003
0001
,
0100
1000
0002
0000
1000
0000
0013
0000
,
2000
0100
3001
1000
,
0010
0001
1000
0001
0200
0000
1300
0000
,
0200
0310
0200
0301
,
0010
1000
0001
1000
0200
0000
0301
0000
,
0200
0310
0200
1300
,
0001
1000
0001
0010
0200
0000
0301
0000
,
0200
0310
0200
1300
,
1000
0001
1000
0010
0200
0000
1300
0000
,
0200
0310
0200
0301
,
0010
0100
1000
0000
0010
0100
0001
0000
,
1000
1000
0001
0001
0200
0000
0310
0000
,
0100
0001
2000
0000
0001
0000
3010
0000
,
0002
0100
1003
0001
,
0100
1000
0002
0000
1000
0000
0013
0000
,
2000
0100
3001
1000
,
0010
1000
0002
0000
1000
0000
0103
0000
,
2000
0010
3001
1000
,
0010
0001
2000
0000
0001
0000
3100
0000
,
0002
0010
1003
0001
,
0100
1000
0001
1000
0020
0000
0031
0000
,
0020
0130
0020
1030
,
0100
0001
1000
0001
0020
0000
1030
0000
,
0020
0130
0020
0031
,
1000
0001
1000
0100
0020
0000
1030
0000
,
0020
0130
0020
0031
,
0001
1000
0001
0100
0020
0000
0031
0000
,
0020
0130
0020
1030
,
0100
0010
0001
0000
0100
0010
1000
0000
,
0001
0001
1000
1000
0020
0000
0130
0000
,
0001
0100
1000
0000
0100
0001
0010
0000
,
0001
1000
0100
0000
1000
0010
0100
0000
,
1001
0000
0000
0000
;

//---------------dance-single - ----------------
#NOTES:
     dance-single:
     :
     Hard:
     8:
     :
0000
0000
0000
0000
,
0000
0000
0000
0000
,
0000
0000
0000
0000
,
0000
0000
0000
0000
,
0000
0000
0000
0000
,
0010
0000
1000
0001
0000
0000
1000
0000
0001
0000
1000
0000
0001
0000
0010
0000
,
0100
0000
1000
0000
0100
0000
1000
0000
0010
0000
0100
0000
0001
0100
0001
0000
,
1000
0000
0001
1000
0000
0000
0010
0000
0100
0000
0010
0000
0100
0000
0001
0000
,
1000
0000
0100
0000
1000
0000
0100
0000
0010
0000
0001
0000
0010
0001
0010
0000
,
0100
0000
0010
0100
0000
0000
1000
0000
0001
0000
1000
0000
0100
0000
0010
0000
,
1000
0000
0010
0000
0100
0000
1000
0000
0010
0000
0100
0000
0001
1000
0001
0000
,
0100
0000
0010
0100
0000
0000
0001
0000
1000
0000
0001
0000
0100
0000
0010
0000
,
0001
0000
0010
0000
0100
0000
0001
0000
1000
0000
0100
1000
0000
0000
0000
0000
,
1000
0000
0010
0100
0000
0010
0100
0000
0001
0000
1000
0001
0000
1000
0001
0000
,
0010
0000
0100
1000
0000
0100
1000
0000
0010
0000
0100
0001
0000
0000
0000
0000
,
1000
0000
0001
1000
0000
0001
0100
0000
0001
0000
1000
0001
0000
1000
0100
0000
,
1000
0000
0010
0100
0000
0010
1000
0000
0001
0000
0010
0100
0000
0000
0000
0000
,
1000
0000
0100
0010
0000
0100
1000
0000
0001
0000
0100
0010
0000
0100
0001
0000
,
1000
0000
0010
1000
0000
0100
1000
0000
0001
0000
0010
0001
0000
0000
0000
0000
,
0010
0000
0010
0000
0100
0000
0100
0000
1000
0000
0001
1000
0000
0000
0010
0000
,
1000
0000
0100
0001
0000
0000
0100
0000
1000
0000
0010
0001
0000
0000
0010
0000
,
0100
0000
0001
1000
0000
0000
0100
0010
0001
0000
1000
0100
0000
0000
0010
0000
,
0001
0000
0001
0000
1000
0000
1000
0000
0100
0000
1000
0010
0000
0000
0000
0000
,
0100
0000
0001
1000
0000
0000
0001
0000
1000
0000
0001
0000
1000
0000
0100
0000
,
0010
0000
0001
0000
0010
0000
0001
0000
0100
0000
0010
0000
1000
0010
1000
0000
,
0001
0000
1000
0001
0000
0000
0100
0000
0010
0000
0100
0000
0010
0000
1000
0000
,
0001
0000
0010
0000
0001
0000
0010
0000
0100
0000
1000
0000
0100
1000
0100
0000
,
0010
0000
0100
0010
0000
0000
0001
0000
1000
0000
0001
0000
0010
0000
0100
0000
,
0001
0000
0100
0000
0010
0000
0001
0000
0100
0000
0010
0000
1000
0001
1000
0000
,
0010
0000
0100
0010
0000
0000
1000
0000
0001
0000
1000
0000
0010
0000
0100
0000
,
1000
0100
0010
1000
0001
1000
1000
0000
,
0001
0000
0100
0010
0000
0100
0010
0000
1000
0000
0001
1000
0000
0001
1000
0000
,
0100
0000
0010
0001
0000
0010
0001
0000
0100
0000
0010
1000
0000
0000
0000
0000
,
0001
0000
1000
0001
0000
1000
0010
0000
1000
0000
0001
1000
0000
0001
0010
0000
,
0001
0000
0100
0010
0000
0100
0001
0000
1000
0000
0100
0010
0000
0000
0000
0000
,
0001
0000
0010
0100
0000
0010
0001
0000
1000
0000
0010
0100
0000
0010
1000
0000
,
0001
0000
0100
0001
0000
0010
0001
0000
1000
0000
0100
1000
0000
0000
0000
0000
,
0100
0000
0100
0000
0010
0000
0010
0000
0001
0000
1000
0001
0000
0000
0100
0000
,
0001
0000
0010
1000
0000
0000
0010
0000
0001
0000
0100
1000
0000
0000
0100
0000
,
0010
0000
1000
0001
0000
0000
0010
0100
1000
0000
0001
0010
0000
0000
0100
0000
,
1000
0000
1000
0000
0001
0000
0001
0000
0010
0000
0001
0100
0000
0000
0000
0000
,
0010
0000
1000
0001
0000
0000
0100
0000
1000
0000
0100
0000
0001
0000
1000
0000
,
0100
0000
0001
0000
0100
0000
1000
0000
0010
0000
0100
0000
0001
1000
0001
0000
,
0010
0000
0100
0010
0000
0000
0000
0000
0000
0000
0000
0000
0000
0000
0000
0000
;

//---------------dance-double - ----------------
#NOTES:
     dance-double:
     :
     Easy:
     4:
     :
00000000
00000000
00000000
00000000
,
00000000
00000000
00000000
00000000
,
00000000
00000000
00000000
00000000
,
00000000
00000000
00000000
00000000
,
00000000
00000000
00000000
00000000
,
00011000
00000000
00010000
00010000
,
01000000
01000000
10000000
10000000
,
10100000
00000000
01000000
01000000
,
00001000
00001000
00010000
00010000
,
00011000
00000000
00001000
00001000
,
00000100
00000100
00000001
00000001
,
00000101
00000000
00000100
00000100
,
00000010
00000010
00010000
00010000
,
00002000
00023000
00032000
00023000
,
00031000
00001000
00100000
00100000
,
00020000
20030000
30020000
20030000
,
31000000
01000000
00010000
00010000
,
00002000
00023000
00032000
00023000
,
00030100
00000100
00001000
00001000
,
00000002
00002003
00003002
00002003
,
00003001
00000100
00001000
00010000
,
00001000
00001000
00010000
00010000
,
00100000
00100000
10000000
10000000
,
20020000
30030000
00010000
00010000
,
01000000
01000000
00001000
00001000
,
00022000
00033000
00010000
00010000
,
00000100
00000100
00001000
00001000
,
00002020
00003030
00000001
00000001
,
00000100
00000100
00001000
00001000
,
00022000
00033000
00010000
00010000
,
00100000
00100000
01000000
01000000
,
00020000
20030000
30020000
20030000
,
31000000
01000000
00010000
00010000
,
00002000
00023000
00032000
00023000
,
00031000
00001000
00000010
00000010
,
00000002
00000000
00000000
00000000
00000203
00000000
00000000
00000300
00000002
00000000
00000000
00000000
00000203
00000000
00000000
00000000
,
00000310
00000010
00001000
00001000
,
00000200
00020300
00030200
00020300
,
00031000
00001000
00100000
00100000
,
00010000
00010000
10000000
10000000
,
01000000
01000000
00010000
00010000
,
00011000
00000000
00000100
00000100
,
00000001
00000001
00000010
00000010
,
00000110
00000000
00000000
00000000
;

//---------------dance-double - ----------------
#NOTES:
     dance-double:
     :
     Medium:
     5:
     :
00000000
00000000
00000000
00000000
,
00000000
00000000
00000000
00000000
,
00000000
00000000
00000000
00000000
,
00000000
00000000
00000000
00000000
,
00000000
00000000
00000000
00000000
,
00000010
00001000
00000200
00000000
00001000
00000000
00010300
00000000
,
00002000
00010000
00103000
00010000
,
00100000
00010000
02000000
00000000
00010000
00000000
03001000
00000000
,
00020000
00001000
00030010
00001000
,
00000100
00001000
00000020
00000000
00001000
00000000
00010030
00000000
,
00002000
00010000
01003000
00010000
,
01000000
00010000
00200000
00000000
00010000
00000000
00301000
00000000
,
00020000
00001000
00030100
00001000
,
00000001
00000100
00000001
00000100
00000020
00000000
00001030
00000000
,
00000200
00010300
00002000
00103000
,
00010000
01000000
00010000
01000000
00200000
00000000
10300000
00000000
,
00020000
01030000
00002000
00013000
,
00000100
00001000
00000100
00001000
00000020
00000000
00000130
00000000
,
00002000
00013000
00200000
10300000
,
01000000
10000000
01000000
10000000
00200000
00000000
01300000
00000000
,
00020000
00130000
00002000
00013000
,
00000100
00001000
00000001
00000000
00000010
00000100
00001000
00000000
,
00000100
00010000
00001000
01000000
00020000
00000000
10030000
00000000
,
01000000
00010000
00200000
00000000
00010000
00000000
00301000
00000000
,
00020000
00001000
00030100
00001000
,
00000100
00001000
00000020
00000000
00001000
00000000
00010030
00000000
,
00002000
00010000
01003000
00010000
,
00100000
00010000
02000000
00000000
00010000
00000000
03001000
00000000
,
00020000
00001000
00030010
00001000
,
00000010
00001000
00000200
00000000
00001000
00000000
00010300
00000000
,
00002000
00010000
00103000
00010000
,
10000000
00100000
10000000
00100000
02000000
00000000
03010000
00000000
,
00200000
00301000
00020000
00030100
,
00001000
00000010
00001000
00000010
00000200
00000000
00000301
00000000
,
00002000
00003010
00020000
00031000
,
00100000
00010000
00100000
00010000
02000000
00000000
03100000
00000000
,
00020000
00031000
00000200
00000301
,
00000010
00000001
00000010
00000001
00000200
00000000
00000310
00000000
,
00002000
00003100
00020000
00031000
,
00100000
00010000
10000000
00000000
01000000
00100000
00010000
00000000
,
00100000
00001000
00010000
00000010
00002000
00000000
00003001
00000000
,
00000010
00000100
00001000
00000000
00000010
00000100
00001000
00000000
,
00000100
00001000
00010000
00000000
00001000
00010000
00100000
00000000
,
01100000
00000000
00000000
00000000
;

//---------------dance-double - ----------------
#NOTES:
     dance-double:
     :
     Hard:
     8:
     :
00000000
00000000
00000000
00000000
,
00000000
00000000
00000000
00000000
,
00000000
00000000
00000000
00000000
,
00000000
00000000
00000000
00000000
,
00000000
00000000
00000000
00000000
,
10000000
00000000
00010000
10000000
00000000
00000000
00100000
00000000
00010000
00000000
00001000
00000000
00100000
00000000
00010000
00000000
,
00001000
00000000
00000100
00000000
00000010
00000000
00000001
00000000
00000100
00000000
00001000
00000000
00000100
00000010
00001000
00000000
,
00000001
00000000
00001000
00000001
00000000
00000000
00000010
00000000
00001000
00000000
00010000
00000000
00000010
00000000
00001000
00000000
,
00010000
00000000
01000000
00000000
00100000
00000000
10000000
00000000
01000000
00000000
00010000
00000000
01000000
00100000
00010000
00000000
,
10000000
00000000
00010000
01000000
00000000
00000000
00100000
00000000
00010000
00000000
00001000
00000000
00100000
00000000
00001000
00000000
,
00010000
00000000
00000100
00000000
00010000
00000000
00001000
00000000
00000100
00000000
00000010
00000000
00001000
00000100
00000010
00000000
,
00000001
00000000
00001000
00000100
00000000
00000000
00000010
00000000
00001000
00000000
00010000
00000000
00000010
00000000
00010000
00000000
,
00001000
00000000
01000000
00000000
00001000
00000000
00010000
00000000
01000000
00000000
00100000
00010000
00000000
00000000
00000000
00000000
,
00010000
00000000
01000000
00100000
00000000
01000000
00100000
00000000
00010000
00000000
00001000
00010000
00000000
00001000
00010000
00000000
,
00000100
00000000
00000010
00000100
00000000
00000010
00000100
00000000
00001000
00000000
00000001
00000100
00000000
00000000
00000000
00000000
,
00001000
00000000
00010000
00001000
00000000
00010000
00000100
00000000
00010000
00000000
00001000
00010000
00000000
00001000
00100000
00000000
,
00010000
00000000
10000000
01000000
00000000
10000000
00100000
00000000
01000000
00000000
00001000
00010000
00000000
00000000
00000000
00000000
,
00000100
00000000
00001000
00000010
00000000
00001000
00000100
00000000
00000010
00000000
00001000
00010000
00000000
00001000
00100000
00000000
,
00010000
00000000
01000000
00010000
00000000
01000000
00100000
00000000
10000000
00000000
01000000
00010000
00000000
00000000
00000000
00000000
,
00001000
00000000
00001000
00000000
00010000
00000000
00010000
00000000
00001000
00000000
00000100
00000001
00000000
00000000
00000010
00000000
,
00000100
00000000
00000010
00000001
00000000
00000000
00000100
00000000
00001000
00000000
00010000
00001000
00000000
00000000
00010000
00000000
,
01000000
00000000
10000000
01000000
00000000
00000000
10000000
00010000
00100000
00000000
00010000
10000000
00000000
00000000
01000000
00000000
,
00010000
00000000
00010000
00000000
00001000
00000000
00001000
00000000
00000010
00000000
00000010
00000001
00000000
00000000
00000000
00000000
,
00000001
00000000
00001000
00000001
00000000
00000000
00000100
00000000
00001000
00000000
00010000
00000000
00000100
00000000
00001000
00000000
,
00010000
00000000
00100000
00000000
01000000
00000000
10000000
00000000
00100000
00000000
00010000
00000000
00100000
01000000
00010000
00000000
,
10000000
00000000
00010000
10000000
00000000
00000000
01000000
00000000
00010000
00000000
00001000
00000000
01000000
00000000
00010000
00000000
,
00001000
00000000
00000010
00000000
00000100
00000000
00000001
00000000
00000010
00000000
00001000
00000000
00000010
00000100
00001000
00000000
,
00000001
00000000
00001000
00000010
00000000
00000000
00000100
00000000
00001000
00000000
00010000
00000000
00000100
00000000
00010000
00000000
,
00001000
00000000
00100000
00000000
00001000
00000000
00010000
00000000
00100000
00000000
01000000
00000000
00010000
00100000
01000000
00000000
,
10000000
00000000
00010000
00100000
00000000
00000000
01000000
00000000
00010000
00000000
00001000
00000000
01000000
00000000
00001000
00000000
,
00010000
00000010
00010000
00001000
00000010
00000100
00000100
00000000
,
00001000
00000000
00000010
00000100
00000000
00000010
00000100
00000000
00001000
00000000
00010000
00001000
00000000
00010000
00001000
00000000
,
00100000
00000000
01000000
00100000
00000000
01000000
00100000
00000000
00010000
00000000
10000000
00100000
00000000
00000000
00000000
00000000
,
00010000
00000000
00001000
00010000
00000000
00001000
00100000
00000000
00001000
00000000
00010000
00001000
00000000
00010000
00000100
00000000
,
00001000
00000000
00000001
00000010
00000000
00000001
00000100
00000000
00000010
00000000
00010000
00001000
00000000
00000000
00000000
00000000
,
00100000
00000000
00010000
01000000
00000000
00010000
00100000
00000000
01000000
00000000
00010000
00001000
00000000
00010000
00000100
00000000
,
00001000
00000000
00000010
00001000
00000000
00000010
00000100
00000000
00000001
00000000
00000010
00001000
00000000
00000000
00000000
00000000
,
00010000
00000000
00010000
00000000
00001000
00000000
00001000
00000000
00010000
00000000
00100000
10000000
00000000
00000000
01000000
00000000
,
00100000
00000000
01000000
10000000
00000000
00000000
00100000
00000000
00010000
00000000
00001000
00010000
00000000
00000000
00001000
00000000
,
00000010
00000000
00000001
00000010
00000000
00000000
00000001
00001000
00000100
00000000
00001000
00000001
00000000
00000000
00000010
00000000
,
00001000
00000000
00001000
00000000
00010000
00000000
00010000
00000000
01000000
00000000
01000000
10000000
00000000
00000000
00000000
00000000
,
10000000
00000000
01000000
00100000
00000000
00000000
00001000
00000000
00010000
00000000
00000100
00000000
00000010
00000000
00001000
00000000
,
00010000
00000000
01000000
00000000
00100000
00000000
00001000
00000000
00010000
00000000
00000010
00000000
00000100
00001000
00010000
00000000
,
00001000
00000000
00010000
00001000
00000000
00000000
00000000
00000000
00000000
00000000
00000000
00000000
00000000
00000000
00000000
00000000
;
