
//----- mcode: ymca -----//
#TITLE:Y.M.C.A.;
#ARTIST:VILLAGE PEOPLE;
#MUSIC:Y.M.C.A.ogg;
#BANNER:Y.M.C.A.png;
#BACKGROUND:Y.M.C.A-bg.png;
#CDTITLE:./CDTitles/DDR EXTREME US PS2.png;
#SAMPLESTART:47.589;
#SAMPLELENGTH:15;
#DISPLAYBPM:130;
#BPMS:0=125.874,4=125.924,163=132.353,164=125.874;
#NOTES:
     dance-single:
     :
     Beginner:
     1:
     :
0000
0000
0000
0000
,
0000
0000
0000
0000
,
0000
0000
0000
0000
,
0001
0000
0000
0000
,
0100
0000
0000
0000
,
0010
0000
0010
0000
,
1000
1000
1000
1000
,
1000
0000
0000
0000
,
0001
0000
0001
0000
,
0001
0000
0000
0000
,
1000
0000
1000
0000
,
0010
0000
0000
0000
,
0100
0000
0100
0000
,
0000
1000
0000
0001
,
0000
1000
0000
0001
,
0001
0000
0000
0000
,
1000
0000
1000
0000
,
1000
0000
0000
0000
,
0001
0000
0001
0000
,
0010
0000
0000
0000
,
0100
0000
0100
0000
,
0000
0001
0000
1000
,
0000
0001
0000
1000
,
1000
1000
1000
1000
,
1000
0000
0000
0000
,
1001
0000
0110
0000
,
1000
0000
0001
0000
,
1001
0000
0110
0000
,
0001
0000
1000
0000
,
0000
0010
0000
0001
,
0000
0100
0000
1000
,
0000
0001
0000
1000
,
0000
0001
0000
0000
,
1001
0000
0110
0000
,
0001
0000
1000
0000
,
1001
0000
0110
0000
,
1000
0000
0001
0000
,
0000
0010
0000
1000
,
0000
0100
0000
0001
,
0000
1000
0000
0001
,
0000
1000
0000
0000
,
1001
0000
0110
0000
,
1000
0000
0001
0000
,
1001
0000
0110
0000
,
0001
0000
1000
0000
,
0000
0010
0000
1000
,
0000
0100
0000
0001
,
0000
0100
0100
0100
,
0000
0010
0010
0000
,
1001
0000
0110
0000
,
0001
0000
0000
0000
;
#NOTES:
     dance-single:
     :
     Easy:
     4:
     :
0000
0000
0000
0000
,
0000
0000
0000
0000
,
0000
0000
0000
0000
,
0001
0000
0100
0000
,
1000
0000
0100
0000
,
0010
0000
0100
0000
,
0010
0010
0100
0100
,
0001
1000
0000
0000
0000
0000
0001
0000
,
0110
0001
0001
0001
,
1000
0001
0000
0000
0000
0000
1000
0000
,
0110
1000
1000
1000
,
0001
1000
0000
0000
0000
0000
0001
0000
,
0110
0001
0001
0001
,
0100
0000
0000
0010
0000
0000
0100
0000
,
0000
0010
0000
0000
1000
0000
0001
0000
,
1000
0001
0000
0000
0000
0000
1000
0000
,
0110
1000
1000
1000
,
0001
1000
0000
0000
0000
0000
0001
0000
,
0110
0001
0001
0001
,
1000
0001
0000
0000
0000
0000
1000
0000
,
0110
1000
1000
1000
,
0010
0000
0000
0100
0000
0000
0010
0000
,
0000
0100
0000
0000
0001
0000
1000
0000
,
1001
1001
0110
0110
,
1001
0000
0000
0000
,
1001
0000
1000
0100
,
1000
0010
0001
1000
,
1001
0000
0001
0100
,
0000
0000
0000
0001
,
0001
0001
0100
1000
,
1000
1000
0010
0001
,
0001
0100
1000
0010
,
0110
1000
1000
0100
,
1001
0000
0001
0010
,
0001
0100
1000
0001
,
1001
0000
1000
0010
,
0000
0000
0000
1000
,
1000
1000
0100
0001
,
0001
0001
0010
1000
,
1000
0100
0001
0010
,
0110
0001
0001
0010
,
1001
0000
0001
0010
,
0001
0100
1000
0001
,
1001
0000
1000
0010
,
0000
0000
0000
0000
,
1000
1000
0010
0001
,
0001
0001
0100
1000
,
1000
0010
0001
0100
,
1001
0000
0000
0000
,
1001
0000
1000
0100
;
#NOTES:
     dance-single:
     :
     Medium:
     6:
     :
0000
0000
0000
0000
,
0000
0000
0000
0000
,
0000
0000
0000
0000
,
0001
0000
0001
0000
,
1000
0000
1000
0000
,
0010
0010
0100
0100
,
0010
0100
0010
0100
,
0001
1000
0001
0000
0001
0000
0010
1000
,
0100
0000
0010
0000
0001
0010
0001
0000
,
1000
0001
1000
0000
1000
0000
0010
0001
,
0100
0000
0010
0000
1000
0010
1000
0000
,
0001
1000
0001
0000
0001
0000
0010
1000
,
0100
0000
0010
0000
0001
0010
0001
0000
,
0100
0000
0000
1010
0000
0000
0100
0000
,
0000
0011
0000
0000
1010
0000
0011
0000
,
1000
0001
1000
0000
1000
0000
0100
0001
,
0010
0000
0100
0000
1000
0100
1000
0000
,
0001
1000
0001
0000
0001
0000
0100
1000
,
0010
0000
0100
0000
0001
0100
0001
0000
,
1000
0001
1000
0000
1000
0000
0100
0001
,
0010
0000
0100
0000
1000
0100
1000
0000
,
0010
0000
0000
0101
0000
0000
0010
0000
,
0000
1100
0000
0000
0101
0000
1100
0000
,
1001
0110
1001
0110
,
1001
0000
0000
0000
,
0011
0001
1000
0100
,
0100
1000
0010
0100
0001
0000
1000
0000
,
1010
1000
0001
0100
,
0100
0001
0010
0100
1000
0000
0001
0000
,
0001
1000
0001
0000
0101
0000
1000
0000
,
1000
0001
1000
0000
1010
0000
0001
0000
,
0001
1000
0100
0000
0001
0100
1000
0000
,
1010
0000
1000
0000
1000
0010
0100
0000
,
0011
0001
1000
0100
,
0100
1000
0010
0100
0001
0000
1000
0000
,
1010
1000
0001
0100
,
0100
0001
0010
0100
1000
0000
0001
0000
,
0001
1000
0001
0000
0101
0000
1000
0000
,
1000
0001
1000
0000
1010
0000
0001
0000
,
0001
1000
0100
0000
1000
0100
0001
0000
,
1010
0000
1000
0000
1000
0010
0100
0000
,
0101
0001
1000
0010
,
0010
1000
0100
0010
0001
0000
1000
0000
,
1100
1000
0001
0010
,
0010
0001
0100
0010
1000
0000
0001
0000
,
0001
1000
0001
0000
0011
0000
1000
0000
,
1000
0001
1000
0000
1100
0000
0001
0000
,
0001
1000
0010
0000
0001
0100
1000
0000
,
1100
0000
1000
0000
1000
0100
0010
0000
,
0011
0001
1000
0100
;
#NOTES:
     dance-single:
     :
     Hard:
     7:
     :
0000
0000
0000
0000
,
0000
0000
0000
0000
,
0000
0000
0000
0000
,
0000
0000
0000
0000
,
0000
0000
0000
0000
,
1000
0100
0010
0001
,
1000
0100
0010
0001
1000
0100
0010
0001
,
1001
0100
0000
0000
0100
0000
0010
1000
,
0001
0100
0010
1000
0001
0100
1000
0000
,
1001
0100
0000
0000
0100
0000
0010
0001
,
1000
0100
0010
0001
1000
0100
0001
0000
,
1001
0100
0000
0000
0100
0000
0010
1000
,
0001
0100
0010
1000
0001
0100
1000
0000
,
2001
3100
0100
1002
0103
0100
2001
3100
,
0100
1002
0103
0100
1100
0000
0101
0000
,
1010
0001
0000
0000
0001
0000
0100
0001
,
1000
0010
0100
0001
1000
0010
0001
0000
,
0011
1000
0000
0000
1000
0000
0100
1000
,
0001
0010
0100
1000
0001
0010
1000
0000
,
1010
0001
0000
0000
0001
0000
0100
0001
,
1000
0010
0100
0001
1000
0010
0001
0000
,
1002
0103
0100
2001
3100
0100
1002
0103
,
0100
2001
3100
0100
0101
0000
1100
0000
,
1010
0011
0101
1100
,
0110
0001
0010
1000
0010
0001
0010
0000
,
1001
0000
0000
0000
0110
1000
0001
0100
,
0000
0001
1000
0100
1000
0001
0100
0010
,
1001
0000
0000
0000
0110
1000
0100
0001
,
0000
1001
0000
0000
0000
0000
0110
0100
,
0001
0100
1000
0100
0000
0000
0110
0100
,
1000
0100
0001
0100
0000
0000
0110
0100
,
0001
0100
1000
0100
0000
0110
0000
1001
,
0000
0001
1000
0100
1000
0001
0101
0000
,
1001
0000
0000
0000
0110
0001
1000
0010
,
0000
1000
0001
0010
0001
1000
0010
0100
,
1001
0000
0000
0000
0110
0001
0010
1000
,
0000
1001
0000
0000
0000
0000
0110
0010
,
1000
0010
0001
0010
0000
0000
0110
0010
,
0001
0010
1000
0010
0000
0000
0110
0010
,
1000
0010
0001
0010
0000
0110
0000
1001
,
0000
1000
0001
0010
0001
1000
1010
0000
,
1001
0000
0000
0000
0110
1000
0001
0100
,
0000
0001
1000
0100
1000
0001
0100
0010
,
1001
0000
0000
0000
0110
1000
0100
0001
,
0000
1001
0000
0000
0000
0000
0110
0000
,
0001
0100
1000
0100
0001
0000
0110
0000
,
1000
0100
0001
0100
1000
0000
0110
0000
,
0001
0010
1000
0010
0001
0000
0110
0010
,
0001
0010
1000
0010
0001
0000
0110
0000
,
1001
0000
0000
0000
0110
1000
0001
0100
;
#NOTES:
     dance-double:
     :
     Easy:
     2:
     :
00000000
00000000
00000000
00000000
,
00000000
00000000
00000000
00000000
,
00000000
00000000
00000000
00000000
,
00000100
00000010
00000200
00000300
,
00001000
00000000
00001000
00000100
,
00000020
00000030
00001000
00000000
,
00001000
00010000
01000000
00000000
,
01000000
00000000
00000000
00000000
,
01000000
00010000
00001000
00000000
,
00000100
00000000
00000000
00000000
,
00000100
00001000
00010000
00000000
,
00001000
00000000
00000000
00000000
,
00010000
01000000
10000000
00000000
,
01000000
00000000
00010000
00000000
,
00001000
00000000
00000110
00000110
,
00000100
00000000
00000000
00000000
,
00000100
00001000
00010000
00000000
,
01000000
00000000
00000000
00000000
,
01000000
00010000
00001000
00000000
,
00001000
00000000
00000000
00000000
,
00010000
01000000
10000000
00100000
,
01000000
00000000
00010000
00000000
,
00001000
00000000
00000110
00000110
,
00000001
00000100
00001000
00010000
,
01000000
00000000
00000000
00000000
,
00000000
00000000
00000000
00000000
,
01000000
10000000
01000000
00010000
,
01000000
00000000
00000000
00000000
,
00000000
00000000
00000000
00100000
,
00100000
00000000
10000000
00000000
,
01000000
00000000
00010000
00000000
,
00001000
00010000
00001000
00010000
,
00001000
00000010
00000100
00000000
,
00000000
00000000
00000000
00000000
,
00000100
00000001
00000100
00001000
,
00000100
00000000
00000000
00000000
,
00000000
00000000
00000000
00000010
,
00000010
00000000
00000001
00000000
,
00000100
00000000
00001000
00000000
,
00010000
00001000
00010000
00001000
,
00010000
00100000
01000000
00000000
,
00000000
00000000
00000000
00000000
,
01000000
10000000
01000000
00010000
,
01000000
00000000
00000000
00000000
,
10000000
01000000
00010000
00100000
,
00100000
00000000
10000000
00000000
,
01000000
00000000
00010000
00000000
,
00001000
00010000
00001000
00010000
,
00001000
00000010
00000100
00000000
,
00000001
00000000
00000010
00001000
;
#NOTES:
     dance-double:
     :
     Medium:
     6:
     :
00000000
00000000
00000000
00000000
,
00000000
00000000
00000000
00000000
,
00000000
00000000
00000000
00000000
,
00010000
00000010
00000200
00000300
,
00011000
01000000
00011000
00000100
,
00002000
00013000
00000020
00000130
,
00000010
00001000
00010000
01000000
,
10000000
00010000
01000000
00000000
10000000
00000000
10000000
00000000
,
01000000
00010000
00001000
00000010
,
00000001
00001000
00000010
00000000
00000001
00000000
00000001
00000000
,
00000100
00001000
00010000
00100000
,
00001000
00010000
00001000
00000000
00001000
00000000
00000100
00000000
,
00010000
00001000
00010000
00100000
,
11000000
01010000
00001000
00000101
,
00001001
00000010
00000101
00000101
,
00000001
00001000
00000100
00000000
00000001
00000000
00000001
00000000
,
00000100
00001000
00010000
00100000
,
10000000
00010000
00100000
00000000
10000000
00000000
10000000
00000000
,
01000000
00010000
00001000
00000010
,
00010000
00001000
00010000
00000000
00010000
00000000
01000000
00000000
,
00001000
00010000
00001000
00000010
,
00000101
00001100
00010000
11000000
,
10010000
00100000
11000000
11000000
,
00100000
10010000
01000000
00001000
,
00010000
11000000
00010000
11000000
,
10000000
01000000
00010000
00001000
,
00000100
00000011
00000101
00001100
,
00012000
00003000
00010000
01000000
,
10000000
01000000
00010000
00000010
,
00000110
00000010
00001001
00000001
,
00000010
00001000
00010000
00000000
,
00002000
01003000
00001000
00010000
,
00011000
00001010
00000101
00000001
,
00000001
00000100
00001000
00010000
,
01000000
10100000
11000000
01010000
,
00001000
00000100
00000001
00000100
,
00000001
00000100
00001000
00100000
,
01100000
00100000
10010000
10000000
,
00100000
00010000
00001000
00000000
,
00002000
01003000
00001000
00010000
,
00001000
00000010
00000001
00000001
,
00000001
00000100
00001000
01010000
,
10000000
10100000
11000000
01010000
,
00021000
00030000
00001000
00000100
,
00000001
00000100
00001000
00000010
,
00000110
00000010
00001001
00000001
,
00000010
00001000
00010000
00000000
,
00100000
00100000
00010000
00010000
,
00000100
00000010
00001000
00001000
,
00012000
00000000
00003000
00000000
00001010
00000000
00010000
00001000
;
#NOTES:
     dance-double:
     :
     Hard:
     7:
     :
00000000
00000000
00000000
00000000
,
00000000
00000000
00000000
00000000
,
00000000
00000000
00000000
00000000
,
00020000
00000000
00000000
00030000
00000010
00000000
00001000
00000000
00000200
00000000
00000000
00000000
00000300
00000000
00000000
00000000
,
00010000
00001000
01000000
00000000
00010000
00000000
00000100
00000000
,
00002000
00013000
00020000
00031000
,
00001010
00011000
01010000
10010000
,
10000000
00000000
00020000
00000000
01000000
00000000
00000000
00030000
10000000
00000000
01000000
00000000
10000000
00000000
00000000
00000000
,
01000000
00000000
00010000
00000000
00001000
00000100
00000010
00000000
,
00000001
00000000
00000200
00000000
00000010
00000000
00000000
00000300
00000001
00000000
00000010
00000000
00000001
00000000
00000000
00000000
,
00000100
00000000
00001000
00000000
00010000
01000000
00100000
00000000
,
00001000
00020000
00000010
00030000
00001000
00010000
00000100
00000000
,
00010000
00000000
00001000
00000000
00010000
01000000
00100000
00000000
,
10000000
01000000
01000000
00010000
00001000
00001000
00000100
00000001
,
00000001
00001000
00000010
00000010
00000101
00000000
00000101
00000000
,
00000001
00000000
00002000
00000000
00000100
00000000
00000000
00003000
00000001
00000000
00000100
00000000
00000001
00000000
00000000
00000000
,
00000100
00000000
00001000
00000000
00010000
01000000
00100000
00000000
,
10000000
00000000
02000000
00000000
00100000
00000000
00000000
03000000
10000000
00000000
00100000
00000000
10000000
00000000
00000000
00000000
,
01000000
00000000
00010000
00000000
00001000
00000100
00000010
00000000
,
00010000
00002000
00100000
00003000
00010000
00001000
01000000
00000000
,
00010000
00000000
01000000
00000000
00010000
00100000
00010000
00000000
,
10000000
01000000
01000000
00010000
00001000
00001000
00000100
00000001
,
00000001
00001000
00000010
00000010
00000101
00000000
00000101
00000000
,
00001100
00011000
00110000
10100000
,
00010000
00000000
10000000
01000000
00100000
00010000
10000000
00000000
,
21000000
00000000
30010000
00000000
01000000
00010000
00001000
00000100
,
00000000
00000001
00000010
00000001
00000100
00000001
00000100
00001000
,
00012000
00000000
00003000
00000000
00001000
00010000
01000000
10000000
,
00000000
10000000
00000000
01000000
00000000
00010000
00000000
00000010
,
00000100
00000010
00000010
00000000
00001000
00000001
00000001
00000000
,
00000010
00000000
00001000
00010000
00000000
00000000
00000000
00000000
,
00002000
00000000
00000000
00000000
00003000
00000000
01000000
00000000
00000000
00000000
00001000
00000000
00000000
00010000
00000000
00000000
,
00001000
00010000
00000010
00001000
00000001
00000100
00000001
00000000
,
00000102
00000000
00001003
00000000
00000100
00001000
00010000
01000000
,
00000000
10000000
00100000
10000000
01000000
10000000
01000000
00010000
,
00021000
00000000
00030000
00000000
00010000
00001000
00000100
00000001
,
00000000
00000001
00000000
00000100
00000000
00001000
00000000
00100000
,
01000000
00100000
00100000
00000000
00010000
10000000
10000000
00000000
,
00100000
00000000
00010000
00001000
00000000
00000000
00000000
00000000
,
00020000
00031000
00002000
00003100
,
00000200
00000301
00000002
00000103
,
00000102
00000000
00001003
00000000
00000100
00001000
00010000
01000000
,
00000000
10000000
00100000
10000000
01000000
10000000
01000000
00010000
,
00021000
00000000
00030000
00000000
00010000
00001000
00000100
00000001
,
00000000
00000001
00000000
00000100
00000000
00001000
00000000
00100000
,
01000000
00100000
00100000
00000000
00010000
10000000
10000000
00000000
,
00100000
00000000
00010000
00001000
00000000
00000000
00000000
00000000
,
00000001
00000100
00001000
00000100
00001000
00010000
01000000
10000000
,
01000000
10000000
01000000
00010000
00001000
00000000
00010000
00000000
,
00021000
00000000
00030000
00000000
00000100
00010000
00001000
01000000
;
