
//----- song ID: simp -----//
#TITLE:Simply Being Loved 'Somnambulist';
#ARTIST:BT;
#BANNER:Simply Being Loved 'Somnambulist'.png;
#BACKGROUND:Simply Being Loved 'Somnambulist'-bg.png;
#CDTITLE:./CDTitles/DDR EXTREME US PS2.png;
#MUSIC:Simply Being Loved 'Somnambulist'.ogg;
#SAMPLESTART:50.207;
#SAMPLELENGTH:15;
#DISPLAYBPM:135;
#BPMS:0=135.5,4=136,108=130,112=136;

//---------------dance-single - ----------------
#NOTES:
     dance-single:
     :
     Beginner:
     1:
     :
0000
0000
0000
0000
,
0000
0000
0000
0000
,
0000
0000
0000
0000
,
0000
0000
0000
0000
,
0000
0000
0000
0000
,
0000
0001
0000
0001
,
0000
1000
0000
1000
,
0000
0001
0000
0001
,
0000
1000
0000
1000
,
0000
0000
0000
0000
,
0000
0000
1001
1001
,
0000
0000
0000
0000
,
0000
0000
1001
1001
,
0000
1000
0000
0001
,
0000
1000
0000
0001
,
0000
1000
1000
1000
,
0000
0001
0001
0001
,
0000
0000
0000
0000
,
0000
0000
0110
0110
,
0000
0000
0000
0000
,
0000
0000
0110
0110
,
0000
0010
0000
0100
,
0000
0010
0000
0100
,
0000
0010
0010
0010
,
0000
0100
0100
0100
,
0100
0000
0000
0000
,
1000
0000
0000
0000
,
0100
0000
0000
0000
,
0001
0000
0000
0000
,
1001
1001
0000
0000
,
0010
0000
0100
0000
,
0110
0110
0000
0000
,
0001
0000
1000
0000
,
1001
1001
0000
0000
,
0010
0010
0010
0010
,
0010
0000
1001
0000
,
1001
0000
0001
0000
,
1000
0000
1001
0000
,
1001
0000
1000
0000
,
0001
0000
1001
0000
,
1001
0000
0010
0000
,
0100
0000
0110
0000
,
0110
0000
0001
0000
,
1000
0000
0001
0000
,
1000
0000
0010
0000
,
0100
0000
0000
0000
,
0100
0000
0000
0000
,
0001
0001
0000
0000
,
1000
1000
0000
0000
,
0100
0100
0000
0000
,
0010
0010
0000
0000
,
1001
0000
0000
0000
,
0110
0000
0000
0000
,
1001
0000
0010
0000
,
0010
0000
0010
0010
,
0010
0000
0010
0000
,
0010
0000
0010
0010
,
0010
0000
0000
0000
;

//---------------dance-single - ----------------
#NOTES:
     dance-single:
     :
     Easy:
     4:
     :
0000
0000
0000
0000
,
0000
0000
0000
0000
,
0000
0000
0000
0000
,
0001
0001
0100
0000
,
0100
0100
0100
0100
,
0001
0000
0001
0100
,
1000
0000
0100
0010
,
0100
0000
0001
0000
,
1000
0000
0000
0000
,
0002
0003
0001
0000
,
0100
0000
0010
0100
,
0200
0300
0100
0000
,
0001
0000
1000
0001
,
2000
3000
1000
0000
,
0100
0000
0010
0100
,
1000
0000
0001
0000
,
2002
3003
0000
0000
,
2000
3000
1000
0000
,
0100
0000
0010
0100
,
0200
0300
0100
0000
,
1000
0000
0001
1000
,
0002
0003
0001
0000
,
0100
0000
0010
0100
,
0001
0000
1000
0000
,
0200
0000
0310
0000
,
0001
0000
0001
0000
,
0001
0000
0000
0000
,
1000
0000
0100
0000
,
0100
0100
0100
0100
,
2000
3000
1000
0100
,
0001
0000
0100
0100
,
2000
3000
1000
0100
,
0001
0000
0001
0100
,
2000
3000
1000
0100
,
0001
0000
1000
0100
,
0010
0000
2000
3000
,
1001
0000
0000
0000
,
0110
0000
0010
0000
,
0100
0000
1000
1000
,
0001
0000
0100
0000
,
1000
0000
0100
0100
,
0020
0030
0010
0000
,
0100
0000
0010
0100
,
0020
0000
0000
0030
,
0200
0000
0000
0300
,
0001
0000
0100
0000
,
1000
0000
0100
0000
,
0002
0003
0100
0000
,
0020
0030
1000
0000
,
0001
0001
1000
1000
,
0002
0003
0100
0000
,
0020
0000
0030
0000
,
0200
0000
0300
0000
,
0001
0001
0001
0000
,
1000
1000
0100
0000
,
0002
0000
0003
0000
,
2000
0000
3000
0000
,
0010
0000
0220
0000
,
0000
0000
0000
0330
0000
0000
0000
0000
;

//---------------dance-single - ----------------
#NOTES:
     dance-single:
     :
     Medium:
     6:
     :
0000
0000
0000
0000
,
0000
0000
0000
0000
,
0000
0000
0000
0000
,
2000
0000
3000
0002
0000
0000
0003
0000
,
0001
0001
0100
0100
0010
0010
1000
0000
,
0002
0003
0010
0100
,
0020
0130
1000
0100
,
0001
0010
1000
0100
,
1001
0000
0000
0100
,
0001
0010
0001
0000
1000
0000
1100
0000
,
0001
0000
0100
0000
1000
0100
0001
0000
,
2000
0000
3010
0000
1000
0000
0010
1000
,
0200
0300
1000
0001
,
0010
0001
0100
0000
0001
0000
1100
0000
,
1000
2000
3001
0002
,
1003
0000
0010
0000
,
0001
0100
1000
0001
,
1000
0010
1000
0000
0001
0000
0101
0000
,
1000
0000
0100
0000
0001
0100
1000
0000
,
0002
0000
0013
0000
0001
0000
0010
0001
,
0200
0300
0001
1000
,
0010
1000
0100
0000
1000
0000
0101
0000
,
0001
0100
0001
0000
1000
0001
1000
0000
,
1001
0000
0020
0000
,
2030
3000
1001
0100
,
0001
0100
1000
0010
,
0001
0100
1000
0000
0010
0000
0010
0000
,
0200
0000
0000
0000
0302
0000
0000
0003
,
0001
0001
0100
0100
0010
0010
1000
0000
,
0002
0000
0000
0000
0203
0000
0310
1000
,
0100
0000
0010
0000
0001
0010
0100
0000
,
0020
0130
0001
1000
,
0001
1000
0001
0000
0010
0000
0100
0000
,
2000
0000
0000
0000
3200
0000
0310
0001
,
0100
0000
0010
0000
1000
0010
0100
0000
,
0002
1003
0200
0310
,
0220
0000
0000
0330
,
1000
0000
0001
1000
0001
0000
0100
0000
,
0020
0030
0100
0100
,
0001
0000
1000
0000
0010
0100
0010
0000
,
0001
0100
1000
0010
,
0100
0000
2002
3003
,
1000
0100
0001
0010
,
0001
2000
3020
0000
,
0230
0300
0100
0010
,
0200
0300
0002
0003
,
2000
3000
0200
0300
,
0010
0001
0000
0001
,
0100
1000
0100
0001
,
1000
0010
0100
0000
0001
1000
0100
0000
,
1000
2000
3002
0103
,
0020
0130
0001
0100
,
1000
0000
0100
0000
0001
0010
0100
0000
,
1000
1000
1000
0100
,
0001
0100
0001
0010
,
0200
0300
2000
3000
,
0002
0003
0200
0300
,
0010
0000
0000
0220
0000
0000
0000
0000
,
0000
0000
0000
0330
0000
0000
0000
0000
;

//---------------dance-single - ----------------
#NOTES:
     dance-single:
     :
     Hard:
     7:
     :
0000
0000
0000
0000
,
0000
0000
0000
0000
,
0000
0000
0000
0000
,
2010
0000
0000
3002
0000
0000
0013
0000
,
0001
0000
0000
0000
0000
0000
0000
0000
0000
0000
0000
0000
0000
0000
0000
0010
0000
0000
0000
0000
0000
0000
0000
0000
0000
0000
0000
0000
0000
0000
0000
0001
0000
0000
0000
0000
0000
0000
0000
0000
0000
0000
0000
0000
0000
0000
0000
0000
0010
0000
0000
0000
0000
0000
0000
0000
0000
0000
0000
0000
0000
0000
0000
0001
0000
0000
0000
0000
0000
0000
0000
0000
0000
0000
0000
0000
0000
0000
0000
0010
0000
0000
0000
0000
0000
0000
0000
0000
0000
0000
0000
0000
0000
0000
0000
0000
0100
0000
0000
0000
0000
0000
0000
0000
0000
0000
0000
0000
0000
0000
0000
0010
0000
0000
0000
0000
0000
0000
0000
0000
0000
0000
0000
0000
0000
0000
0000
0100
0000
0000
0000
0000
0000
0000
0000
0000
0000
0000
0000
0000
0000
0000
0000
0000
0010
0000
0000
0000
0000
0000
0000
0000
0000
0000
0000
0000
0000
0000
0000
0000
0000
0000
0000
0000
0000
0000
0000
0000
0000
0000
0000
0000
0000
0000
0000
0000
0000
0000
0000
0000
0000
0000
0000
0000
0000
0000
0000
0000
0000
0000
0000
0000
,
0220
0330
0100
0110
,
2000
0000
3001
0000
1000
0001
0100
0010
,
0100
0220
0330
0110
,
2002
0000
3003
1001
,
0001
0010
0200
0000
0310
0100
1000
0000
,
2000
0000
3010
0000
0010
1000
0010
0100
,
0001
0000
0001
0100
0010
0000
0010
1000
,
0100
0000
0100
0000
0001
0001
1000
0001
,
0100
0000
0200
0000
0301
0010
0100
0000
,
1000
0010
0100
0000
0100
0001
1000
0000
,
0002
0000
0103
0000
1000
0100
0020
0000
,
0032
0000
2003
0000
3001
1000
0100
0000
,
1000
0010
0200
0000
0310
0100
0001
0000
,
0002
0000
0013
0000
0010
0001
0010
0100
,
1000
0000
1000
0100
0010
0000
0010
0001
,
0100
0000
0100
0000
1000
1000
0001
1000
,
0100
0000
0200
0000
1300
0010
0100
0000
,
0001
0010
0100
0000
0100
1000
0001
1000
,
1001
0000
0000
0000
,
0020
0030
0200
0300
,
0002
0103
2000
3010
,
0002
0000
0013
0000
0100
0010
0100
0000
,
0200
0000
0000
0000
1300
0000
0000
0000
1000
0000
0000
0000
0020
0000
0000
0030
,
1000
0000
0000
0000
0000
0000
0000
0000
0000
0000
0000
0000
0000
0000
0000
0010
0000
0000
0000
0000
0000
0000
0000
0000
0000
0000
0000
0000
0000
0000
0000
1000
0000
0000
0000
0000
0000
0000
0000
0000
0000
0000
0000
0000
0000
0000
0000
0000
0010
0000
0000
0000
0000
0000
0000
0000
0000
0000
0000
0000
0000
0000
0000
1000
0000
0000
0000
0000
0000
0000
0000
0000
0000
0000
0000
0000
0000
0000
0000
0010
0000
0000
0000
0000
0000
0000
0000
0000
0000
0000
0000
0000
0000
0000
0000
0000
0100
0000
0000
0000
0000
0000
0000
0000
0000
0000
0000
0000
0000
0000
0000
0010
0000
0000
0000
0000
0000
0000
0000
0000
0000
0000
0000
0000
0000
0000
0000
0100
0000
0000
0000
0000
0000
0000
0000
0000
0000
0000
0000
0000
0000
0000
0000
0000
0010
0000
0000
0000
0000
0000
0000
0000
0000
0000
0000
0000
0000
0000
0000
0000
0000
0000
0000
0000
0000
0000
0000
0000
0000
0000
0000
0000
0000
0000
0000
0000
0000
0000
0000
0000
0000
0000
0000
0000
0000
0000
0000
0000
0000
0000
0000
0000
,
1000
1000
0200
0000
0310
0001
0100
0010
,
2000
0000
0100
0000
3001
1000
0100
0010
,
0002
0000
0100
0000
2003
0000
0000
3200
,
0000
0000
0010
0310
,
0001
0001
0200
0000
0310
1000
0100
0010
,
0002
0000
0100
0000
1003
0001
0100
0000
,
0020
0000
1030
0001
0200
0000
0301
0000
,
0001
1000
1000
0010
0010
0100
0100
0000
,
0020
1000
0200
0330
,
0100
0000
0010
0000
0010
0100
0001
1000
,
0002
0203
0320
2030
,
3002
0000
0013
0000
0010
0100
0100
1000
,
0001
1000
0001
0000
0020
0000
0031
0100
,
2000
0000
0001
3100
,
0002
0000
0203
0000
,
0320
0000
0000
0000
1030
0000
0001
1000
,
0002
0000
0000
0200
0003
0000
0310
0000
,
2000
0000
3010
0000
0010
0010
1000
0001
,
0200
0000
0300
0002
0000
0000
0013
0001
,
0100
0000
1000
0000
0100
1000
0001
0010
,
0200
0010
0000
0310
,
0020
0000
0031
0000
0001
0100
0010
1000
,
0020
0000
1030
0200
0000
0000
0310
0000
,
1000
0000
0100
0000
0010
0010
0001
1000
,
0200
0010
0010
0310
,
0020
0000
0031
0000
0100
0001
1000
0010
,
0200
0000
0301
0020
0000
0000
0030
0000
,
0010
0100
0010
0000
1000
0001
0100
0000
,
0020
0000
0000
0200
0000
0000
0000
0000
,
0000
0000
0000
0330
0000
0000
0000
0000
;

//---------------dance-double - ----------------
#NOTES:
     dance-double:
     :
     Easy:
     3:
     :
00000000
00000000
00000000
00000000
,
00000000
00000000
00000000
00000000
,
00000000
00000000
00000000
00000000
,
00000000
00000000
00000000
00000000
,
00000000
00000000
00000000
00000000
,
00020000
00000000
00000000
00030000
,
00002000
00000000
00000000
00003000
,
00000020
00000000
00000000
00000030
,
00000200
00000000
00000000
00000300
,
00000001
00000000
00001000
00000000
,
00000001
00000000
00000001
00000001
,
00000001
00000000
00000100
00000000
,
00001000
00000000
00001000
00001000
,
00010000
00000000
00010000
00000000
,
00100000
00000000
01000000
01000000
,
02000000
00000000
00000000
03000000
,
00010000
00010000
00010000
00010000
,
00010000
00000000
00010000
00000000
,
10000000
00000000
10000000
10000000
,
10000000
00000000
01000000
00000000
,
00010000
00000000
00010000
00010000
,
00001000
00000000
00001000
00000000
,
00000010
00000000
00000100
00000100
,
00000200
00000300
00000020
00000030
,
00002000
00000000
00000000
00003000
,
00001001
00000000
00000001
00000000
,
00000001
00000000
00000100
00000100
,
00001000
00000000
00010000
00000000
,
00020000
00000000
00030000
00000000
,
00011000
00000000
00001000
00000000
,
00010000
00000000
00010000
00010000
,
00100000
00000000
00100000
00000000
,
00100000
00000000
01000000
00010000
,
10000000
00000000
10000000
00000000
,
10000000
00000000
01000000
00010000
,
00002000
00000000
00010000
00003000
,
00020000
00000000
00001000
00031000
,
00011000
00000000
00001000
00000000
,
00000010
00000000
00000100
00000100
,
00000100
00000000
00001000
00000000
,
00001000
00000000
00000001
00000001
,
00000001
00000000
00000010
00000000
,
00000100
00000000
00001000
00001000
,
00020000
00000000
00000000
00030000
,
00200000
00000000
00000000
00300000
,
10010000
00000000
00000000
00000000
,
00000000
00000000
01000000
00010000
,
00001000
00000000
00000000
00000000
,
00000000
00000000
00000010
00000001
,
00000100
00000000
00000000
00000000
,
00000000
00000000
00001000
00010000
,
00100000
00000000
00000000
00000000
,
00000000
00000000
01000000
01000000
,
02000000
00000000
00000000
00000000
,
00000000
00000000
00010000
03010000
,
00020000
00000000
00000000
00000000
,
00000000
00000000
00001000
00031000
,
00002000
00000000
00020000
00003000
,
00000000
00000000
00030000
00000000
;

//---------------dance-double - ----------------
#NOTES:
     dance-double:
     :
     Medium:
     6:
     :
00000000
00000000
00000000
00000000
,
00000000
00000000
00000000
00000000
,
00000000
00000000
00000000
00000000
,
00000000
00000000
00000000
00000000
,
00000000
00000000
00000000
00000000
,
00000002
00000000
00000000
00002000
00000000
00000000
00000003
00000000
,
00000020
00003000
00000000
00000100
00000030
00000000
00000001
00000100
,
00002000
00000000
00000000
00020000
00000000
00000000
00033000
00000000
,
00022000
00000000
00000000
00033000
,
00000000
00010000
01000000
00000000
01000000
00000000
10000000
00000000
,
02200000
00000000
03300000
00000000
10000000
00010000
00100000
01000000
,
00000000
01000000
00100000
00000000
01000000
00000000
01000000
00000000
,
20020000
00000000
30030000
00000000
00100000
01000000
00100000
01000000
,
00000000
00010000
10000000
00000000
00100000
00010000
00001000
00000000
,
00000010
00000100
00002000
00003100
,
00000002
00000103
00002000
00003100
,
00000002
00000100
00000100
00000103
,
00000000
00001000
00000010
00000000
00000010
00000000
00000001
00000000
,
00000220
00000000
00000330
00000000
00000001
00001000
00000100
00000010
,
00000000
00000010
00000001
00000000
00001000
00000000
00001000
00000000
,
00022000
00000000
00033000
00000000
00010000
00100000
01000000
00100000
,
00000000
10000000
00010000
00000000
01000000
00100000
10000000
00000000
,
01000000
00100000
00020000
00031000
,
00000020
00000130
00000200
00000301
,
00000001
00001000
00000000
00000000
00010000
00100000
01000000
00000000
,
20020000
30030000
02000000
00000000
,
00020000
03030000
00100000
10000000
,
02000000
00000000
00020000
03030000
,
00021000
00000000
00001000
00031000
,
00000010
00000100
00000010
00000000
00001020
00000000
00000130
00000000
,
00000210
00000000
00000301
00000000
00000010
00000100
00000010
00000000
,
00001200
00010300
00021000
00130000
,
00100000
00000000
10000000
00000000
00010000
00100000
00010000
00000000
,
21000000
30010000
01020000
10030000
,
10000000
00000000
01000000
00000000
00010000
00001000
00010000
00000010
,
00000100
00000100
00002002
00003003
,
00000200
00000300
00000010
00000010
,
00002002
00003003
00000200
00000300
,
00000000
00000020
00000000
00000000
00000030
00000000
00000000
00000000
00001000
00000000
00000100
00000000
00001000
00000000
00000000
00000000
,
00000202
00000303
00002000
00003000
,
00020000
00000000
00030000
00000000
00010000
01000000
10000000
00010000
,
20000000
30000000
00200000
00300000
,
02000000
00000000
03000000
00000000
00100000
10000000
00100000
01000000
,
00020000
00000000
00000000
00000000
10000000
00000000
00030000
10000000
,
02000000
00000000
00000000
03000000
,
01000000
01000000
00010000
00010000
,
00001000
00000000
00000010
00000000
00000001
00001000
00000010
00000100
,
00000002
00000000
00000000
00000003
,
00002000
00000000
00000000
00000000
00003010
00000100
00000010
00001000
,
00000200
00000000
00000000
00000300
,
00000020
00000000
00000000
00000000
00000031
00000100
00001000
00010000
,
00002000
00000000
00000000
00003000
,
00020000
00000000
00000000
00000000
00031000
00010000
01000000
20000000
,
00020000
00000000
00000000
30000000
,
00000000
00000000
00000000
00000000
01030000
00100000
10000000
00000000
,
02000000
00000000
00000000
03000000
,
00020000
00000000
00000000
00000000
00031000
00010000
00001000
00000000
,
00020000
00000000
00000000
00002000
00000000
00000000
00030000
00000000
,
00000000
00000000
00003000
00000000
;

//---------------dance-double - ----------------
#NOTES:
     dance-double:
     :
     Hard:
     7:
     :
00000000
00000000
00000000
00000000
,
00000000
00000000
00000000
00000000
,
00000000
00000000
00000000
00000000
,
00000000
00000000
00000000
00000000
,
00000000
00000000
00000000
00000000
,
00000001
00000010
00000100
00002000
00000000
00000100
00003000
00000000
,
00000010
00000100
00000001
00000020
00000000
00000100
00000030
00000100
,
00001000
00000001
00000100
00002000
00000000
00010000
00003000
00000000
,
00010000
00000000
00200000
00000000
00000000
00000000
00000000
00000000
00000000
00000000
00000000
00300000
00000000
00000000
00000000
00000000
,
10010000
00010000
00100000
00000000
01000000
10000000
00010000
10000000
,
01000000
00000000
00000000
00000000
00010000
00001000
00000100
00000001
,
00000000
00000001
00001000
00000000
00001000
00000010
00000100
00000000
,
00002002
00000000
00003003
00000000
00000010
00000100
00000001
00001000
,
00000000
00000001
00000100
00000000
00001000
00010000
00100000
01000000
,
00010000
00100000
00000000
00000000
01000000
10000000
00100000
01000000
,
00020000
00100000
00100000
00130000
,
00001000
00010000
00000100
00000010
00000100
00001000
00000010
00000000
,
00001001
00001000
00000010
00000000
00000100
00000001
00001000
00000001
,
00000010
00000000
00000000
00000000
00001000
00010000
01000000
10000000
,
00000000
10000000
00010000
00000000
00010000
00100000
01000000
00000000
,
20020000
00000000
30030000
00000000
00100000
01000000
10000000
00010000
,
00000000
10000000
00100000
00000000
00010000
00001000
00000010
00000100
,
00001000
00000010
00000000
00000000
00000100
00000001
00000010
00000100
,
00002000
00000010
00000020
00003030
,
00000202
00000000
00000300
00000000
00001003
00000010
00000100
00000010
,
00001002
00000000
00001000
00000000
,
00001000
00000000
00000000
00000000
00000103
00001000
00010000
00100000
,
20000000
00000000
00020000
30030000
,
00100000
01000000
00100000
10000000
01000000
00100000
00010000
00000000
,
21000000
30010000
01020000
10030000
,
11000000
00000000
00010000
00000000
00001000
00000010
00000001
00000000
,
00001020
00000130
00000102
00000013
,
00001100
00000000
00000001
00000000
00000010
00001000
00010000
00000000
,
00210000
10300000
21000000
30010000
,
01100000
00000000
10000000
00000000
00100000
00010000
00001000
00000010
,
00000200
00000300
00002002
00000003
,
00000020
00000000
00003030
00000000
00000100
00000001
00000100
00000010
,
00002000
00000000
00020000
00003000
,
00230000
00000000
00000000
00000000
01000000
00000000
01300000
00100000
,
02000000
00000000
20000000
03000000
,
00200000
00000000
00000000
00000000
30300000
00000000
00000000
00000000
00100000
00000000
10000000
01000000
10000000
00000000
00010000
00000000
,
20000000
00000000
00200000
30000000
,
00020000
00000000
00300000
00000000
00031000
00000010
00000001
00000200
,
00000020
00000000
00000000
00000000
00000330
00000000
00002000
00000002
,
00000000
00000000
00000000
00003003
,
00000200
00000000
00000000
00002000
00000000
00000000
00000300
00000000
,
02000000
00000000
03003000
00000000
00100000
10000000
01000000
00100000
,
00020000
00000000
00000000
00200000
00000000
00000000
00030000
00000000
,
02000000
00000000
03300000
00000000
10000000
00100000
00010000
00001000
,
00000200
00000000
00000000
00000002
00000000
00000000
00000300
00000000
,
00000020
00000000
00000033
00000000
00000100
00001000
00000001
00000100
,
00002000
00000000
00000000
00020000
00000000
00000000
00003000
00000000
,
02000000
00000000
03030000
00000000
10000000
00010000
00100000
02000000
,
20000000
00000000
00000000
00000000
,
00000000
00000000
33000000
00000000
00010000
00001000
00000010
00000002
,
00000200
00000000
00000000
00000000
,
00000000
00000000
00000303
00000000
00001000
00010000
00100000
10000000
,
02000000
00000000
00000000
00200000
00000000
00000000
00000000
00000000
,
00000000
00000000
03300000
00000000
;
