
//----- mcode: plan -----//
#TITLE:Planet Rock (Swordfish Radio Edit);
#ARTIST:Paul Oakenfold vs Afrika Bambaataa and The Soul Sonic Force;
#BANNER:Planet Rock (Swordfish Radio Edit).png;
#BACKGROUND:Planet Rock (Swordfish Radio Edit)-bg.png;
#CDTITLE:./CDTitles/DDR EXTREME US PS2.png;
#MUSIC:Planet Rock (Swordfish Radio Edit).ogg;
#SAMPLESTART:24.569;
#SAMPLELENGTH:15;
#DISPLAYBPM:126;
#BPMS:0=126.797;
#NOTES:
     dance-single:
     :
     Beginner:
     1:
     :
0000
0000
0000
0000
,
0000
0000
0000
0000
,
0000
0000
0000
0000
,
0000
0000
0000
0000
,
0000
0000
0000
0000
,
1000
0000
0000
0000
,
0001
0000
0000
0000
,
0100
0000
0000
0000
,
0010
0000
0000
0000
,
1000
1000
0000
0000
,
0001
0001
0000
0000
,
0100
0100
0000
0000
,
0010
0010
0000
0000
,
1000
1000
1000
0000
,
0001
0001
0001
0000
,
0100
0100
0100
0000
,
0010
0010
0010
0000
,
0001
0001
0000
0100
,
0000
1000
1000
0000
,
1000
1000
0000
0010
,
0000
0001
0001
0000
,
0000
0001
0000
1000
,
0000
0010
0000
1001
,
0000
0000
0000
0000
,
0000
0000
0000
0000
,
1000
1000
0000
0010
,
0000
0001
0001
0000
,
0001
0001
0000
0100
,
0000
1000
1000
0000
,
0000
1000
0000
0001
,
0000
0010
0000
1001
,
1001
0000
0001
0000
,
0100
0000
0001
0000
,
0100
0000
0001
0000
,
0100
0000
1000
0000
,
0010
0000
1000
0000
,
0100
0000
0001
0000
,
0010
0000
1000
0000
,
0100
0000
0001
0000
,
0010
0000
1000
0000
,
0010
0000
0001
0000
,
0100
0000
1000
0000
,
0100
0000
1000
0000
,
0010
0000
0001
0000
,
0010
0000
1000
0000
,
0100
0000
0000
0000
,
0010
0000
0000
0000
,
0001
0001
0000
0000
,
1000
0000
1000
0000
,
0100
0100
0000
0000
,
0010
0000
0010
0000
,
1000
1000
0000
0000
,
0001
0000
0001
0000
;
#NOTES:
     dance-single:
     :
     Easy:
     3:
     :
0000
0000
0000
0000
,
0000
0000
0000
0000
,
0000
0000
0000
0000
,
0000
0000
0000
0000
,
0000
0000
0000
0000
,
0110
0000
0000
0000
,
0010
0000
1000
0000
,
0001
0001
0100
0000
,
1000
1000
0001
0001
,
1000
0100
0000
0010
,
0110
0000
0000
0000
,
0010
0010
0001
0000
,
1000
1000
0100
0000
,
0001
0100
0000
0010
,
0110
0000
0000
0000
,
0010
0010
1000
0000
,
0001
0001
0100
0000
,
0001
0200
0301
0000
,
1000
2000
3001
0100
,
0001
0000
1000
0000
,
0010
0001
1000
0100
,
0010
0010
0010
0000
,
1000
0000
0001
1001
,
0100
0000
0010
0000
,
0001
0000
1000
0000
,
1000
0200
1300
0000
,
0001
0002
1003
0100
,
1000
0000
0001
0000
,
0010
1000
0001
0100
,
0010
0010
0010
0000
,
0001
0000
1000
1001
,
0002
0000
0103
0000
,
0020
0000
1030
0000
,
0002
0003
2000
3000
,
0020
0000
0130
0000
,
0002
0000
0000
0003
,
2000
0000
0000
3000
,
0001
0000
0010
0000
,
0100
0000
1000
0000
,
0010
0020
0130
0000
,
1000
0001
1000
0000
,
0001
0001
0010
0010
,
1000
0100
0001
0010
,
1000
1000
0200
0300
,
0001
0010
2000
3000
,
0200
0000
0000
0300
,
0010
0100
0110
0000
,
0001
0001
0001
0000
,
0100
0000
0001
0000
,
1000
1000
1000
0000
,
0001
0000
0100
0000
,
1000
0001
0100
0000
,
0100
0000
0100
0000
;
#NOTES:
     dance-single:
     :
     Medium:
     5:
     :
0000
0000
0000
0000
,
0000
0000
0000
0000
,
0000
0000
0000
0000
,
0000
0000
0000
0000
,
0000
0000
0000
0000
,
1000
0000
0100
0000
0010
0001
0100
0000
,
0010
0002
1003
0100
,
1000
0010
0100
0000
2000
0000
3001
0000
,
0001
0101
1000
1100
,
1001
0000
0100
0000
0010
1000
0100
0000
,
0010
2000
3001
0100
,
0001
0010
0100
0000
0002
0000
1003
0000
,
0010
0010
1000
0001
,
1001
0000
0100
0000
0010
0001
0100
0000
,
0010
0002
1003
0100
,
1000
0010
0100
0000
2000
0000
3001
0000
,
0010
0010
0200
0300
,
1001
0000
0001
0100
,
0010
1000
0100
0000
1001
0000
0100
0000
,
1000
0000
0001
0100
0001
0000
0100
0000
,
0020
1030
0100
0010
,
2000
3001
0101
0100
,
0010
0001
0100
0000
0001
0000
0011
0000
,
2000
0000
3100
0000
,
0002
0100
0013
0100
,
0110
0000
1000
0100
,
0010
0001
0100
0000
1001
0000
0100
0000
,
0001
0000
1001
0000
1000
0010
0100
0000
,
0020
0031
0100
0010
,
0001
1001
0100
0000
,
0010
1000
0100
0000
1000
0000
1010
0000
,
0001
1010
2000
3010
,
0200
0000
0301
0000
0010
0100
0001
0000
,
1100
0000
0010
0101
,
0002
0000
0103
0000
1000
0100
0010
0000
,
0102
0103
0020
1030
,
2000
3001
0200
0300
,
0020
0000
1000
0130
,
0001
0100
1000
0100
,
0002
0003
0001
0100
,
0010
2000
3100
0001
,
1000
0001
1000
0000
0020
0000
0100
0000
,
0031
0200
0310
0100
,
2000
3100
0200
0310
,
0001
0002
2003
3100
,
0200
0000
0000
0300
,
0010
0100
1001
0000
,
0001
0000
0001
0000
1000
0010
0100
0000
,
0001
0001
1000
1100
,
1000
0000
1000
0000
0001
0010
0100
0000
,
1000
1000
0001
0101
,
1000
0001
0100
0100
;
#NOTES:
     dance-single:
     :
     Hard:
     7:
     :
0000
0000
0000
0000
,
0000
0000
0000
0000
,
0000
0000
0000
0000
,
0000
0000
0000
0000
,
0000
0000
0000
0000
,
1001
0000
0101
0000
0001
0100
0000
0000
,
1000
0010
0000
0100
0010
0000
0110
0000
,
1000
0000
1010
0000
0001
0100
0000
0001
,
1001
0011
0110
1100
,
1001
0000
1100
0000
1000
0100
0000
0000
,
0001
0010
0000
0100
0010
0010
0110
0000
,
0001
0010
0011
0000
1000
0100
0000
0010
,
0001
1000
0002
0100
1003
0000
0110
0000
,
1001
0000
0101
0000
0001
0100
0000
0000
,
1000
0010
0000
0100
0010
0010
0110
0000
,
1000
0010
1010
0000
0001
0100
0000
0010
,
1000
0001
2000
0100
3001
0000
0110
0000
,
0001
0010
0001
0010
0100
0000
0100
0000
,
1001
0000
0100
0001
1000
0010
0100
0000
,
0110
0001
0110
2000
,
3002
0000
1003
0000
0010
1000
0100
0000
,
1000
0010
1000
0010
0100
0000
0010
0000
,
0001
0000
0011
0000
0011
0010
0100
0000
,
0020
0000
0100
0000
0001
0001
0031
0000
,
0200
0001
0010
0310
,
1000
0010
1000
0010
0100
0000
0100
0000
,
1001
0000
0100
1000
0001
0010
0100
0000
,
0110
0000
1000
0000
0110
0000
0002
2000
,
0003
0000
3001
0000
0010
0001
0100
0000
,
0001
0010
0001
0010
0110
0000
0010
0000
,
1000
0000
1010
0000
1010
0010
0100
0000
,
0210
0000
0301
1000
0002
0000
0103
0001
,
2000
0000
3010
0000
0001
0010
0100
1000
,
2000
0000
0010
0000
3020
0000
0130
0010
,
0200
0000
0301
0100
0002
0000
1003
1000
,
0010
0100
0020
0000
1030
0010
0100
0001
,
0100
0000
1000
0000
0010
1000
0100
0010
,
0001
0000
0002
0000
1003
0010
0100
0001
,
1000
0000
2000
0000
3001
0100
0001
1000
,
0020
0000
0100
0000
0200
0000
0330
0001
,
0010
0001
2000
0000
3002
0000
0103
0010
,
0010
0000
0110
0000
0001
0010
0010
0001
,
0020
0032
2003
3200
,
0310
0001
0100
0010
1000
0010
0100
0001
,
1000
0000
0101
0000
1000
0010
0100
0000
,
0220
0000
0000
0330
,
0001
0100
0000
1001
0000
0000
0000
0000
,
0001
0100
0002
0000
0013
0000
0110
0000
,
1000
0010
0100
0000
0001
0000
0110
0000
,
1000
0100
2000
0000
3010
0000
0110
0000
,
0001
0010
0100
0000
1000
0000
0110
0000
,
0001
1000
0001
0000
0010
0000
0100
0010
,
0220
0000
0330
0000
;
#NOTES:
     dance-double:
     :
     Easy:
     2:
     :
00000000
00000000
00000000
00000000
,
00000000
00000000
00000000
00000000
,
00000000
00000000
00000000
00000000
,
00000000
00000000
00000000
00000000
,
00000000
00000000
00000000
00000000
,
00010000
00000000
00010000
00000000
,
00010000
10000000
00010000
00000000
,
10000000
00000000
10000000
00010000
,
20000000
00000000
00000000
30000000
,
10010000
00000000
01000000
00000000
,
00010000
00010000
00001000
00000000
,
00001000
00000010
00000001
00000000
,
00000002
00000000
00000000
00000003
,
00001001
00000000
00000100
00000000
,
00001000
00001000
00010000
00000000
,
00010000
00100000
10000000
00000000
,
20000000
00000000
00000000
30000000
,
10010000
00000000
01000000
00000000
,
01000000
00000000
01000000
01000000
,
01000000
00000000
00010000
00000000
,
00001000
00001000
00001000
00000000
,
00000110
00000000
00000001
00000000
,
00001000
00001000
00001000
00001001
,
00000000
00000000
00000000
00000000
,
00000000
00000000
00000000
00000000
,
10010000
00000000
01000000
00000000
,
01000000
00000000
00010000
00010000
,
00010000
00000000
00001000
00000000
,
00002000
00000000
00000010
00003010
,
00001001
00000000
00000100
00000100
,
00000100
00000000
00000010
00000010
,
00001001
00000000
00000100
00000000
,
00001000
00000000
00010000
00000000
,
00010000
00000000
01000000
00000000
,
10000000
00000000
10000000
00000000
,
20020000
00000000
00000000
30030000
,
00200000
00000000
00000000
00300000
,
00020000
00000000
00000000
00030000
,
00002000
00000000
00000000
00003000
,
00000020
00000000
00000000
00000030
,
00000002
00000000
00000000
00000003
,
00002000
00000000
00000000
00003000
,
00000020
00000000
00000000
00000030
,
00000200
00000000
00000000
00000300
,
00002000
00000000
00000000
00003000
,
00020000
00000000
00000000
00030000
,
00001000
00010000
00011000
00000000
,
00010000
00000000
00010000
00010000
,
00100000
00000000
00100000
00100000
,
01100000
00000000
01000000
01000000
,
01000000
00000000
10000000
10000000
,
10000000
00000000
00010000
00010000
,
00010000
00000000
10000000
00000000
;
#NOTES:
     dance-double:
     :
     Medium:
     5:
     :
00000000
00000000
00000000
00000000
,
00000000
00000000
00000000
00000000
,
00000000
00000000
00000000
00000000
,
00000000
00000000
00000000
00000000
,
00000000
00000000
00000000
00000000
,
20000000
00010000
00010000
30010000
,
00020000
10000000
10000000
10030000
,
20000000
00010000
00010000
30010000
,
01100000
00010000
00011000
00000100
,
00000110
00000000
00000001
00000000
00001000
00000001
00001000
00000000
,
00000010
00000010
00001000
00000001
,
00000100
00000000
00001000
00000000
00010000
01000000
10000000
00000000
,
20000000
01000000
01000000
31000000
,
01100000
00000000
10000000
00000000
00010000
10000000
00010000
00000000
,
00100000
00100000
00010000
10000000
,
01000000
00000000
00010000
00000000
00001000
00000100
00000001
00000000
,
00000002
00000100
00000100
00000103
,
00001010
00000000
00000100
00000010
00000100
00000000
00000100
00001000
,
00000100
00000000
00001000
00000000
00000001
00000000
00000100
00001000
,
00010000
00010000
01000000
10000000
,
10000000
10000000
00010000
00010000
,
01010000
00000000
00100000
01000000
00100000
00000000
00100000
00010000
,
00100000
00000000
00010000
00000000
10000000
00100000
00010000
00000000
,
00002000
00000000
00000000
00003000
,
00000020
00000000
00000000
00000030
,
00001001
00000000
00000001
00000010
00001000
00000000
00011000
00000000
,
00010000
00000000
00010000
01000000
10000000
00000000
10000000
00000000
,
10000000
00010000
10000000
00000000
00100000
00000000
01000000
00000000
,
00020000
00000000
01000000
01030000
,
10010000
00010000
00010000
00001000
,
00001000
00000000
00001000
00000100
00000001
00000000
00001001
00000000
,
00000220
00000000
00000000
00000330
,
00002000
00000000
00000000
00003000
,
00020000
00000000
00000000
00030000
,
00200000
00000000
00000000
00300000
,
10010000
10000000
00010000
00010000
,
00100000
00100000
01000000
01000000
,
10000000
10000000
00100000
00100000
,
00010000
00010000
00001000
00001000
,
00000020
00000000
00000100
00000030
,
00000200
00000000
00001000
00000300
,
00002000
00000000
00000001
00003000
,
00000002
00000000
00000100
00000003
,
00000200
00000000
00001000
00000300
,
00002000
00000000
01000000
00003000
,
02000000
00000000
00010000
03000000
,
20020000
00000000
00000000
30030000
,
01100000
10000000
00000000
01000000
,
01000000
00010000
00000000
00001000
,
00001000
00000010
00000000
00000010
,
00000001
00000000
00000001
00001000
,
00001001
00000000
00000001
00000000
,
00000100
00000000
00000100
00000000
;
#NOTES:
     dance-double:
     :
     Hard:
     7:
     :
00000000
00000000
00000000
00000000
,
00000000
00000000
00000000
00000000
,
00000000
00000000
00000000
00000000
,
00000000
00000000
00000000
00000000
,
00000000
00000000
00000000
00000000
,
00000012
00000000
00000103
00000000
00000010
00001000
00000100
00000000
,
00000010
00001000
00000100
00000000
00000010
00000000
00000001
00000000
,
00002010
00000000
00003100
00000000
00000010
00000001
00000100
00000010
,
00001001
00000110
00001000
00010000
,
20100000
00000000
31000000
00000000
00100000
00010000
01000000
00000000
,
00100000
00010000
01000000
00000000
00100000
00000000
10000000
00000000
,
00120000
00000000
01030000
00000000
00100000
10000000
01000000
00100000
,
10010000
00100000
00010000
00001000
,
00000210
00000000
00001300
00000000
00000001
00000010
00000100
00000000
,
00000001
00000010
00000100
00000000
00001000
00000000
00000101
00000000
,
00001000
00000000
00010000
00000000
01000000
10000000
00010000
00100000
,
02000000
10000000
10000000
13000000
,
10010000
00000000
00100000
01000000
00100000
00000000
01000000
00000000
,
10000000
00010000
01000000
00010000
10000000
00000000
00100000
00010000
,
00000000
01000000
00100000
10000000
00000000
10000000
00100000
00010000
,
00001000
00000000
00000010
00000001
00000100
00000010
00000100
00000000
,
00001000
00000001
00001000
00000001
00001000
00000000
00001000
00000000
,
00000001
00001000
00000001
00001000
00000001
00000000
00000110
00000000
,
00002000
00000000
00000000
00000000
,
00020000
00000000
00000000
00033000
,
10010000
00000000
00100000
01000000
00100000
00000000
01000000
00000000
,
10000000
00010000
01000000
00000000
00100000
10000000
00010000
00000000
,
01000000
00100000
01000000
00000000
00010000
10000000
00100000
00010000
,
00002000
00000010
00000010
00003010
,
00000001
00001000
00000001
00000000
00000001
00001000
00000001
00000000
,
00000010
00000100
00001000
00000001
00000100
00000010
00000110
00000000
,
00002002
00003000
00000020
00000003
,
00000200
00000030
00020000
00000300
,
00002000
00030000
00200000
00003000
,
02000000
00300000
20000000
33000000
,
10010000
00000000
00010000
10000000
00000000
10000000
01000000
00010000
,
00001000
00000000
00001000
00000010
00000000
00000100
00001000
00000001
,
00001001
00000000
00001000
00000001
00000000
00000001
00000100
00001000
,
00010000
00000000
00010000
00100000
00000000
01000000
00010000
10000000
,
20020000
30000000
00200000
00030000
,
02000000
00300000
20000000
03000000
,
00200000
30000000
00020000
00300000
,
00002000
00030000
00000020
00003030
,
00001001
00000000
00001000
00000001
00000000
00000001
00000010
00001000
,
00010000
00000000
00010000
01000000
00000000
10000000
00010000
00100000
,
01000000
00000000
00100000
10000000
00010000
00100000
01000000
10000000
,
00100000
01000000
00000000
20020000
00000000
00000000
30030000
00000000
,
01100000
00000000
10000000
00010000
10000000
00000000
10000000
00000000
,
00100000
00010000
00001000
00000000
00001000
00000000
00000010
00000000
,
00001100
00000000
00000010
00000001
00000100
00000000
00000010
00000000
,
00001000
00000001
00000100
00000000
00000100
00000000
00001000
00000000
,
00010100
00000000
00001000
01000000
00100000
00000000
00100000
00000000
,
10000000
00000000
00010000
00000000
;
