
//----- mcode: ving -----//
#TITLE:Diving;
#ARTIST:4 Strings;
#BANNER:Diving.png;
#BACKGROUND:Diving-bg.png;
#CDTITLE:./CDTitles/DDR EXTREME US PS2.png;
#MUSIC:Diving.ogg;
#SAMPLESTART:10.264;
#SAMPLELENGTH:15;
#DISPLAYBPM:140;
#BPMS:0=139.8,8=140;
#NOTES:
     dance-single:
     :
     Beginner:
     1:
     :
0000
0000
0000
0000
,
0000
0000
0000
0000
,
0000
0000
0000
0000
,
0000
0000
0000
0000
,
0000
0000
0000
0000
,
0000
0000
0000
0000
,
0010
0000
0010
0000
,
0010
0000
0010
0000
,
0010
0000
0010
0000
,
0001
0001
0001
0000
,
1000
0000
1000
0000
,
1000
0000
1000
0000
,
1000
0000
1000
0000
,
0100
0100
0100
0000
,
0001
0000
1000
0000
,
1000
0000
0100
0000
,
0100
0000
0010
0000
,
0001
0001
0001
0000
,
1000
0000
0010
0000
,
0010
0000
0100
0000
,
0100
0000
0001
0000
,
1000
1000
1000
0000
,
0110
0000
0000
0000
,
0001
0000
0000
0000
,
1000
0000
0000
0000
,
0010
0000
0100
0000
,
1001
0000
0001
0000
,
0010
0000
0100
0000
,
1000
0000
1000
0000
,
0010
0000
0100
0000
,
0001
0000
0001
0000
,
0100
0000
0010
0000
,
1000
0000
1000
0000
,
0001
0001
0001
0001
,
0001
0000
1001
0000
,
0100
0100
0100
0100
,
0100
0000
0110
0000
,
0010
0010
0010
0010
,
0010
0000
1001
0000
,
1000
1000
1000
1000
,
1000
0000
0110
0000
,
0001
0001
0001
0001
,
0000
0001
0000
0100
,
0000
0010
0000
1000
,
0000
0100
0000
0010
,
0000
0001
0000
0100
,
0100
0000
0000
0000
;
#NOTES:
     dance-single:
     :
     Easy:
     3:
     :
0000
0000
0000
0000
,
0000
0000
0000
0000
,
0000
0000
0000
0000
,
0000
0000
0000
0000
,
0000
0000
0000
0000
,
0000
0000
0000
0000
,
1000
0100
1000
0100
,
0002
0003
2000
3000
,
0010
0010
1000
0001
,
1000
0000
0001
0000
,
0001
0100
0001
0100
,
2000
3100
0002
0003
,
0010
0010
0001
1000
,
0001
0000
1000
0000
,
0100
0100
0010
0010
,
0001
0000
1000
0000
,
0010
0001
0000
0001
,
0100
1000
0001
1000
,
0010
0010
0100
0100
,
0001
0100
1000
0000
,
0000
0000
0000
0000
,
1000
0000
0100
0000
,
0002
0000
0003
0000
,
0200
0000
0300
0000
,
0002
0000
0003
0000
,
2000
0000
3001
1000
,
2002
0000
3003
0000
,
0010
1000
0010
0100
,
0001
0000
0010
0000
,
0100
0000
1000
0000
,
2002
0000
3003
0000
,
0010
0001
0100
0000
,
1000
0000
0010
0000
,
0100
0100
0001
0001
,
1000
1000
0100
0010
,
0100
0100
0010
0100
,
0001
0000
0100
0000
,
0001
0100
1000
0010
,
0001
0001
0100
0010
,
0100
0100
0010
0100
,
1000
0000
0001
0000
,
0100
0100
0100
0100
,
2000
3000
0100
0010
,
0100
0100
0020
0030
,
0001
0000
1000
0000
,
0100
0001
1000
0001
,
2002
0000
0000
0000
,
3003
0000
0000
0000
;
#NOTES:
     dance-single:
     :
     Medium:
     5:
     :
0000
0000
0000
0000
,
0000
0000
0000
0000
,
0000
0000
0000
0000
,
0000
0000
0000
0000
,
0010
0000
0100
0000
,
0001
0000
1000
0000
0001
0100
0020
0000
,
1030
0000
1010
0000
0001
0010
0100
0000
,
0001
0002
1000
0103
,
0010
0000
0100
0000
0010
1000
0100
0000
,
0001
0002
1003
0100
,
0001
0000
0011
0000
1000
0010
0100
0000
,
1000
0002
0010
1003
,
0010
0000
0001
0100
0010
0000
0100
0000
,
1000
0100
0001
0100
,
2002
0000
3003
0000
0010
1000
0100
0000
,
0110
0000
0000
0000
0001
0010
0100
0000
,
2000
0000
0100
0000
3001
1000
0002
0000
,
1003
0100
0001
1001
,
0220
0000
0330
0000
0010
1000
0100
0000
,
0010
0000
0100
0000
0001
0100
1000
0000
,
0020
0030
2000
0001
,
3002
0000
0000
1000
0000
0000
0103
0000
,
0110
0000
0000
0000
,
2000
0000
3200
0300
,
0002
0000
0023
0030
,
0200
0000
0000
0300
,
1001
0000
0000
0200
0000
0000
0300
0000
,
0100
0010
0000
0010
0000
1000
0001
0100
,
0020
1030
2000
3001
,
0002
0000
0103
0000
1000
1000
0100
0000
,
0200
0000
0300
0020
0000
0000
0000
0030
,
0001
0010
0100
0000
1000
0000
0100
0000
,
0002
0000
0003
2000
0000
3000
0020
0000
,
0030
0200
0000
0300
0100
0010
0100
0000
,
1000
0000
1000
0000
1000
0010
0100
0001
,
0100
0000
0100
0000
0010
1000
0100
0000
,
0010
0000
0010
0010
,
0002
0000
0023
0000
0230
0000
1300
0001
,
0100
0000
0100
0010
1000
0001
0100
0000
,
0010
0000
0001
0010
0100
0000
1000
0000
,
0001
0000
1000
0100
,
0001
0010
0100
0010
0100
1000
0002
0000
,
0103
0000
1000
0000
0100
0010
0100
0000
,
0020
0030
1001
0100
,
2000
3100
0002
0003
,
0010
1000
0001
0100
,
0220
0000
0000
0000
,
0330
0000
0000
0000
;
#NOTES:
     dance-single:
     :
     Hard:
     6:
     :
0000
0000
0000
0000
,
0000
0000
0000
0000
,
0000
0000
0000
0000
,
0000
0000
0000
0000
,
0010
1010
0001
1000
,
0001
1000
0010
0100
0010
1000
0200
0000
,
0310
0000
0011
0000
0001
1000
0100
0010
,
0002
0103
2000
3100
,
0010
0001
0010
0000
0100
1000
0001
0100
,
0010
0002
2003
3200
,
0310
0000
1010
0000
1000
0001
0100
0010
,
2000
3100
0002
0103
,
0010
1000
0010
0000
0100
0001
1000
0100
,
0010
2000
3020
0230
,
0302
0000
1003
0000
0100
0001
0010
0100
,
1000
0001
1000
0000
0100
0000
0100
0000
,
1000
0001
0100
0000
0001
0010
0100
0000
,
1000
0100
0001
0010
,
2000
0000
3001
0000
0100
1000
0010
0100
,
0001
1000
0001
0000
0100
0000
0100
0000
,
0020
1030
0200
0300
,
0010
0001
0100
0010
1000
0001
0100
0000
,
0020
0000
0031
0100
,
0200
0000
0310
0001
,
0002
0100
2003
0010
,
3020
0030
0100
0000
,
0002
0000
0000
2003
0000
0000
3000
0000
,
0001
0100
0000
0200
0000
0000
0300
0000
,
0100
0001
0000
0020
0000
0130
0000
2000
,
0000
3001
0000
0020
0000
0130
0000
0100
,
0020
0000
0000
0200
0000
0000
0330
0000
,
0002
0000
2003
3000
,
0020
0000
0000
2030
0000
0000
3100
0010
,
0100
0000
0200
0000
0010
0300
0010
0100
,
1000
0001
0000
0001
0000
0001
0100
0010
,
1000
0010
0100
0010
0000
0100
0000
0100
,
0001
0010
0001
0010
0000
0100
2000
0000
,
3002
0000
0023
0000
0230
0000
1300
0001
,
0100
0010
0000
0010
0100
0010
1000
0001
,
0100
0001
0000
0100
0010
0001
0010
0001
,
0100
0020
0000
2030
0000
3002
0000
0103
,
0010
0100
0010
1000
0100
0010
0001
1000
,
0001
0100
0000
0100
0000
0001
0010
0000
,
1000
0000
0110
0000
0001
1000
0100
0000
,
0010
0000
0101
0000
0100
0001
0010
0000
,
1000
0012
1000
0203
,
0020
0000
0000
0000
,
0330
0000
0000
0000
;
#NOTES:
     dance-double:
     :
     Easy:
     2:
     :
00000000
00000000
00000000
00000000
,
00000000
00000000
00000000
00000000
,
00000000
00000000
00000000
00000000
,
00000000
00000000
00000000
00000000
,
00000000
00000000
00000000
00000000
,
00000000
00000000
00000000
00000000
,
10000000
00000000
00010000
00000000
,
00010000
00000000
00010000
00000000
,
10000000
10000000
10000000
10000000
,
10000000
00000000
01000000
00000000
,
00010000
00000000
00001000
00000000
,
00000010
00000000
00000010
00000000
,
00000001
00000001
00000001
00000001
,
00000002
00000000
00000000
00000003
,
00001001
00000000
00000100
00000000
,
00000100
00001000
00001000
00000000
,
00000000
00000000
00010000
00000000
,
00010000
00000000
00100000
00000000
,
01000000
00000000
01000000
00000000
,
00010000
10000000
00010000
00000000
,
10000000
00000000
00000000
00000000
,
01000000
00010000
00010000
00001000
,
00022000
00000000
00033000
00000000
,
00002000
00000000
00003000
00000000
,
00000020
00000000
00000030
00000000
,
00000002
00000000
00000003
00000000
,
00001001
00000000
00000100
00000000
,
00000200
00000000
00000000
00000300
,
00000100
00000000
00001000
00000000
,
00010000
00000000
00010000
00000000
,
00200000
00000000
00000000
00300000
,
20000000
00000000
00000000
30000000
,
00010000
00000000
00010000
00000000
,
10000000
10000000
01000000
00010000
,
00002000
00000000
00000000
00003000
,
00010000
00010000
00010000
00000000
,
00001000
00001000
00001000
00000000
,
00000010
00000001
00000100
00000100
,
00000010
00000010
00000010
00000000
,
00000100
00000100
00000100
00000000
,
00001000
00001000
00010000
00010000
,
00100000
00100000
10000000
00010000
,
10010000
00000000
00000000
00000000
,
01000000
00000000
00000000
00000000
,
00010000
00000000
00000000
00000000
,
00001000
00000010
00000100
00000100
,
00002000
00000000
00000000
00003000
;
#NOTES:
     dance-double:
     :
     Medium:
     5:
     :
00000000
00000000
00000000
00000000
,
00000000
00000000
00000000
00000000
,
00000000
00000000
00000000
00000000
,
00000000
00000000
00000000
00000000
,
00000000
00000000
00000000
00000000
,
00000000
00000000
00000000
00000000
,
00000020
00000000
00000100
00000130
,
00000200
00000000
00000001
00000301
,
00000001
00000100
00001000
00010000
,
00020000
00000000
00100000
00130000
,
00200000
00000000
01000000
01300000
,
02000000
00000000
00010000
03010000
,
10000000
00100000
00010000
00001000
,
00002000
00000000
00000010
00003010
,
00002002
00003003
00000001
00000001
,
00000100
00000100
00001000
00001000
,
00020000
00000000
00100000
00130000
,
20000000
00000000
01000000
31000000
,
00100000
00000000
00010000
00000000
10000000
00100000
01000000
00000000
,
00010000
00000000
00001000
00000000
00000010
00000100
00000010
00000000
,
00002000
00000000
00000000
00003000
,
00000001
00001000
00000010
00000000
00000100
00000001
00000010
00000000
,
00002200
00000000
00000000
00003300
,
00000002
00000000
00000000
00000000
,
00002003
00000000
00000000
00000000
,
00023000
00000000
00000000
00030000
,
10010000
00000000
00000000
02200000
00000000
00000000
03300000
00000000
,
20000000
00000000
00000000
30000000
,
00100000
00010000
01000000
00000000
00001000
00000000
00010000
00000000
,
00000100
00000010
00000001
00000000
00001000
00000000
00001000
00000000
,
00000020
00000000
00000000
00000000
,
00000200
00000000
00000000
00000330
,
00000001
00000100
00001000
00000000
00001000
00000000
00001000
00010000
,
01000000
00000000
10000000
00000000
00010000
00100000
01000000
00000000
,
10010000
00000000
01000000
00000000
01000000
00100000
01000000
00000000
,
11000000
00000000
00010000
00000000
00001000
00000100
00000001
00000000
,
00000010
00000000
00000010
00000000
00000100
00001000
00000001
00000000
,
00000010
00000100
00000010
00000000
00001000
00000001
00001000
00000000
,
00000020
00000000
00000130
00000000
00000001
00001000
00000010
00000000
,
00000200
00000000
00001300
00000000
00010000
00100000
10000000
00000000
,
00020000
00000000
01030000
00000000
00100000
10000000
01000000
00000000
,
00010000
00001000
00010000
00000000
00000100
00000000
00000110
00000000
,
00002002
00000003
00000200
00000000
,
00000000
00000000
00000000
00003300
,
00020000
00000000
00000000
00030000
,
00100000
01000000
00010000
00000000
00100000
00000000
00100000
01000000
,
20000000
00000000
00000000
30000000
;
#NOTES:
     dance-double:
     :
     Hard:
     6:
     :
00000000
00000000
00000000
00000000
,
00000000
00000000
00000000
00000000
,
00000000
00000000
00000000
00000000
,
00000000
00000000
00000000
00000000
,
00000000
00000000
00000000
00000000
,
00000000
00000000
00000000
00000000
,
10000000
00000000
00010000
00000000
00100000
01000000
10000000
00000000
,
00100000
00000000
00010000
00000000
00000100
00000010
00000001
00000000
,
00000001
00001000
00000001
00000020
,
00000100
00000100
00000100
00000100
,
00000100
00000130
00000001
00001000
,
00000010
00000100
00000001
00000000
00000010
00000000
00001000
00000000
,
01000000
00000000
00100000
10000000
01000000
00000000
00100000
00000000
,
00020000
10000000
10000000
10030000
,
01100000
00000000
00010000
00000000
00010000
10000000
01000000
00000000
,
01000000
00010000
00000020
00000130
,
00000001
00000000
00000001
00000000
00000001
00001000
00000001
00000000
,
00000010
00000100
00001000
00000001
,
00000100
00000000
00000100
00000000
00000100
00001000
00000100
00000000
,
00001000
00000000
00010000
00000000
01000000
10000000
01000000
00000000
,
10000000
10000000
00010000
00010000
,
00100000
00010000
10000000
00100000
00010000
00001000
00000010
00000002
,
00002000
00000000
00000000
00000003
,
00000020
00000000
00000000
00003000
,
00020000
00000000
00000000
00000030
,
00200000
00000000
00000000
00330000
,
11000000
00010000
01000000
00000000
01000000
00000000
01000000
00000000
,
00100000
10000000
00010000
00001000
,
00000002
00000100
00000000
00000100
00000000
00000100
00000003
00000100
,
00000010
00001000
00000001
00000000
00000100
00000000
00000010
00000000
,
00002000
00000000
00020000
00003000
,
00000000
00000000
00000000
00030000
,
00200000
00000000
02300000
00000000
,
23000000
00000000
30200000
01300000
,
10010000
10000000
00100000
00000000
00010000
00000000
00000100
00000000
,
00000010
00000001
00001000
00000000
00001000
00000000
00000001
00000010
,
00000100
00001000
00000010
00000100
,
00000001
00000010
00000100
00000000
00001000
00010000
00100000
00000000
,
01010000
00000000
00100000
00000000
10000000
01000000
00010000
00000000
,
11000000
00000000
00010000
00000000
00100000
01000000
10000000
00010000
,
10000000
00100000
01000000
00010000
,
00001000
00000010
00000001
00000010
00000100
00000001
00000010
00000100
,
00002100
00000100
00000100
00003200
,
00000010
00000010
00000010
00000320
,
00000001
00000001
00000001
00000031
,
00000001
00000100
00001000
00000000
00010000
00000000
00000100
00000010
,
00002002
00000000
00000000
00003003
;
