
//----- mcode: biza -----//
#TITLE:BIZARRE LOVE TRIANGLE;
#ARTIST:Jerry;
#BANNER:BIZARRE LOVE TRIANGLE.png;
#BACKGROUND:BIZARRE LOVE TRIANGLE-bg.png;
#CDTITLE:./CDTitles/DDR EXTREME US PS2.png;
#MUSIC:BIZARRE LOVE TRIANGLE.ogg;
#SAMPLESTART:34.187;
#SAMPLELENGTH:15;
#BPMS:0=119;
#NOTES:
     dance-single:
     :
     Beginner:
     1:
     :
0000
0000
0000
0000
,
0000
0000
0000
0000
,
0000
0000
0000
0000
,
0000
0000
0000
0000
,
0000
0000
0000
0000
,
0001
0000
0001
0000
,
1000
1000
0000
1000
,
1000
0000
0100
0000
,
0001
0000
0001
0000
,
1000
1000
1000
0000
,
0100
0100
0100
0000
,
1000
0000
0010
0000
,
0100
0000
0001
0000
,
0001
0001
0001
0000
,
0010
0010
0010
0000
,
1000
1000
1000
0000
,
0100
0000
0100
0000
,
1000
0000
0001
0000
,
0100
0000
0001
0001
,
0001
0000
0010
0000
,
1000
1000
1000
0000
,
0001
0000
1000
0000
,
0100
0000
1000
1000
,
1000
0000
0010
0000
,
0001
0001
0001
0000
,
1000
0000
0000
0000
,
0010
0000
0000
0000
,
1000
0000
0000
0000
,
0010
0000
1000
0000
,
0001
0001
0001
0001
,
0000
1000
0000
0001
,
0000
1000
0000
0100
,
0000
0010
0000
0100
,
0000
0000
1000
1000
,
1000
0000
0010
0010
,
0010
0000
0001
0001
,
0001
0000
0100
0000
,
0100
0000
0001
0000
,
1000
0000
0100
0000
,
1000
1000
1000
0000
,
0010
0000
0001
0001
,
0001
0000
1000
0000
,
0001
0000
0100
0000
,
0001
0001
0001
0000
,
0010
0000
1000
1000
,
1000
1000
1000
0000
;
#NOTES:
     dance-single:
     :
     Easy:
     4:
     :
0000
0000
0000
0000
,
0000
0000
0000
0000
,
0000
0000
0000
0000
,
0010
0000
0010
0000
,
1000
0001
1000
1001
,
0001
0000
0001
0100
,
0010
0010
1000
0100
,
0002
0003
2000
3000
,
0001
0010
0100
0100
,
1000
1000
1000
0000
,
0001
0100
0001
0000
,
0001
0000
0100
0000
,
1000
0000
0100
0000
,
0001
0001
0001
0000
,
0100
0100
0100
0000
,
1000
1000
0010
0000
,
0010
0010
0001
1000
,
0100
0000
0100
0000
,
0010
0001
0010
1000
,
0020
0030
0200
0300
,
0010
0010
0010
0010
,
0100
0000
0100
0000
,
0010
1000
0010
0001
,
2000
3000
0100
0000
,
0001
0001
1000
1000
,
0020
0000
0030
1000
,
0002
0000
0003
0010
,
0200
0000
0300
1000
,
0010
0000
0100
0110
,
0010
0100
0020
0000
,
1030
0100
0001
0001
,
0010
1000
0010
0010
,
0010
1000
1000
0001
,
0100
0001
0001
0001
,
0001
0000
0100
0100
,
0100
0000
1000
1000
,
0010
0000
0010
0010
,
0110
0110
0100
0000
,
0100
0000
0010
0001
,
0010
1000
0020
0030
,
0200
0300
0010
0010
,
0010
0010
0100
0000
,
0100
0000
0010
1000
,
0010
0001
2000
3000
,
0100
0000
0001
0001
,
1000
1001
1001
0000
;
#NOTES:
     dance-single:
     :
     Medium:
     5:
     :
0000
0000
0000
0000
,
0000
0000
0000
0000
,
0000
0000
0000
1000
,
0100
0001
0100
0010
,
1000
0000
0100
0000
0001
1000
1001
0000
,
0010
0000
0010
0000
0010
0100
0010
1000
,
0100
0000
0100
0000
0100
0010
0001
0000
,
0010
0000
1000
0000
0010
0001
1000
0000
,
0010
0000
0001
0000
0010
0000
1000
0001
,
1000
0000
1000
0001
1000
0000
0010
0100
,
0001
0010
0001
0000
1000
0000
0100
0000
,
0001
0010
1000
0100
,
0001
0000
1000
0000
0010
0010
0100
0000
,
0001
0001
0010
0000
0001
1000
0000
0000
,
1000
0000
0010
0000
1000
0010
0000
0000
,
0100
0100
0001
0000
0100
0001
0000
0000
,
0011
0110
1100
1001
,
1000
0000
0100
0000
0010
0100
0010
0000
,
0001
0000
1000
0000
0010
0100
0010
1000
,
0001
0101
1000
1000
,
0010
0001
0100
1000
,
0001
0000
0100
0000
0010
0100
0010
0000
,
1000
0000
0001
0000
0010
0100
0010
0001
,
1000
0000
0001
0010
0001
0000
0100
0000
,
1001
0000
0000
0110
0000
0000
1001
0000
,
0020
0000
0000
0000
0030
0100
0010
1000
,
0200
0000
0000
0000
0300
0010
0001
0100
,
0020
0000
0000
0000
0030
0000
1000
0001
,
0000
0100
0010
0100
0010
1000
0100
0000
,
0000
0000
0002
0003
,
1000
0100
0020
0030
,
0100
1000
1000
0001
,
0010
0000
0100
1000
0002
0000
0000
0000
,
0013
0000
0100
0000
1000
1000
0010
0000
,
1000
0001
0000
0000
0001
0000
0010
0000
,
0001
0010
0000
0000
0100
0100
1000
0000
,
0100
1000
0000
0000
1010
0000
0110
0000
,
0101
1001
1000
0100
,
0010
0100
0010
0000
0001
0000
1000
0000
,
0010
0100
0010
0100
0001
0000
0101
0000
,
1000
1010
0010
0001
,
0100
1000
0001
0100
,
0010
0100
0010
0000
1000
0000
0001
0000
,
0010
0100
0010
0100
1000
0000
0001
0010
,
0001
0000
0100
0000
1001
0000
0000
0110
,
0000
0000
1001
0000
2000
0000
3000
0002
,
0000
0003
0020
0000
0030
0200
0000
0000
,
0000
0000
0000
0000
,
0000
0000
0000
0300
;
#NOTES:
     dance-single:
     :
     Hard:
     7:
     :
0000
0000
0000
0000
,
0000
0000
0000
0000
,
0000
0000
0000
0002
,
1000
0100
1000
0203
,
0320
0000
1000
0000
0130
0001
1001
0000
,
0110
0000
0100
0000
1000
0001
0010
0000
,
0100
1000
0100
0000
0010
0000
0001
0000
,
1000
0010
1000
0000
0010
0000
0100
0000
,
0001
1000
0001
0010
0100
1000
0001
0000
,
0110
0000
0100
0000
0001
1000
0010
0000
,
0100
0001
0100
0000
0010
0000
1000
0000
,
0001
0010
0001
0000
0010
0000
0100
0000
,
1000
0001
1000
0010
0100
0001
1000
0010
,
0110
0100
0100
0000
1000
0001
0010
0000
,
1100
1000
1000
0000
0010
0100
0010
0000
,
0101
0001
0001
0000
0010
0100
0010
0000
,
0010
1000
0010
0100
0001
1000
0010
0100
,
0011
0010
0001
0000
0001
0100
0001
0000
,
0010
0100
1000
0001
0010
0100
1000
0010
,
0100
0001
0101
0000
1000
0010
0100
0000
,
0001
1000
0010
0100
0010
0001
0010
0000
,
1100
0100
1000
0000
1000
0010
1000
0000
,
0100
0010
0001
1000
0100
0010
0001
0100
,
0010
1000
1010
0000
0001
0100
0010
0000
,
1001
0010
0100
0110
1000
0001
0100
0010
,
0120
0000
0000
0000
0100
0000
0000
0030
0100
0000
0010
0000
1000
0000
0001
0000
,
2001
0000
0000
0000
0001
0000
0000
3000
0001
0000
1000
0000
1000
0000
0100
0000
,
0120
0000
0100
0000
0100
0000
0130
1001
,
0000
0100
0010
1000
0001
0010
0100
0000
,
1001
0000
0000
0010
0000
0000
0100
0000
2002
0000
0000
0000
0003
0000
0000
0000
,
3200
0000
0000
0000
0320
0000
0000
0000
0002
0000
0000
0030
0000
0000
0020
0000
,
0003
1030
0021
1000
,
0001
0000
0130
1000
0002
0000
1003
0000
,
0010
1000
0001
0000
0110
0100
0100
0000
,
1000
0001
0010
0000
1100
1000
1000
0000
,
0010
0100
0010
0000
0101
0001
0001
0000
,
0010
0100
0010
0000
0010
1000
0010
0100
,
0001
1000
0010
0100
0011
0010
0001
0000
,
0001
0100
0001
0000
0010
0100
1000
0001
,
0010
0100
1000
0010
0100
0001
0101
0000
,
1000
0010
0100
0000
0001
1000
0010
0100
,
0010
0001
0010
0000
1100
0100
1000
0000
,
1000
0010
1000
0000
0100
0010
0001
1000
,
0100
0010
0001
0100
0010
1000
1010
0000
,
0001
0100
0010
0000
1001
0010
0100
0110
,
1000
0000
0001
0000
0010
0000
0100
0000
2200
0000
0000
3000
0000
0000
0020
0000
,
0300
0000
0000
0000
0002
0000
0000
0030
0000
0000
0200
0000
0000
0000
0000
0000
,
0000
0000
0000
0000
,
0000
0000
0000
0303
;
#NOTES:
     dance-double:
     :
     Easy:
     3:
     :
00000000
00000000
00000000
00000000
,
00000000
00000000
00000000
00000000
,
00000000
00000000
00000000
00000000
,
00000001
00000000
00000001
00000000
,
00000100
00000100
00001000
00000000
,
00011000
00010000
00010000
00000000
,
01000000
01000000
01000000
00000000
,
10000000
10000000
00010000
00010000
,
00100000
00000000
01000000
00000000
,
00100000
00000000
00100000
00000000
,
10000000
01000000
00010000
00000000
,
00001000
00000000
00001000
00000000
,
00000010
00000001
00000001
00000000
,
00001001
00000000
00000100
00000100
,
00000100
00000000
00001000
00010000
,
00011000
00000000
00100000
01000000
,
10010000
10000000
00010000
00010000
,
02100000
00000000
00000000
03000000
,
20010000
00000000
00000000
30000000
,
10000000
10000000
01000000
01000000
,
00010000
00010000
00001000
00001000
,
00000210
00000000
00000000
00000300
,
00001002
00000000
00000000
00000003
,
00000001
00000001
00000100
00000100
,
00001000
00001000
00010000
00010000
,
00200000
00000000
00000000
00300000
,
02000000
00000000
00000000
03000000
,
20000000
00000000
00000000
30000000
,
01000000
00010000
00001000
00000010
,
00000010
00000100
00001001
00000000
,
00000001
00000000
00000100
00000000
,
00001000
00000000
00001000
00000000
,
00100000
00000000
00100000
00000000
,
01000000
00000000
10000000
10000000
,
10000000
00000000
00010000
00010000
,
00010000
00000000
00001000
00001000
,
00001000
00000000
00000010
00000010
,
00000001
00001000
00000100
00000100
,
00000100
00000000
00000001
00000001
,
00000001
00000000
00001000
00001000
,
00001000
00000000
00010000
00010000
,
00100000
00100000
10010000
01000000
,
00000000
01000000
10010000
01000000
,
00000000
01000000
10010000
01000000
,
01000000
00010000
00001000
00000010
,
00000001
00001000
00000001
00000100
,
00000000
00001000
00000000
00020000
,
00000000
00000000
00000000
00000000
,
00000000
00000000
00000000
00030000
;
#NOTES:
     dance-double:
     :
     Medium:
     7:
     :
00000000
00000000
00000000
00000000
,
00000000
00000000
00000000
00000000
,
00000000
00000000
00000000
00000000
,
00002000
00000000
00000000
00003002
,
00000203
00000000
00000300
00000000
00000001
00000100
00001000
00000000
,
00011000
00010000
01000000
10000000
,
10000000
00000000
00010000
00000000
00100000
01000000
00100000
00000000
,
00100000
01000000
00100000
00000000
01000000
00100000
01000000
00000000
,
10000000
00000000
00100000
00000000
00010000
00001000
00010000
00000000
,
00001000
00000100
00000001
00000001
,
00001000
00000010
00000100
00000001
,
00000010
00001000
00010000
00010100
,
00001000
00010000
01000000
00000000
10000000
00010000
10000000
00000000
,
01100000
00000000
10010000
00000000
10000000
00100000
00010000
00000000
,
00011000
00000000
00010100
00000000
00000010
00000100
00000010
00000000
,
00001001
00000000
00000110
00000000
00001000
00000001
00001000
00000000
,
00000001
00000100
00001000
00000000
00001000
00010000
00100000
00000000
,
20010000
00000000
31000000
00000000
00100000
00010000
01000000
00000000
,
10020000
00000000
01030000
00000000
00100000
10000000
01000000
00000000
,
00010000
00001000
00000010
00000001
,
00001000
00000010
00000100
00000000
00000001
00000010
00000100
00000000
,
00001002
00000000
00000103
00000000
00000010
00001000
00000100
00000000
,
00002001
00000000
00003100
00000000
00000010
00000001
00000100
00000000
,
00001000
00010000
00100000
10000000
,
00010000
10000000
00010000
10000000
01000000
00100000
00010000
01000000
,
02000000
00100000
00000000
03200000
,
20300000
01000000
00000000
32000000
,
03020000
00000000
00001000
00000000
00000000
00000000
00030000
00001000
,
00000000
00000010
00000001
00000100
00000010
00000100
00000100
00000000
,
00000000
00000000
00001001
00000100
,
00001000
00010000
00020000
01000000
,
01000000
01030000
20000000
31000000
,
00020000
00000000
01030000
00000000
00001000
00010000
00001000
00000000
,
00000100
00000010
00000100
00000000
00001001
00000000
00000100
00000000
,
00010000
00000100
00001000
00000000
00001100
00000000
00010000
00000000
,
00001000
01000000
00010000
00000000
01001000
00000000
00010000
00000000
,
10000000
00100000
01000000
00000000
10000000
00100000
01000000
00100000
,
10000000
00100000
01000000
00000000
10020000
00000000
01030000
00000000
,
00001000
01000000
00010000
00000000
02010000
00000000
03001000
00000000
,
00010000
00000100
00001000
00000000
00010200
00000000
00001300
00000000
,
00000001
00000010
00000100
00000000
00001000
00000010
00000100
00000010
,
00001000
00000010
00000100
00000000
00002001
00000000
00003100
00000000
,
00010000
00000100
00001000
00000000
00001200
00000000
00010300
00000000
,
00001000
01000000
00010000
00000000
02001000
00000000
03010000
00000000
,
10000000
00100000
01000000
00000000
00010000
00100000
01000000
10000000
,
00100000
01000000
01000000
00010000
20000000
00000000
00000000
02000000
,
30000000
00000000
00020000
00000000
03000000
00002000
00000000
00000000
,
00000000
00000000
00000000
00000000
,
00000000
00000000
00000000
00033000
;
#NOTES:
     dance-double:
     :
     Hard:
     7:
     :
00000000
00000000
00000000
00000000
,
00000000
00000000
00000000
00000000
,
00000000
00000000
00000000
20000000
,
32000000
00000000
00000000
03020000
,
00032000
00000000
00000000
00000000
00010000
00010000
00013000
00000000
,
00011000
00000000
00001000
00000000
00000010
00000001
00000100
00000000
,
00000010
00001000
00000100
00000000
00000010
00000001
00000010
00000000
,
00000100
00001000
00100000
10000000
,
00010000
00100000
01000000
00000000
10000000
00010000
10000000
00000000
,
01100000
00000000
00010000
00000000
00000100
00000010
00000001
00000000
,
00000100
00001000
00000010
00000000
00000100
00000001
00000100
00000000
,
00000010
00001000
01000000
10000000
,
00010000
01000000
00100000
00000000
10000000
00010000
10000000
00000000
,
00120000
00000000
01030000
00000000
00100000
00100000
00100000
00000000
,
21000000
00000000
30100000
00000000
01000000
01000000
01000000
00000000
,
00012000
00000000
00003010
00000000
00000100
00000100
00000100
00000000
,
00001000
00000010
00000100
00000100
00000001
00000010
00000100
00000100
,
00001001
00000001
00000100
00000000
00000001
00001000
00000100
00000000
,
00010000
00001000
00010000
01000000
10000000
00010000
00100000
00000000
,
10010000
10000000
01000000
00000000
10000000
00010000
01000000
00000000
,
00001000
00010000
00001000
00000100
00000001
00001000
00000010
00000000
,
00001001
00000001
00000010
00000000
00000001
00001000
00000010
00000000
,
00010000
00001000
00010000
00100000
10000000
00010000
01000000
00000000
,
10010000
10000000
00100000
00000000
10000000
00010000
00100000
00000000
,
00011000
00001000
00000010
00000100
00001000
00000001
00000100
00000010
,
00001002
00000000
00000100
00000000
00000103
00001000
00010000
01000000
,
21000000
00000000
00010000
30000000
00010000
10000000
00100000
00010000
,
00012000
00000000
00010000
00000000
00010000
00003000
00010000
00000010
,
00000000
00000101
00000010
00001000
00000100
00000010
00000100
00001000
,
00000011
00000000
00000000
00000100
00000000
00000000
00001000
00000000
00010100
00000000
00000000
00000000
00001000
00000000
00010000
00000000
,
01000000
00000000
01000000
10000000
00010000
00100000
00001000
00010000
,
00000100
00000000
00000010
00000001
00000100
00000000
00001000
00010000
,
00001000
00000000
01000000
00000000
00100000
10000000
00100000
00010000
,
00001000
00010000
00000100
00000010
00002010
00000000
00003100
00000000
,
00000010
00000010
00000010
00000000
00000102
00000000
00000013
00000000
,
00000100
00000100
00000100
00000000
00021000
00000000
00130000
00000000
,
01000000
01000000
01000000
00000000
00010000
00100000
01000000
01000000
,
10000000
00100000
01000000
01000000
10010000
10000000
01000000
00000000
,
10000000
00010000
01000000
00000000
00001000
00010000
00001000
00000100
,
00000001
00001000
00000010
00000000
00001001
00000001
00000100
00000000
,
00000001
00001000
00000100
00000000
00010000
00001000
00010000
01000000
,
10000000
00010000
00100000
00000000
10010000
10000000
00100000
00000000
,
10000000
00010000
00100000
00000000
00001000
00010000
00001000
00000010
,
00000001
00001000
00000100
00000000
00001001
00000001
00000010
00000000
,
00000001
00001000
00000010
00000000
00011000
00010000
00100000
01100000
,
00010000
10000000
01000000
00100000
21000000
00000000
00000000
00200000
,
30000000
00000000
00320000
00000000
00000000
00002000
00000000
00000000
,
00000000
00000000
00000000
00000000
,
00000000
00000000
00000000
00033000
;
