#TITLE:bag;
#SUBTITLE:;
#ARTIST:RevenG;
#TITLETRANSLIT:;
#SUBTITLETRANSLIT:;
#ARTISTTRANSLIT:;
#CREDIT:;
#BANNER:bag.png;
#BACKGROUND:bag-bg.png;
#LYRICSPATH:;
#CDTITLE:./CDTITLES/DANCE DANCE REVOLUTION EXTREME.PNG;
#MUSIC:bag.ogg;
#OFFSET:0.000;
#SAMPLESTART:11.075;
#SAMPLELENGTH:15.000;
#SELECTABLE:YES;
#DISPLAYBPM:65.000;
#BPMS:0.000=65.099,4.000=64.996;
#STOPS:;
#BGCHANGES:;

//---------------dance-single - ----------------
#NOTES:
     dance-single:
     :
     Beginner:
     2:
     0.067,0.089,0.020,0.000,0.000:
0000
0000
0000
0000
,
0000
0000
0000
0000
,
0000
0000
0000
0000
,
0001
0000
1000
0000
,
0010
0000
0010
0000
,
0010
0000
1000
0000
,
1000
0000
0100
0000
,
0010
0000
1000
0000
,
0010
0000
0001
0000
,
1000
0000
0100
0000
,
0010
0000
0010
0000
,
0010
0000
1000
0000
,
0010
0000
0100
0000
,
0010
0000
0100
0000
,
0010
0000
0010
0000
,
0001
0000
0001
0000
,
1000
0000
0100
0000
,
0100
0100
0000
0010
,
0000
0000
1000
0000
,
1000
0000
0010
0000
,
0010
0000
0110
0000
,
0100
0000
0110
0000
,
1000
0000
1000
0000
,
0001
0000
0001
0000
,
0000
0010
0000
0010
,
0000
0010
0000
0000
,
0000
0000
0000
0000
;

//---------------dance-single - ----------------
#NOTES:
     dance-single:
     :
     Easy:
     7:
     0.241,0.229,0.191,0.000,0.000:
0000
0000
0000
0000
,
0000
0000
0000
0000
,
0000
0000
0000
0000
,
0001
0001
0100
0000
1000
1000
0100
0000
,
0010
0000
0001
1000
0010
1000
0001
0100
,
0010
0100
0001
0000
1000
0010
0100
0001
,
1000
0100
0010
0001
0100
0010
1000
0001
,
0010
0000
0100
0001
1000
1000
0010
0001
,
0010
0000
0100
1000
0001
0001
0010
0100
,
1000
1100
0001
0010
0100
1000
0001
0101
,
0010
1000
0001
0000
0010
1000
0001
0100
,
0010
0000
1000
0100
1000
0010
0100
0001
,
0010
0000
1000
0001
0100
0001
1000
1001
,
0010
0000
0001
1000
0100
0010
0001
1001
,
0010
0000
1000
0100
0010
0001
1000
0110
,
0010
0000
0001
0100
0010
1000
0001
0110
,
1100
1001
0011
1001
,
0100
0100
0010
0010
,
0100
1000
0000
0001
1000
0010
0001
0100
,
1000
1000
0001
0001
0010
0010
0100
0100
,
1010
0101
0110
1001
,
0011
1100
0110
1001
,
1000
0010
0100
0001
1000
0010
0100
0001
,
0001
0010
0100
1000
0001
0010
0100
1000
,
0000
1000
0010
1001
0000
0001
0010
0001
,
1000
0001
0010
0001
0000
0000
0000
0000
,
0000
0000
0000
0000
;

//---------------dance-single - ----------------
#NOTES:
     dance-single:
     :
     Medium:
     11:
     0.364,0.331,0.461,0.000,0.206:
0000
0000
0000
0000
,
0000
0000
0000
0000
,
0000
0000
0000
0000
,
0010
0000
0000
1000
0000
0000
0001
0000
1000
0100
0000
0000
0001
0000
0000
1000
0000
0000
0001
0000
0000
0110
0000
0000
,
0010
0000
0000
0000
0000
0001
1000
0000
0001
0100
0000
0000
1000
0000
0010
0100
0000
0000
0001
0000
0000
0110
0000
0000
,
0001
1000
0100
0000
1000
0001
0100
1010
,
1000
0000
0100
0010
0000
0000
0001
0000
0100
0010
0000
0000
0010
0000
0001
0100
0000
0000
1000
0000
0000
0101
0000
0000
,
1000
0000
0000
0000
1000
0000
0010
0000
0000
0000
0100
0000
0001
0000
0000
0000
0000
0000
1000
0000
0000
0000
0000
0000
0001
0000
0000
1000
0000
0000
0010
0000
0000
0000
0000
0000
0001
0000
0000
0000
0000
0000
0110
0000
0000
0000
0000
0000
,
0001
0000
0001
0100
0000
0010
1000
0000
0000
0001
0000
0000
1000
0000
0000
0010
0000
0000
0001
0000
0000
0110
0000
0000
,
1000
0110
0011
1100
1010
0101
1000
0110
,
0010
0000
0000
1000
0000
0000
0001
0000
1000
0100
0000
0000
0001
0000
0000
1000
0000
0000
0001
0000
0000
0110
0000
0000
,
0010
0000
0000
0000
0000
0001
1000
0000
0001
0100
0000
0000
1000
0000
0010
0100
0000
0000
0001
0000
0000
0110
0000
0000
,
0100
0000
0010
1000
0000
0001
0010
0000
0000
0100
0000
0000
1000
0000
0010
0100
0000
0000
0001
0000
0000
1010
0000
0000
,
0100
0000
0010
0001
0000
1000
0010
0000
0000
0100
0000
0000
0001
0000
1000
0010
0000
0000
1000
0000
0000
0011
0000
0000
,
1000
0000
0010
1000
0000
0001
0010
0000
0000
0001
0000
0000
1000
0000
0100
1000
0000
0000
0001
0000
0000
0110
0000
0000
,
1000
0000
0010
1000
0000
0001
0100
0000
0000
0010
0000
0000
1000
0000
0100
0010
0000
0000
0001
0000
0000
1001
0000
0000
,
1000
0010
0001
0000
1100
0001
0101
1000
,
0010
0000
0100
0001
0000
0000
0010
0000
0100
1000
0000
0000
0100
0000
1000
0001
0000
0000
0100
0000
0000
1001
0000
0000
,
0100
0000
0000
0001
0000
0001
0000
0000
1000
0000
0000
1000
0010
0000
0000
1000
0000
0001
1000
0000
0000
1001
0000
0000
,
0100
0010
0011
1000
1100
0010
1010
0001
,
1001
0010
1001
0100
0010
0000
0100
1001
,
1010
0100
0011
0100
1000
0100
0010
1001
,
0010
1001
0100
1001
1000
1010
0001
0101
,
0100
0101
0010
0011
0100
1100
0010
0101
,
0000
0100
0000
1000
0000
0000
0010
0000
0000
1001
0000
0000
0000
1100
0000
0000
1010
0000
0000
0101
0000
0000
0011
0000
,
0000
1000
0000
0001
0000
0000
0110
0000
0000
1001
0000
0000
0000
0000
0000
0000
0000
0000
0000
0000
0000
0000
0000
0000
,
0000
0000
0000
0000
;

//---------------dance-single - ----------------
#NOTES:
     dance-single:
     :
     Hard:
     13:
     0.549,0.484,0.010,0.000,1.000:
0000
0000
0000
0000
,
0000
0000
0000
0000
,
0000
0000
0000
0000
,
1000
0001
0100
0001
0000
1000
0001
0000
0010
0001
0000
0100
0001
0000
0100
0010
0000
1000
0001
1000
0010
1000
0000
0100
,
1000
0000
0000
0000
0001
0100
0010
0000
1000
0001
0000
0100
0010
0000
0001
1000
0000
0100
0010
1000
0001
0010
0000
0100
,
1000
0001
0100
0010
0000
1000
0000
0001
0000
1000
0000
0001
0000
1000
0100
1000
0000
0001
0100
0000
0010
1000
0000
0100
,
0010
0000
0001
0010
0000
0100
1000
0001
1000
0010
0000
0100
0001
1000
0001
0010
0000
0100
0000
1000
0001
1000
0000
0000
,
0010
0000
0000
0000
0100
0000
0000
0000
0010
0000
0000
0000
1000
0000
0000
0000
0000
0000
0000
0000
0100
0000
0000
0000
0001
0000
0000
0000
0000
0000
0000
0000
0100
0000
0000
0000
0010
0000
0000
0000
0000
0000
0000
0000
0100
0000
0000
0000
1000
0000
0000
0100
0000
0000
1000
0000
0000
0100
0000
0000
0010
0000
0000
0000
0000
0000
0000
0000
0010
0000
0000
0000
0001
0000
0000
0000
0000
0000
0000
0000
0100
0000
0000
0000
0010
0000
0000
0000
0000
0000
0000
0000
1000
0000
0000
0000
,
0100
0010
0100
1000
0000
0100
0010
0000
0001
1000
0000
0100
0010
0000
0001
1000
0000
0001
0100
0010
1000
0001
0000
0001
,
0100
0010
1000
0001
0000
0001
0100
0010
0000
0100
0010
0000
0100
0010
0000
0100
0010
0000
1000
0010
1000
0001
0000
0001
,
1000
0001
0100
0001
0000
1000
0001
0000
0010
0001
0000
0100
0001
0000
0100
0010
0000
1000
0001
1000
0010
1000
0000
0100
,
1000
0000
0000
0000
0001
0100
0010
0000
1000
0001
0000
0100
0010
0000
0001
1000
0000
0100
0010
1000
0001
0010
0000
0100
,
1000
0001
0010
0001
0000
0100
0010
0000
1000
0001
0000
0100
0001
0100
0001
0010
0000
0100
1000
0001
0100
0010
0000
0010
,
1000
0010
0100
0001
0000
0100
0010
0000
1000
0001
0000
0100
1000
0001
1000
0010
0000
0100
0001
1000
0001
0010
0000
0000
,
0001
1000
0010
1000
0000
0100
0010
0000
0100
1000
0000
0001
0100
0010
0100
0001
0000
0100
0010
0000
1000
0001
0000
0000
,
1000
0010
0100
0001
0000
0100
0001
0000
1000
0010
0000
0100
0001
0100
0001
1000
0010
1000
0001
1000
0010
0100
0000
0000
,
0001
0010
0000
0100
0000
1000
0001
0100
0001
0010
0000
0100
1000
0100
0000
0001
0000
0100
0010
0000
1000
0000
0010
0100
,
0001
0000
1000
0001
0000
0100
0001
0000
1000
0001
0000
0100
0010
0000
1000
0010
0000
0100
0010
1000
0010
1000
0000
0001
,
0100
0000
0000
0010
0000
0010
0001
0000
0100
0010
0000
0100
0001
0000
0000
0010
0000
0010
0100
0000
1000
0001
0100
0001
,
0100
0000
0000
1000
0100
1000
0100
0000
0000
0010
0000
0001
0100
0000
0000
0010
0000
0010
0100
1000
0100
0001
0100
0001
,
0100
0010
0000
1000
0000
0100
0010
0100
0000
1000
0000
0010
0100
0000
0100
0000
0000
0001
0100
0001
0000
0001
0000
0000
,
0010
0100
0000
1000
0000
0010
0100
0010
0100
0001
0000
0100
0000
0100
0000
1000
0000
1000
0000
0010
0100
0001
0000
0000
,
1000
0100
1000
0001
0000
0010
0001
0000
0100
0010
0000
1000
0001
0100
0001
1000
0000
0010
1000
0000
0100
0010
0000
0001
,
0100
0001
1000
0100
0000
0010
0001
0000
1000
0001
0000
0010
0100
0001
0100
1000
0100
0000
0001
0000
0100
0010
0000
0000
,
0000
0100
0010
1000
0000
0010
0001
0010
0100
0010
0000
0000
0000
1000
0010
0000
0001
0010
0000
1000
0010
0000
0001
0010
,
0000
1000
0010
0001
0000
0010
1000
0100
1000
1001
0000
0000
0000
0000
0000
0000
0000
0000
0000
0000
0000
0000
0000
0000
,
0000
0000
0000
0000
;

//---------------dance-single - ----------------
#NOTES:
     dance-single:
     :
     Challenge:
     13:
     0.549,0.484,0.010,0.000,1.000:
0000
0000
0000
0000
,
0000
0000
0000
0000
,
0000
0000
0000
0000
,
1000
0000
0001
0000
0000
0100
0000
0000
0001
0000
0000
0000
0000
1000
0000
0000
0001
0000
0000
0000
0000
0010
0000
0000
0001
0000
0000
0000
0000
0100
0000
0000
0001
0000
0000
0000
0000
0100
0000
0000
0010
0000
0000
0000
0000
1000
0000
0000
0001
0000
1000
0000
0000
0010
0000
0000
1000
0000
0000
0000
0000
0100
0000
0000
,
1000
0000
0000
0000
0000
0000
0000
0000
0000
0000
0001
0000
0000
0100
0000
0000
0010
0000
0000
0000
0000
1000
0000
0000
0001
0000
0000
0000
0000
0100
0000
0000
0010
0000
0000
0000
0000
0001
0000
0000
1000
0000
0000
0000
0000
0100
0000
0000
0010
0000
1000
0000
0000
0001
0000
0000
0010
0000
0000
0000
0000
0100
0000
0000
,
1000
0000
0001
0000
0000
0100
0000
0000
0010
0000
0000
0000
0000
1000
0000
0000
0000
0000
0001
0000
0000
0000
0000
0000
1000
0000
0000
0000
0000
0001
0000
0000
0000
0000
1000
0000
0000
0100
0000
0000
1000
0000
0000
0000
0000
0001
0000
0000
0100
0000
0000
0000
0000
0010
0000
0000
1000
0000
0000
0000
0000
0100
0000
0000
,
0010
0000
0000
0000
0000
0001
0000
0000
0010
0000
0000
0000
0000
0100
0000
0000
1000
0000
0001
0000
0000
1000
0000
0000
0010
0000
0000
0000
0000
0100
0000
0000
0001
0000
1000
0000
0000
0001
0000
0000
0010
0000
0000
0000
0000
0100
0000
0000
0000
0000
1000
0000
0000
0001
0000
0000
1000
0000
0000
0000
0000
0000
0000
0000
,
0010
0000
0100
0000
0000
0010
0000
0000
1000
0000
0000
0000
0000
0100
0000
0000
0001
0000
0000
0000
0000
0100
0000
0000
0010
0000
0000
0000
0000
0100
0000
0000
1000
0000
0100
0000
1000
0000
0100
0000
0010
0000
0000
0000
0000
0010
0000
0000
0001
0000
0000
0000
0000
0100
0000
0000
0010
0000
0000
0000
0000
1000
0000
0000
,
0100
0000
0010
0000
0000
0100
0000
0000
1000
0000
0000
0000
0000
0100
0000
0000
0010
0000
0000
0000
0000
0001
0000
0000
1000
0000
0000
0000
0000
0100
0000
0000
0010
0000
0000
0000
0000
0001
0000
0000
1000
0000
0000
0000
0000
0001
0000
0000
0100
0000
0010
0000
0000
1000
0000
0000
0001
0000
0000
0000
0000
0001
0000
0000
,
0100
0000
0010
0000
0000
1000
0000
0000
0001
0000
0000
0000
0000
0001
0000
0000
0100
0000
0010
0000
0000
0000
0000
0000
0100
0000
0010
0000
0000
0000
0000
0000
0100
0000
0010
0000
0000
0000
0000
0000
0100
0000
0010
0000
0000
0000
0000
0000
1000
0000
0010
0000
0000
1000
0000
0000
0001
0000
0000
0000
0000
0001
0000
0000
,
1000
0000
0001
0000
0000
0100
0000
0000
0001
0000
0000
0000
0000
1000
0000
0000
0001
0000
0000
0000
0000
0010
0000
0000
0001
0000
0000
0000
0000
0100
0000
0000
0001
0000
0000
0000
0000
0100
0000
0000
0010
0000
0000
0000
0000
1000
0000
0000
0001
0000
1000
0000
0000
0010
0000
0000
1000
0000
0000
0000
0000
0100
0000
0000
,
1000
0000
0000
0000
0000
0000
0000
0000
0000
0000
0001
0000
0000
0100
0000
0000
0010
0000
0000
0000
0000
1000
0000
0000
0001
0000
0000
0000
0000
0100
0000
0000
0010
0000
0000
0000
0000
0001
0000
0000
1000
0000
0000
0000
0000
0100
0000
0000
0010
0000
1000
0000
0000
0001
0000
0000
0010
0000
0000
0000
0000
0100
0000
0000
,
1000
0000
0001
0000
0000
0010
0000
0000
0001
0000
0000
0000
0000
0100
0000
0000
0010
0000
0000
0000
0000
1000
0000
0000
0001
0000
0000
0000
0000
0100
0000
0000
0001
0000
0100
0000
0000
0001
0000
0000
0010
0000
0000
0000
0000
0100
0000
0000
1000
0000
0001
0000
0000
0100
0000
0000
0010
0000
0000
0000
0000
0010
0000
0000
,
1000
0000
0010
0000
0000
0100
0000
0000
0001
0000
0000
0000
0000
0100
0000
0000
0010
0000
0000
0000
0000
1000
0000
0000
0001
0000
0000
0000
0000
0100
0000
0000
1000
0000
0001
0000
0000
1000
0000
0000
0010
0000
0000
0000
0000
0100
0000
0000
0001
0000
1000
0000
0000
0001
0000
0000
0010
0000
0000
0000
0000
0000
0000
0000
,
0001
0000
1000
0000
0000
0010
0000
0000
1000
0000
0000
0000
0000
0100
0000
0000
0010
0000
0000
0000
0000
0100
0000
0000
1000
0000
0000
0000
0000
0001
0000
0000
0100
0000
0010
0000
0000
0100
0000
0000
0001
0000
0000
0000
0000
0100
0000
0000
0010
0000
0000
0000
0000
1000
0000
0000
0001
0000
0000
0000
0000
0000
0000
0000
,
1000
0000
0010
0000
0000
0100
0000
0000
0001
0000
0000
0000
0000
0100
0000
0000
0001
0000
0000
0000
0000
1000
0000
0000
0010
0000
0000
0000
0000
0100
0000
0000
0001
0000
0100
0000
0000
0001
0000
0000
1000
0000
0010
0000
0000
1000
0000
0000
0001
0000
1000
0000
0000
0010
0000
0000
0100
0000
0000
0000
0000
0000
0000
0000
,
0001
0000
0010
0000
0000
0000
0000
0000
0100
0000
0000
0000
0000
1000
0000
0000
0001
0000
0100
0000
0000
0001
0000
0000
0010
0000
0000
0000
0000
0100
0000
0000
1000
0000
0100
0000
0000
0000
0000
0000
0001
0000
0000
0000
0000
0100
0000
0000
0010
0000
0000
0000
0000
1000
0000
0000
0000
0000
0010
0000
0000
0100
0000
0000
,
0001
0000
0000
0000
0000
1000
0000
0000
0001
0000
0000
0000
0000
0100
0000
0000
0001
0000
0000
0000
0000
1000
0000
0000
0001
0000
0000
0000
0000
0100
0000
0000
0010
0000
0000
0000
0000
1000
0000
0000
0010
0000
0000
0000
0000
0100
0000
0000
0010
0000
1000
0000
0000
0010
0000
0000
1000
0000
0000
0000
0000
0001
0000
0000
,
0100
0000
0000
0000
0000
0000
0000
0000
0010
0000
0000
0000
0000
0010
0000
0000
0001
0000
0000
0000
0000
0100
0000
0000
0010
0000
0000
0000
0000
0100
0000
0000
0001
0000
0000
0000
0000
0000
0000
0000
0010
0000
0000
0000
0000
0010
0000
0000
0100
0000
0000
0000
0000
1000
0000
0000
0001
0000
0100
0000
0000
0001
0000
0000
,
0100
0000
0000
0000
0000
0000
0000
0000
1000
0000
0100
0000
0000
1000
0000
0000
0100
0000
0000
0000
0000
0000
0000
0000
0010
0000
0000
0000
0000
0001
0000
0000
0100
0000
0000
0000
0000
0000
0000
0000
0010
0000
0000
0000
0000
0010
0000
0000
0100
0000
1000
0000
0000
0100
0000
0000
0001
0000
0100
0000
0000
0001
0000
0000
,
0100
0000
0010
0000
0000
0000
0000
0000
1000
0000
0000
0000
0000
0100
0000
0000
0010
0000
0100
0000
0000
0000
0000
0000
1000
0000
0000
0000
0000
0010
0000
0000
0100
0000
0000
0000
0000
0100
0000
0000
0000
0000
0000
0000
0000
0001
0000
0000
0100
0000
0001
0000
0000
0000
0000
0000
0001
0000
0000
0000
0000
0000
0000
0000
,
0010
0000
0100
0000
0000
0000
0000
0000
1000
0000
0000
0000
0000
0010
0000
0000
0100
0000
0010
0000
0000
0100
0000
0000
0001
0000
0000
0000
0000
0100
0000
0000
0000
0000
0100
0000
0000
0000
0000
0000
1000
0000
0000
0000
0000
1000
0000
0000
0000
0000
0010
0000
0000
0100
0000
0000
0001
0000
0000
0000
0000
0000
0000
0000
,
1000
0000
0100
0000
0000
1000
0000
0000
0001
0000
0000
0000
0000
0010
0000
0000
0001
0000
0000
0000
0000
0100
0000
0000
0010
0000
0000
0000
0000
1000
0000
0000
0001
0000
0100
0000
0000
0001
0000
0000
1000
0000
0000
0000
0000
0010
0000
0000
1000
0000
0000
0000
0000
0100
0000
0000
0010
0000
0000
0000
0000
0001
0000
0000
,
0100
0000
0001
0000
0000
1000
0000
0000
0100
0000
0000
0000
0000
0010
0000
0000
0001
0000
0000
0000
0000
1000
0000
0000
0001
0000
0000
0000
0000
0010
0000
0000
0100
0000
0001
0000
0000
0100
0000
0000
1000
0000
0100
0000
0000
0000
0000
0000
0001
0000
0000
0000
0000
0100
0000
0000
0010
0000
0000
0000
0000
0000
0000
0000
,
0000
0000
0100
0000
0000
0010
0000
0000
1000
0000
0000
0000
0000
0010
0000
0000
0001
0000
0010
0000
0000
0100
0000
0000
0010
0000
0000
0000
0000
0000
0000
0000
0000
0000
1000
0000
0000
0010
0000
0000
0000
0000
0001
0000
0000
0010
0000
0000
0000
0000
1000
0000
0000
0010
0000
0000
0000
0000
0001
0000
0000
0010
0000
0000
,
0000
0000
1000
0000
0000
0010
0000
0000
0001
0000
0000
0000
0000
0010
0000
0000
1000
0000
0100
0000
0000
1000
0000
0000
1001
0000
0000
0000
0000
0000
0000
0000
0000
0000
0000
0000
0000
0000
0000
0000
0000
0000
0000
0000
0000
0000
0000
0000
0000
0000
0000
0000
0000
0000
0000
0000
0000
0000
0000
0000
0000
0000
0000
0000
,
0000
0000
0000
0000
;

//---------------dance-double - ----------------
#NOTES:
     dance-double:
     :
     Easy:
     7:
     0.212,0.204,0.000,0.000,0.000:
00000000
00000000
00000000
00000000
,
00000000
00000000
00000000
00000000
,
00000000
00000000
00000000
00000000
,
00100000
01000000
00001000
00000000
00010000
00000010
00000100
00000000
,
00000010
00000000
00000001
00000010
00000100
00001000
00010000
00100000
,
01000000
00100000
10000000
00000000
01000000
00100000
00001000
00010000
,
00000100
00000010
00000001
00000100
00000010
00010000
00001000
01000000
,
00100000
00000000
10000000
01000000
00100000
00001000
00010000
00001000
,
01000000
00000000
00100000
10000000
01000000
00010000
00001000
00000100
,
00000001
00000010
00000100
00010000
00001000
00100000
01000000
10000000
,
00100000
01000000
00001000
00000000
00010000
00000010
00000100
00000001
,
00000100
00000000
00001000
00010000
00001000
01000000
00100000
10000000
,
01000000
00000000
00010000
00001000
00010000
01000000
00000000
00100000
,
00001000
00000000
00010000
00000100
00000010
00000001
00000100
00001000
,
00010000
00000000
01000000
00100000
00001000
00010000
00100000
10000000
,
01000000
00000000
00010000
00001000
00010000
00000100
00000010
00000001
,
00000100
00001000
00010000
00100000
,
10000000
01000000
00010000
00001000
,
00000010
00000001
00000000
00000100
00000010
00000100
00001000
00010000
,
00100000
10000000
01000000
00100000
00001000
00010000
00000100
00000010
,
00000001
00000100
00001000
00010000
,
01000000
10000000
00100000
00010000
,
00001000
01000000
00001000
00100000
01000000
00010000
00001000
00000010
,
00000001
00000100
00000010
00010000
00000100
00000010
00000001
00000100
,
00000000
00001000
00010000
00001000
00000000
01000000
00100000
01000000
,
00001000
00100000
00001000
00010000
00000000
00000000
00000000
00000000
,
00000000
00000000
00000000
00000000
;

//---------------dance-double - ----------------
#NOTES:
     dance-double:
     :
     Medium:
     12:
     0.322,0.305,0.080,0.000,0.241:
00000000
00000000
00000000
00000000
,
00000000
00000000
00000000
00000000
,
00000000
00000000
00000000
00000000
,
00100000
00000000
00000000
00001000
00000000
00000000
01000000
00000000
00001000
00010000
00000000
00000000
00000010
00000000
00000000
00000100
00000000
00000000
00000001
00000000
00000000
00000010
00000000
00000000
,
00000100
00000000
00000000
00000000
00000000
00010000
00001000
00000000
00000000
01000000
00000000
00000000
00100000
00000000
10000000
01000000
00000000
00000000
00010000
00000000
00000000
00001000
00000000
00000000
,
00000010
00000000
00000000
00000001
00000000
00000000
00000100
00000000
00000000
00000000
00000000
00000000
00000010
00000000
00000000
00010000
00000000
00000000
01000000
00000000
00100000
00001000
00000000
00000000
,
00010000
00000000
00100000
10000000
00000000
00000000
01000000
00000000
00000000
00010000
00000000
00000000
00001000
00000000
00000010
00000001
00000000
00000000
00000100
00000000
00000000
00001000
00000000
00000000
,
00010000
00000000
00000000
00000000
01000000
00000000
10000000
00000000
00000000
00000000
00000000
00000000
00100000
00000000
00000000
00000000
00000000
00000000
00010000
00000000
00000000
00000000
00000000
00000000
00001000
00000000
00000000
00000010
00000000
00000000
00000100
00000000
00000000
00000000
00000000
00000000
00010000
00000000
00000000
00000000
00001000
00000000
01000000
00000000
00000000
00000000
00000000
00000000
,
00100000
00000000
10000000
01000000
00000000
00000000
00010000
00000000
00000000
00001000
00000000
00000000
00000010
00000000
00000000
00000001
00000000
00000000
00001000
00000000
00000000
00000101
00000000
00000000
,
00000010
00011000
00100000
01000000
00001000
00100000
01000000
10010000
,
00100000
00000000
00000000
10000000
00000000
00000000
00010000
00000000
00100000
01000000
00000000
00000000
00010000
00000000
00000000
00001000
00000000
00000000
00000010
00000000
00000000
00000001
00000000
00000000
,
00001000
00000000
00000000
00000000
00000000
00000010
00000100
00000000
00000000
00001000
00000000
00000000
00010000
00000000
00100000
01000000
00000000
00000000
00100000
00000000
00000000
10000000
00000000
00000000
,
01000000
00000000
00100000
00001000
00000000
00000000
00010000
00000000
00000000
00000100
00000000
00000000
00000010
00000000
00000001
00001000
00000000
00000000
00000100
00000000
00000000
00000010
00000000
00000000
,
00010000
00000000
00001000
01000000
00000000
00000000
00100000
00000000
00000000
10000000
00000000
00000000
01000000
00000000
00010000
00001000
00000000
00000000
00010000
00000000
00000000
00000110
00000000
00000000
,
00000010
00000000
00000001
00001000
00000000
00000100
00010000
00000000
00000000
00000010
00000000
00000000
00000100
00000000
00001000
00010000
00000000
00000000
00100000
00000000
00000000
10000000
00000000
00000000
,
00100000
00000000
10000000
00010000
00000000
01000000
00001000
00000000
00000000
00000010
00000000
00000000
00000001
00000000
00001000
00000100
00000000
00000000
00010000
00000000
00000000
00011000
00000000
00000000
,
00100000
00010000
00000000
10000000
00000000
00000000
00100000
01000000
00000000
00000000
00000000
00000000
00001000
00000000
00000000
00010000
00000000
00000000
00000100
00000000
00000000
00000010
00000000
00000000
,
00000001
00000000
00000001
00000100
00000000
00000000
00000100
00000000
00001000
00010000
00000000
00000000
00100000
00000000
00100000
10000000
00000000
00000000
10000000
00000000
01000000
00010000
00000000
00000000
,
00001000
00000000
00000000
00000010
00000000
00000010
00000000
00000000
00000000
00000100
00000000
00000000
00000010
00000000
00000000
00000001
00000000
00000100
00000010
00000000
00000000
00010000
00000000
00000000
,
00001000
00000000
00000000
01000000
00000000
00100000
10000000
00000000
00000000
01000000
00000000
00010000
00001000
00000000
00000000
00000100
00000000
00000001
00001000
00000000
00000000
00000001
00000000
00000000
,
00000100
00001000
00000000
00001000
00000000
00000000
00010000
00100000
00000000
00100000
00000000
00000000
10000000
00000000
00000000
00000000
00000000
00000000
01000000
00000000
00000000
00110000
00000000
00000000
,
00100000
00010000
00000000
00010000
00000000
00000000
00001000
00000010
00000000
00000010
00000000
00000000
00000001
00000000
00000000
00000100
00000000
00000000
00000010
00000000
00000000
00000101
00000000
00000000
,
00000010
00000000
00010000
00001000
00000000
00000000
01000000
00000000
00000000
00010000
00000000
00000000
00100000
00000000
01000000
00001000
00000000
00000000
00010000
00000000
00000000
00000100
00000000
00000000
,
00000010
00000000
00000010
00010000
00000000
00000000
00001000
00000000
00000000
00100000
00000000
00000000
00100000
00000000
00100000
00001000
00000000
00000000
00010000
00000000
00000000
00000100
00000000
00000000
,
00000010
00000000
00000001
00000010
00000000
00000000
00000100
00000000
00000000
00010000
00000000
00000000
00000000
00001000
00000000
00000000
00100000
00000000
00000000
01000000
00000000
00000000
00100000
00000000
,
00000000
00001000
00000000
00010000
00000000
00000000
00000100
00000000
00000000
00001010
00000000
00000000
00000000
00000000
00000000
00000000
00000000
00000000
00000000
00000000
00000000
00000000
00000000
00000000
,
00000000
00000000
00000000
00000000
;

//---------------dance-double - ----------------
#NOTES:
     dance-double:
     :
     Hard:
     13:
     0.520,0.471,0.030,0.000,0.978:
00000000
00000000
00000000
00000000
,
00000000
00000000
00000000
00000000
,
00000000
00000000
00000000
00000000
,
10000000
01000000
00100000
00001000
00000000
00010000
00000100
00000000
00000010
00000001
00000000
00000001
00000100
00000000
00000010
00001000
00000000
00000100
01000000
00100000
10000000
00010000
00000000
01000000
,
00100000
00000000
00000000
00000000
10000000
01000000
00100000
00000000
00001000
00010000
00000000
00000010
00000100
00000000
00000001
00000010
00000000
00000100
00010000
00001000
00010000
00000100
00000000
00000000
,
00000010
00000001
00000010
00000100
00000000
00010000
00000000
00001000
00000000
01000000
00000000
01000000
00000000
00100000
10000000
00100000
00000000
01000000
00001000
00000000
00010000
00000010
00000000
00010000
,
00000100
00000000
00000010
00000001
00000000
00000100
00000010
00010000
00000100
00010000
00000000
00001000
01000000
00100000
00000000
10000000
00000000
01000000
00000000
00010000
00000000
00001000
00000000
00000000
,
00000010
00000000
00000001
00000000
00000010
00000000
00000100
00000000
00000000
00000000
00000100
00000000
00010000
00000000
00000000
00000000
00001000
00000000
01000000
00000000
00000000
00000000
00100000
00000000
00010000
00000000
00000000
10000000
00000000
00000000
01000000
00000000
00000000
00000000
00100000
00000000
00001000
00000000
00000000
00000000
00010000
00000000
00000010
00000000
00000000
00000000
00000100
00000000
,
00000001
00001000
00000001
00000010
00000000
00000100
00010000
00000000
00001000
00100000
00000000
01000000
00100000
00000000
10000000
01000000
00000000
00100000
00001000
00010000
00000100
00000110
00000000
00000000
,
00000100
00000001
00000000
00001001
00000000
00000000
00000100
00010000
00000000
00001000
00100000
00000000
01000000
10000000
00000000
00100000
01000000
00000000
00001000
00010000
00000000
00011000
00000000
00000000
,
00100000
00001000
00100000
01000000
00000000
00100000
00001000
00000000
00010000
00000100
00000000
00000100
00000010
00000000
00000001
00001000
00000000
00000100
00010000
00001000
01000000
00100000
00000000
10000000
,
01000000
00000000
00000000
00000000
00100000
01000000
00010000
00000000
00001000
00010000
00000000
00001000
00000010
00000000
00000001
00000100
00000000
00000010
00010000
00001000
01000000
00010000
00000000
00000000
,
10000000
01000000
00100000
00001000
00000000
00001000
00010000
00000000
00000100
00000010
00000000
00000001
00000100
00000001
00000100
00001000
00000000
00001000
00010000
00000000
00100000
10000000
00000000
00100000
,
10000000
00010000
10000000
01000000
00000000
01000000
00010000
00000000
00001000
00000010
00000000
00000010
00000001
00000010
00000100
00010000
00000000
00010000
00001000
01000000
00100000
10000000
00000000
00000000
,
00100000
10000000
00100000
01000000
00000000
01000000
00001000
00000000
00010000
00000010
00000000
00000100
00000001
00000010
00000001
00000100
00000000
00001000
00010000
00000000
00100000
10000000
00000000
00000000
,
00010000
10000000
01000000
00100000
00000000
00100000
00001000
00000000
00010000
00000100
00000000
00000010
00000001
00001000
00000000
00000001
00000100
00000000
00001000
00010000
00001000
01000000
00000000
00000000
,
00010000
10000000
00000000
01000000
00000000
01000000
00010000
00001000
00000000
00000010
00000000
00000010
00000001
00000100
00000000
00001000
00000000
00001000
00010000
00000000
00010000
00000000
01000000
10000000
,
01000000
00000000
00100000
00001000
00000000
00010000
00000100
00000000
00000010
00000001
00000000
00000100
00000010
00000000
00010000
00001000
00000000
00100000
00010000
01000000
00001000
00100000
00000000
01000000
,
10000000
00000000
00000000
01000000
00000000
01000000
00100000
00000000
00001000
00010000
00000000
00001000
00000010
00000000
00000000
00000001
00000000
00000001
00000100
00000000
00000000
00000010
00010000
00000010
,
00010000
00000000
00000000
00001000
00010000
00001000
00010000
00000000
00000000
00100000
00000000
00100000
10000000
00000000
00000000
01000000
00000000
01000000
00010000
00001000
00010000
00000100
00010000
00000010
,
00000100
00000001
00000000
00000010
00000000
00000010
00001000
00010000
00000000
00001000
00000000
00001000
00010000
00000000
00100000
00000000
00000000
10000000
01000000
10000000
00000000
10000000
00000000
00000000
,
01000000
00010000
00000000
00001000
00000000
00001000
00000010
00000001
00000010
00000001
00000000
00000001
00000000
00000100
00000000
00001000
00000000
00010000
00000000
01000000
00100000
01000000
00000000
00000000
,
10000000
00000000
01000000
00010000
00000000
00010000
00001000
00000000
00000010
00000001
00000000
00000001
00000100
00000000
00001000
00010000
00000000
00010000
00100000
00000000
10000000
01000000
00000000
00000000
,
10000000
00000000
00100000
00010000
00000000
00010000
00001000
00000000
00000100
00000001
00000000
00000001
00000010
00000000
00001000
00010000
00000000
00010000
01000000
00100000
00010000
00100000
00000000
00000000
,
00000000
10000000
01000000
00010000
00000000
00010000
00001000
00000000
00001000
00100000
00000000
00000000
00000000
00010000
00000010
00000000
00001000
01000000
00000000
00010000
00000010
00000000
00001000
01000000
,
00000000
00100000
10000000
01000000
00000000
01000000
00010000
00000000
00010000
00001000
00000000
00000000
00000000
00000000
00000000
00000000
00000000
00000000
00000000
00000000
00000000
00000000
00000000
00000000
,
00000000
00000000
00000000
00000000
;

//---------------dance-double - ----------------
#NOTES:
     dance-double:
     :
     Challenge:
     13:
     0.520,0.471,0.030,0.000,0.978:
00000000
00000000
00000000
00000000
,
00000000
00000000
00000000
00000000
,
00000000
00000000
00000000
00000000
,
10000000
00000000
01000000
00000000
00000000
00100000
00000000
00000000
00001000
00000000
00000000
00000000
00000000
00010000
00000000
00000000
00000100
00000000
00000000
00000000
00000000
00000010
00000000
00000000
00000001
00000000
00000000
00000000
00000000
00000001
00000000
00000000
00000100
00000000
00000000
00000000
00000000
00000010
00000000
00000000
00001000
00000000
00000000
00000000
00000000
00000100
00000000
00000000
01000000
00000000
00100000
00000000
00000000
10000000
00000000
00000000
00010000
00000000
00000000
00000000
00000000
01000000
00000000
00000000
,
00100000
00000000
00000000
00000000
00000000
00000000
00000000
00000000
00000000
00000000
10000000
00000000
00000000
01000000
00000000
00000000
00100000
00000000
00000000
00000000
00000000
00001000
00000000
00000000
00010000
00000000
00000000
00000000
00000000
00000010
00000000
00000000
00000100
00000000
00000000
00000000
00000000
00000001
00000000
00000000
00000010
00000000
00000000
00000000
00000000
00000100
00000000
00000000
00010000
00000000
00001000
00000000
00000000
00010000
00000000
00000000
00000100
00000000
00000000
00000000
00000000
00000000
00000000
00000000
,
00000010
00000000
00000001
00000000
00000000
00000010
00000000
00000000
00000100
00000000
00000000
00000000
00000000
00010000
00000000
00000000
00000000
00000000
00001000
00000000
00000000
00000000
00000000
00000000
01000000
00000000
00000000
00000000
00000000
01000000
00000000
00000000
00000000
00000000
00100000
00000000
00000000
10000000
00000000
00000000
00100000
00000000
00000000
00000000
00000000
01000000
00000000
00000000
00001000
00000000
00000000
00000000
00000000
00010000
00000000
00000000
00000010
00000000
00000000
00000000
00000000
00010000
00000000
00000000
,
00000100
00000000
00000000
00000000
00000000
00000010
00000000
00000000
00000001
00000000
00000000
00000000
00000000
00000100
00000000
00000000
00000010
00000000
00010000
00000000
00000000
00000100
00000000
00000000
00010000
00000000
00000000
00000000
00000000
00001000
00000000
00000000
01000000
00000000
00100000
00000000
00000000
00000000
00000000
00000000
10000000
00000000
00000000
00000000
00000000
01000000
00000000
00000000
00000000
00000000
00010000
00000000
00000000
00000000
00000000
00000000
00001000
00000000
00000000
00000000
00000000
00000000
00000000
00000000
,
00000010
00000000
00000001
00000000
00000000
00000010
00000000
00000000
00000100
00000000
00000000
00000000
00000000
00000100
00000000
00000000
00010000
00000000
00000000
00000000
00000000
00001000
00000000
00000000
01000000
00000000
00000000
00000000
00000000
00100000
00000000
00000000
00010000
00000000
00000000
00000000
10000000
00000000
00000000
00000000
01000000
00000000
00000000
00000000
00000000
00100000
00000000
00000000
00001000
00000000
00000000
00000000
00000000
00010000
00000000
00000000
00000010
00000000
00000000
00000000
00000000
00000100
00000000
00000000
,
00000001
00000000
00001000
00000000
00000000
00000001
00000000
00000000
00000010
00000000
00000000
00000000
00000000
00000100
00000000
00000000
00010000
00000000
00000000
00000000
00000000
00001000
00000000
00000000
00100000
00000000
00000000
00000000
00000000
01000000
00000000
00000000
00100000
00000000
00000000
00000000
00000000
10000000
00000000
00000000
01000000
00000000
00000000
00000000
00000000
00100000
00000000
00000000
00001000
00000000
00010000
00000000
00000000
00000100
00000000
00000000
00000110
00000000
00000000
00000000
00000000
00000000
00000000
00000000
,
00000100
00000001
00000000
00000000
00001001
00000000
00000000
00000000
00000100
00010000
00000000
00000000
00001000
00100000
00000000
00000000
01000000
10000000
00000000
00000000
00100000
01000000
00000000
00000000
00001000
00010000
00000000
00000000
00011000
00000000
00000000
00000000
,
00100000
00000000
00001000
00000000
00000000
00100000
00000000
00000000
01000000
00000000
00000000
00000000
00000000
00100000
00000000
00000000
00001000
00000000
00000000
00000000
00000000
00010000
00000000
00000000
00000100
00000000
00000000
00000000
00000000
00000100
00000000
00000000
00000010
00000000
00000000
00000000
00000000
00000001
00000000
00000000
00001000
00000000
00000000
00000000
00000000
00000100
00000000
00000000
00010000
00000000
00001000
00000000
00000000
01000000
00000000
00000000
00100000
00000000
00000000
00000000
00000000
10000000
00000000
00000000
,
01000000
00000000
00000000
00000000
00000000
00000000
00000000
00000000
00000000
00000000
00100000
00000000
00000000
01000000
00000000
00000000
00010000
00000000
00000000
00000000
00000000
00001000
00000000
00000000
00010000
00000000
00000000
00000000
00000000
00001000
00000000
00000000
00000010
00000000
00000000
00000000
00000000
00000001
00000000
00000000
00000100
00000000
00000000
00000000
00000000
00000010
00000000
00000000
00010000
00000000
00001000
00000000
00000000
01000000
00000000
00000000
00010000
00000000
00000000
00000000
00000000
00000000
00000000
00000000
,
10000000
00000000
01000000
00000000
00000000
00100000
00000000
00000000
00001000
00000000
00000000
00000000
00000000
00001000
00000000
00000000
00010000
00000000
00000000
00000000
00000000
00000100
00000000
00000000
00000010
00000000
00000000
00000000
00000000
00000001
00000000
00000000
00000100
00000000
00000001
00000000
00000000
00000100
00000000
00000000
00001000
00000000
00000000
00000000
00000000
00001000
00000000
00000000
00010000
00000000
00000000
00000000
00000000
00100000
00000000
00000000
10000000
00000000
00000000
00000000
00000000
00100000
00000000
00000000
,
10000000
00000000
00010000
00000000
00000000
10000000
00000000
00000000
01000000
00000000
00000000
00000000
00000000
01000000
00000000
00000000
00010000
00000000
00000000
00000000
00000000
00001000
00000000
00000000
00000010
00000000
00000000
00000000
00000000
00000010
00000000
00000000
00000001
00000000
00000010
00000000
00000000
00000100
00000000
00000000
00010000
00000000
00000000
00000000
00000000
00010000
00000000
00000000
00001000
00000000
01000000
00000000
00000000
00100000
00000000
00000000
10000000
00000000
00000000
00000000
00000000
00000000
00000000
00000000
,
00100000
00000000
10000000
00000000
00000000
00100000
00000000
00000000
01000000
00000000
00000000
00000000
00000000
01000000
00000000
00000000
00001000
00000000
00000000
00000000
00000000
00010000
00000000
00000000
00000010
00000000
00000000
00000000
00000000
00000100
00000000
00000000
00000001
00000000
00000010
00000000
00000000
00000001
00000000
00000000
00000100
00000000
00000000
00000000
00000000
00001000
00000000
00000000
00010000
00000000
00000000
00000000
00000000
00100000
00000000
00000000
10000000
00000000
00000000
00000000
00000000
00000000
00000000
00000000
,
00010000
00000000
10000000
00000000
00000000
01000000
00000000
00000000
00100000
00000000
00000000
00000000
00000000
00100000
00000000
00000000
00001000
00000000
00000000
00000000
00000000
00010000
00000000
00000000
00000100
00000000
00000000
00000000
00000000
00000010
00000000
00000000
00000001
00000000
00001000
00000000
00000000
00000000
00000000
00000000
00000001
00000000
00000100
00000000
00000000
00000000
00000000
00000000
00001000
00000000
00010000
00000000
00000000
00001000
00000000
00000000
01000000
00000000
00000000
00000000
00000000
00000000
00000000
00000000
,
00010000
00000000
10000000
00000000
00000000
00000000
00000000
00000000
01000000
00000000
00000000
00000000
00000000
01000000
00000000
00000000
00010000
00000000
00001000
00000000
00000000
00000000
00000000
00000000
00000010
00000000
00000000
00000000
00000000
00000010
00000000
00000000
00000001
00000000
00000100
00000000
00000000
00000000
00000000
00000000
00001000
00000000
00000000
00000000
00000000
00001000
00000000
00000000
00010000
00000000
00000000
00000000
00000000
00010000
00000000
00000000
00000000
00000000
01000000
00000000
00000000
10000000
00000000
00000000
,
01000000
00000000
00000000
00000000
00000000
00100000
00000000
00000000
00001000
00000000
00000000
00000000
00000000
00010000
00000000
00000000
00000100
00000000
00000000
00000000
00000000
00000010
00000000
00000000
00000001
00000000
00000000
00000000
00000000
00000100
00000000
00000000
00000010
00000000
00000000
00000000
00000000
00010000
00000000
00000000
00001000
00000000
00000000
00000000
00000000
00100000
00000000
00000000
00010000
00000000
01000000
00000000
00000000
00001000
00000000
00000000
00100000
00000000
00000000
00000000
00000000
01000000
00000000
00000000
,
10000000
00000000
00000000
00000000
00000000
00000000
00000000
00000000
01000000
00000000
00000000
00000000
00000000
01000000
00000000
00000000
00100000
00000000
00000000
00000000
00000000
00001000
00000000
00000000
00010000
00000000
00000000
00000000
00000000
00001000
00000000
00000000
00000010
00000000
00000000
00000000
00000000
00000000
00000000
00000000
00000001
00000000
00000000
00000000
00000000
00000001
00000000
00000000
00000100
00000000
00000000
00000000
00000000
00000000
00000000
00000000
00000010
00000000
00010000
00000000
00000000
00000010
00000000
00000000
,
00010000
00000000
00000000
00000000
00000000
00000000
00000000
00000000
00001000
00000000
00010000
00000000
00000000
00001000
00000000
00000000
00010000
00000000
00000000
00000000
00000000
00000000
00000000
00000000
00100000
00000000
00000000
00000000
00000000
00100000
00000000
00000000
10000000
00000000
00000000
00000000
00000000
00000000
00000000
00000000
01000000
00000000
00000000
00000000
00000000
01000000
00000000
00000000
00010000
00000000
00001000
00000000
00000000
00010000
00000000
00000000
00000100
00000000
00010000
00000000
00000000
00000010
00000000
00000000
,
00000100
00000000
00000001
00000000
00000000
00000000
00000000
00000000
00000010
00000000
00000000
00000000
00000000
00000010
00000000
00000000
00001000
00000000
00010000
00000000
00000000
00000000
00000000
00000000
00001000
00000000
00000000
00000000
00000000
00001000
00000000
00000000
00010000
00000000
00000000
00000000
00000000
00100000
00000000
00000000
00000000
00000000
00000000
00000000
00000000
10000000
00000000
00000000
01000000
00000000
10000000
00000000
00000000
00000000
00000000
00000000
10000000
00000000
00000000
00000000
00000000
00000000
00000000
00000000
,
01000000
00000000
00010000
00000000
00000000
00000000
00000000
00000000
00001000
00000000
00000000
00000000
00000000
00001000
00000000
00000000
00000010
00000000
00000001
00000000
00000000
00000010
00000000
00000000
00000001
00000000
00000000
00000000
00000000
00000001
00000000
00000000
00000000
00000000
00000100
00000000
00000000
00000000
00000000
00000000
00001000
00000000
00000000
00000000
00000000
00010000
00000000
00000000
00000000
00000000
01000000
00000000
00000000
00100000
00000000
00000000
01000000
00000000
00000000
00000000
00000000
00000000
00000000
00000000
,
10000000
00000000
00000000
00000000
00000000
01000000
00000000
00000000
00010000
00000000
00000000
00000000
00000000
00010000
00000000
00000000
00001000
00000000
00000000
00000000
00000000
00000010
00000000
00000000
00000001
00000000
00000000
00000000
00000000
00000001
00000000
00000000
00000100
00000000
00000000
00000000
00000000
00001000
00000000
00000000
00010000
00000000
00000000
00000000
00000000
00010000
00000000
00000000
00100000
00000000
00000000
00000000
00000000
10000000
00000000
00000000
01000000
00000000
00000000
00000000
00000000
00000000
00000000
00000000
,
10000000
00000000
00000000
00000000
00000000
00100000
00000000
00000000
00010000
00000000
00000000
00000000
00000000
00010000
00000000
00000000
00001000
00000000
00000000
00000000
00000000
00000100
00000000
00000000
00000001
00000000
00000000
00000000
00000000
00000001
00000000
00000000
00000010
00000000
00000000
00000000
00000000
00001000
00000000
00000000
00010000
00000000
00000000
00000000
00000000
00010000
00000000
00000000
01000000
00000000
00100000
00000000
00000000
00010000
00000000
00000000
00100000
00000000
00000000
00000000
00000000
00000000
00000000
00000000
,
00000000
00000000
10000000
00000000
00000000
01000000
00000000
00000000
00010000
00000000
00000000
00000000
00000000
00010000
00000000
00000000
00001000
00000000
00000000
00000000
00000000
00001000
00000000
00000000
00100000
00000000
00000000
00000000
00000000
00000000
00000000
00000000
00000000
00000000
00010000
00000000
00000000
00000010
00000000
00000000
00000000
00000000
00001000
00000000
00000000
01000000
00000000
00000000
00000000
00000000
00010000
00000000
00000000
00000010
00000000
00000000
00000000
00000000
00001000
00000000
00000000
01000000
00000000
00000000
,
00000000
00000000
00100000
00000000
00000000
10000000
00000000
00000000
01000000
00000000
00000000
00000000
00000000
01000000
00000000
00000000
00010000
00000000
00000000
00000000
00000000
00010000
00000000
00000000
00001000
00000000
00000000
00000000
00000000
00000000
00000000
00000000
00000000
00000000
00000000
00000000
00000000
00000000
00000000
00000000
00000000
00000000
00000000
00000000
00000000
00000000
00000000
00000000
00000000
00000000
00000000
00000000
00000000
00000000
00000000
00000000
00000000
00000000
00000000
00000000
00000000
00000000
00000000
00000000
,
00000000
00000000
00000000
00000000
;
