#TITLE:SENORITA(Speedy Mix);
#SUBTITLE:;
#ARTIST:JENNY ROM;
#TITLETRANSLIT:;
#SUBTITLETRANSLIT:;
#ARTISTTRANSLIT:;
#CREDIT:;
#BANNER:SENORITA(Speedy Mix).png;
#BACKGROUND:SENORITA(Speedy Mix)-bg.png;
#LYRICSPATH:;
#CDTITLE:./CDTITLES/Dancemania SPEED 9.PNG;
#MUSIC:SENORITA(Speedy Mix).ogg;
#OFFSET:0.000;
#SAMPLESTART:50.307;
#SAMPLELENGTH:15.000;
#SELECTABLE:YES;
#DISPLAYBPM:174.000;
#BPMS:0.000=174.018;
#STOPS:;
#BGCHANGES:;

//---------------dance-single - ----------------
#NOTES:
     dance-single:
     :
     Beginner:
     1:
     0.141,0.211,0.058,0.000,0.000:
0000
0000
0000
0000
,
0000
0000
0000
0000
,
0000
0000
0000
0000
,
0000
0000
0000
0000
,
0000
0000
0000
0000
,
1000
0000
0000
0000
,
0010
0000
0000
0000
,
0001
0000
0000
0000
,
0010
0000
0000
0000
,
0100
0000
0000
0000
,
0001
0000
0001
0000
,
0100
0000
0000
0000
,
1000
0000
1000
0000
,
0010
0000
0000
0000
,
1000
0000
1000
0000
,
0100
0000
0000
0000
,
0001
0000
0001
0000
,
1000
0000
0000
0000
,
0010
0000
0010
0000
,
0001
0000
0000
0000
,
1001
0000
0000
0000
,
0001
0000
0000
0000
,
1000
0000
0001
0000
,
1000
0000
0000
0000
,
0001
0000
1000
0000
,
0010
0000
0000
0000
,
0100
0000
0010
0000
,
0100
0000
0000
0000
,
1000
0000
0001
0000
,
1000
0000
1000
0000
,
0001
0000
0001
0000
,
0100
0000
0100
0000
,
0010
0000
0010
0000
,
0001
0000
0001
0000
,
1000
0000
1000
0000
,
0010
0000
0000
0000
,
1001
0000
0000
0000
,
0010
0000
0000
0000
,
0100
0000
0000
0000
,
0001
0000
0000
0000
,
1000
0000
1000
0000
,
0100
0000
0000
0000
,
0010
0000
0000
0000
,
1000
0000
0000
0000
,
0001
0000
0001
0000
,
0110
0000
0000
0000
,
1001
0000
0000
0000
,
0110
0000
0000
0000
,
1000
0000
0001
0000
,
0010
0000
0010
0000
,
1000
0000
0010
0000
,
0100
0000
0100
0000
,
0001
0000
0100
0000
,
1000
0000
0000
0000
,
0010
0000
0000
0000
,
0001
0000
0000
0000
,
0010
0000
0000
0000
,
0100
0000
0000
0000
,
0001
0000
0001
0000
,
0100
0000
0000
0000
,
1000
0000
1000
0000
,
0100
0000
0000
0000
,
0000
0000
0000
0000
;

//---------------dance-single - ----------------
#NOTES:
     dance-single:
     :
     Easy:
     3:
     0.237,0.283,0.058,0.046,0.000:
0000
0000
0000
0000
,
0000
0000
0000
0000
,
0000
0000
0000
0000
,
0000
0000
0000
0000
,
0000
0000
0000
0000
,
1000
0000
1000
0000
,
0010
0100
0010
0000
,
0001
0000
0001
0000
,
0010
0100
0010
0000
,
0010
0000
1000
0000
,
0001
1000
0001
0000
,
0010
0000
0001
0000
,
1000
0001
1000
0000
,
0020
0000
0030
0000
,
1000
0000
0001
0000
,
0200
0000
0300
0000
,
0001
0000
1000
0000
,
0020
0000
0030
0000
,
0100
0100
0000
0001
,
1000
0000
0001
0000
,
1000
0000
0001
0000
,
0110
0000
0000
0000
,
1000
1000
0001
0000
,
1001
0000
0000
0000
,
0010
0010
0100
0000
,
0110
0000
0000
0000
,
0001
0001
1000
0000
,
0010
0000
0100
0000
,
1000
0000
0001
0000
,
1000
1000
0001
0000
,
0010
0000
1001
0000
,
0100
0100
0100
0000
,
0010
0010
0010
0000
,
0001
0001
1000
0000
,
0100
0000
1001
0000
,
0010
0000
0100
0000
,
0001
0001
1000
1000
,
0010
0000
1000
0000
,
0010
0000
0100
0000
,
0010
0000
0001
0000
,
0010
0010
0010
0000
,
0100
0000
0001
0000
,
0100
0000
0010
0000
,
0100
0000
1000
0000
,
0100
0100
0100
0100
,
0001
0000
1000
0000
,
0001
0000
0010
0000
,
0001
0000
0100
0000
,
0010
0010
0010
0000
,
1000
0000
0001
0000
,
1000
0000
0010
0000
,
1000
0000
0100
0000
,
0010
0010
0010
0010
,
0001
0001
0001
0000
,
1000
0100
1000
0000
,
1000
1000
1000
0000
,
0001
0100
0001
0000
,
0010
0010
0010
0000
,
0001
0100
0001
0000
,
0100
0100
0100
0000
,
1000
0010
1000
0000
,
0200
0000
0300
0000
,
0000
0000
0000
0000
;

//---------------dance-single - ----------------
#NOTES:
     dance-single:
     :
     Medium:
     6:
     0.403,0.426,0.207,0.081,0.000:
0000
0000
0000
0000
,
0000
0000
0000
0000
,
0000
0000
0000
0000
,
0000
0000
0000
0000
,
0001
0000
1000
0000
,
0010
0010
1000
0100
,
0001
0100
1000
0001
,
0010
0010
0001
0100
,
1000
0100
0001
1000
,
0110
0000
0001
0100
,
1000
1000
0010
0100
,
0110
0000
1000
0100
,
0001
0001
0010
0100
,
0001
0000
0000
0110
0000
0000
0000
0000
,
0001
1000
0100
0000
0001
0000
0001
0000
,
1000
0000
0000
0110
0000
0000
0000
0000
,
1000
0001
0100
0000
1000
0000
1000
0000
,
0010
0000
0000
1001
0000
0000
0000
0000
,
0001
0010
0100
0000
1000
0000
0001
0000
,
1000
1000
0001
0001
,
1000
0100
1000
0000
0001
0100
0001
0000
,
0010
0000
0000
1100
0000
0000
0000
0000
,
0010
1000
0010
0000
0100
0000
0001
0000
,
0010
0000
0000
0101
0000
0000
0000
0000
,
0010
0001
0010
0000
0100
0000
1000
0000
,
0100
0000
0000
0110
0000
0000
0000
0000
,
0001
1000
0010
0100
,
1000
1000
0001
0001
,
1000
0100
0010
0000
0001
0010
0100
0000
,
0001
1000
0100
0100
,
0010
0001
1001
0000
,
0100
0010
0100
0000
0002
0000
0003
0000
,
0010
0100
0010
0000
2000
0000
3000
0000
,
1000
0001
0100
0100
,
1000
0100
0110
0000
,
1100
0000
0101
0000
,
0001
0000
1000
0000
1001
0000
0100
1000
,
0000
0000
0001
0000
0010
0010
0000
0001
,
0000
0000
1000
0000
0010
0010
0000
0100
,
0000
0000
0010
0000
0100
0100
0000
0000
,
1000
0000
0010
0000
0100
0000
0001
1000
,
0000
0000
1000
0000
0001
0001
0000
0001
,
0000
0000
0001
0000
1000
1000
0000
0100
,
0000
0000
0100
0000
0010
0010
0000
0000
,
0100
0000
0010
0000
1001
0000
0100
0010
,
0000
0000
1000
0000
0001
1000
0000
0010
,
0000
0000
0001
0000
1000
0001
0000
0010
,
0000
0000
0100
0000
0010
0100
0000
0000
,
0001
0000
0010
0000
0100
0000
1000
0002
,
0000
0000
1000
0003
0100
0010
0000
2000
,
0000
0000
0001
3000
0100
0010
0000
0200
,
0000
0000
0010
0300
0001
1000
0000
0000
,
0001
1000
0001
1000
0001
0000
1001
0000
,
0010
1000
0010
0100
,
0010
1000
0100
0001
,
1000
0010
0100
0100
,
0010
0001
0100
1000
,
1001
0100
0001
0100
,
0010
0100
0001
1000
,
1001
0100
1000
0100
,
0010
0100
1000
0100
,
2002
0000
0000
3003
,
0000
0000
0000
0000
;

//---------------dance-single - ----------------
#NOTES:
     dance-single:
     :
     Hard:
     8:
     0.600,0.569,0.276,0.035,0.012:
0000
0000
0000
0000
,
0000
0000
0000
0000
,
0000
0000
0000
0000
,
0000
0000
0000
0000
,
0000
0000
0000
0000
,
0001
0100
0010
0100
0001
0100
0010
0100
,
0010
1000
0100
1000
0010
0100
0001
0000
,
0100
0010
0100
0001
0100
0010
0100
0001
,
1000
0001
0100
0010
0100
0001
1000
0000
,
1000
0010
0100
0010
1000
0010
0100
0010
,
1000
0100
1000
0010
0100
0001
1000
0000
,
0001
1000
0100
1000
0010
0100
0001
0100
,
0001
0011
1001
1100
,
0010
0100
0010
0100
0000
0000
0001
0000
,
1000
0010
0100
0001
0010
0100
1000
0000
,
1000
0001
1000
0001
0000
0000
0100
0000
,
0010
1000
0100
1000
0010
0100
0001
0000
,
0100
0010
0100
0010
0000
0000
1000
0000
,
0001
0010
0100
0010
0001
0100
0010
1000
,
0100
0010
0100
0000
0001
1000
0001
0000
,
0010
0100
0010
0000
1000
0001
1000
0000
,
0101
0000
1000
0100
0000
0000
1000
0000
,
0010
1000
0001
0010
0001
0100
0010
0000
,
1100
0000
0001
0100
0000
0000
0001
0000
,
1000
0100
0010
0001
1000
0010
0100
0000
,
0110
0000
0010
1000
0000
0000
0001
0000
,
0010
0100
0010
0001
0100
1000
0100
0000
,
0001
0100
0001
0000
0100
0010
0100
0000
,
1000
0100
1000
0000
0001
1000
0001
0000
,
0001
1000
0010
1000
0100
1000
0001
1000
,
0001
0100
0001
0010
0000
0000
0001
0000
,
1000
0100
0000
1100
0000
0000
0010
0000
,
0001
0100
0000
0101
0000
0000
0010
0000
,
1000
0001
0100
0001
0010
0001
1000
0001
,
1000
0010
1000
0100
0000
0000
1000
0000
,
0010
0000
0000
0100
0000
0000
0001
0000
0010
0000
0000
0100
0000
0000
1000
0000
,
0020
0000
1030
0000
0001
0010
0001
1000
,
0000
0000
1010
0000
0100
0001
0000
0001
,
0000
0000
0011
0000
0100
1000
0000
1000
,
0000
0000
1001
0000
0010
0100
0010
1000
,
0100
0010
0100
1000
0001
1000
0001
1000
,
0000
0000
0011
0000
0010
0100
0000
0001
,
0000
0000
1010
0000
0010
0100
0000
0100
,
0000
0000
1001
0000
1000
0001
1000
0100
,
1000
0010
0100
0001
0100
0010
1000
0001
,
0000
0000
0110
0000
0001
0001
0000
1000
,
0000
0000
0110
0000
1000
1000
0000
0010
,
0000
0000
0110
0000
0100
0100
0010
0100
,
0001
1000
0001
0100
0010
1000
0100
1000
,
0000
0000
0101
0000
0100
0100
0000
0001
,
0000
0000
1100
0000
0100
0100
0000
1000
,
0000
0000
0110
0000
0010
0010
0100
0010
,
0001
0010
1000
0010
0001
1000
0100
0000
,
1000
0001
0010
0100
1000
0001
0010
0100
,
0010
0001
1000
0001
0010
0001
1000
0000
,
0010
0100
0010
1000
0010
0100
0010
1000
,
0001
0100
1000
0100
0001
1000
0100
0000
,
0001
1000
0100
0010
0001
1000
0100
0010
,
0100
1000
0001
1000
0010
0100
0010
0000
,
1000
0100
0001
0100
1000
0010
1000
0100
,
1000
1010
1001
0101
,
2200
0000
0000
3300
,
0000
0000
0000
0000
;

//---------------dance-double - ----------------
#NOTES:
     dance-double:
     :
     Easy:
     3:
     0.220,0.248,0.092,0.046,0.000:
00000000
00000000
00000000
00000000
,
00000000
00000000
00000000
00000000
,
00000000
00000000
00000000
00000000
,
00000000
00000000
00000000
00000000
,
00000000
00000000
00000000
00000000
,
00100000
00000000
00001000
00000000
,
00010000
00000000
00001000
00000000
,
00000010
00000000
00010000
00000000
,
00001000
00000000
00010000
00000000
,
00100000
00000000
00010000
00000000
,
10000000
00000000
00010000
00000000
,
00100000
00000000
00001000
00000000
,
00010000
00000000
00011000
00000000
,
00000020
00000000
00000030
00000000
,
00000100
00000000
00000001
00000000
,
00002000
00000000
00003000
00000000
,
00000100
00000000
00010000
00000000
,
00002000
00000000
00003000
00000000
,
00100000
00000000
01000000
00000000
,
10000000
00000000
00010000
00000000
,
00100000
00000000
00001000
00000000
,
00011000
00000000
00000000
00000000
,
00000100
00000000
00000010
00000000
,
00000110
00000000
00000000
00000000
,
00000001
00000000
00001000
00000000
,
00001001
00000000
00000000
00000000
,
00000100
00000000
00010000
00000000
,
00001000
00000000
01000000
00000000
,
00100000
00000000
01100000
00000000
,
10000000
10000000
00010000
00000000
,
00100000
00000000
00011000
00000000
,
00000100
00000100
00000100
00000000
,
00001000
00001000
00001000
00000000
,
00000001
00000001
00001000
00000000
,
00000010
00000000
00011000
00000000
,
00100000
00000000
01000000
00000000
,
10000000
10000000
01000000
01000000
,
00100000
00000000
00010000
00000000
,
00100000
00000000
00001000
00000000
,
00010000
00000000
00001000
00000000
,
00000010
00000010
00000100
00000000
,
00000010
00000000
00001000
00000000
,
00000010
00000000
00010000
00000000
,
00001000
00000000
00010000
00000000
,
00100000
00100000
01000000
00000000
,
00001000
00000000
01000000
00000000
,
00001000
00000000
00100000
00000000
,
00001000
00000000
00011000
00000000
,
00000100
00000010
00000100
00000000
,
00000001
00000000
00000100
00000000
,
00000010
00000000
00001000
00000000
,
00000100
00000000
00010000
00000000
,
00001000
00010000
00001000
00010000
,
00000010
00000000
00010000
00000000
,
00001000
00000000
00010000
00000000
,
00100000
00000000
00001000
00000000
,
00010000
00000000
00001000
00000000
,
00100000
00100000
01000000
00000000
,
10000000
00010000
00010000
00000000
,
01000000
01000000
00001000
00000000
,
00010000
00010000
00001000
00000000
,
00020000
00000000
00030000
00000000
,
00000000
00000000
00000000
00000000
;

//---------------dance-double - ----------------
#NOTES:
     dance-double:
     :
     Medium:
     6:
     0.390,0.426,0.242,0.023,0.000:
00000000
00000000
00000000
00000000
,
00000000
00000000
00000000
00000000
,
00000000
00000000
00000000
00000000
,
00000000
00000000
00000000
00000000
,
00001000
00000000
01000000
00000000
,
00100000
00100000
10000000
01000000
,
00010000
00001000
00000100
00000001
,
00000010
00000010
00000001
00000100
,
00001000
00010000
01000000
10000000
,
01100000
00010000
01000000
10000000
,
01000000
00010000
00001000
00000010
,
00000110
00000001
00000100
00000001
,
00000100
00001000
00010000
00011000
,
00010000
00000000
00000000
00110000
00000000
00000000
00000000
00000000
,
10000000
01000000
00010000
00000000
01000000
00000000
00100000
00000000
,
00010000
00000000
00000000
00011000
00000000
00000000
00000000
00000000
,
00000010
00001000
00000100
00000000
00000001
00000000
00000001
00000000
,
00001000
00000000
00000000
00001001
00000000
00000000
00000000
00000000
,
00000010
00010000
00001000
00000000
00100000
00000000
01000000
00000000
,
10000000
10000000
00010000
00010000
,
00001000
00001000
00000001
00000001
,
00000100
00000000
00000000
00011000
00000000
00000000
00000000
00000000
,
00100000
00010000
01000000
00000000
10000000
00000000
00010000
00000000
,
00100000
00000000
00000000
00011000
00000000
00000000
00000000
00000000
,
00000100
00001000
00000010
00000000
00000001
00000000
00001000
00000000
,
00000001
00000000
00000000
00000011
00000000
00000000
00000000
00000000
,
00000010
00001000
00010000
00100000
,
10000000
10000000
00010000
00010000
,
00001000
00001000
00000001
00000001
,
00001000
00000010
00000100
00000100
,
00000001
00001000
00000100
00000100
,
00010000
00010000
00011000
00000000
,
01000000
01000000
01100000
00000000
,
00010000
00100000
01000000
01000000
,
10000000
00010000
01010000
00000000
,
00011000
00000000
00000110
00000000
,
00000001
00000000
00001000
00000000
00001001
00000000
00000000
00000100
,
00000000
00000000
00000010
00000000
00010000
00001000
00000000
00100000
,
00000000
00000000
01000000
00000000
00010000
00001000
00000000
00000010
,
00000000
00000000
00000100
00000000
00000001
00000100
00000000
00000000
,
00000010
00000000
00001000
00000000
00001010
00000000
00000000
00000001
,
00000000
00000000
00000001
00000000
00001000
00000100
00000000
00010000
,
00000000
00000000
00010000
00000000
00001000
00010000
00000000
01000000
,
00000000
00000000
01000000
00000000
00100000
10000000
00000000
00000000
,
00010000
00000000
01000000
00000000
01010000
00000000
00000000
00100000
,
00000000
00000000
00001000
00000000
01000000
00010000
00000000
00001000
,
00000000
00000000
00010000
00000000
00000010
00000100
00000000
00000001
,
00000000
00000000
00000100
00000000
00001000
00000100
00000000
00000000
,
00000001
00000000
00000100
00000000
00001000
00000000
00010000
00001000
,
00000000
00000000
00100000
00000000
00010000
01000000
00000000
00100000
,
00000000
00000000
00001000
00000000
00010000
00000100
00000000
00000010
,
00000000
00000000
00000001
00000000
00000100
00000010
00000000
00000000
,
00001000
00000100
00001000
00000100
00001000
00000000
00011000
00000000
,
00100000
00010000
00100000
10000000
,
01000000
00010000
00001000
00000100
,
00000010
00001000
00000010
00000001
,
00000100
00001000
00010000
01000000
,
10010000
01000000
00010000
10000000
,
00100000
00010000
00001000
00000100
,
00001001
00000100
00001000
00000001
,
00000010
00001000
00010000
00001000
,
00022000
00000000
00000000
00033000
,
00000000
00000000
00000000
00000000
;

//---------------dance-double - ----------------
#NOTES:
     dance-double:
     :
     Hard:
     8:
     0.569,0.569,0.265,0.035,0.012:
00000000
00000000
00000000
00000000
,
00000000
00000000
00000000
00000000
,
00000000
00000000
00000000
00000000
,
00000000
00000000
00000000
00000000
,
00000000
00000000
00000000
00000000
,
01000000
10000000
01000000
00000000
10000000
01000000
10000000
00000000
,
01000000
00010000
00001000
00000010
00000001
00000000
00000001
00000000
,
00000100
00000001
00000100
00000000
00000001
00000100
00000001
00000000
,
00000100
00001000
00010000
01000000
10000000
00000000
10000000
00000000
,
00100000
10000000
01000000
00000000
00010000
01000000
10000000
00000000
,
01000000
00010000
00001000
00000100
00000010
00000000
00000101
00000000
,
00000010
00000001
00000100
00000000
00001000
00000100
00000001
00000000
,
00000010
00001010
00010000
00011000
,
00100000
01000000
00100000
01000000
00000000
00000000
10000000
00000000
,
00010000
01000000
00001000
00010000
00000100
00000000
00001100
00000000
,
00000010
00000100
00000010
00000100
00000000
00000000
00000001
00000000
,
00001000
00000010
00010000
00001000
00100000
00000000
11000000
00000000
,
00010000
10000000
00010000
10000000
00000000
00000000
00100000
00000000
,
01000000
00010000
00100000
00010000
10000000
00010000
01000000
00100000
,
10000000
01000000
10000000
00000000
00100000
01000000
00100000
00000000
,
00010000
00001000
00010000
00000000
00000010
00000100
00000010
00000000
,
00001000
00000001
00001000
00000100
00000000
00000000
00001000
00000000
,
00000001
00000100
00001000
00010000
00100000
00000000
10000000
00000000
,
00010000
10000000
00010000
01000000
00000000
00000000
00010000
00000000
,
10000000
01000000
00010000
00001000
00000010
00000000
00000001
00000000
,
00001000
00000100
00000010
00000001
00000000
00000000
00001000
00000000
,
00000010
00001000
00000010
00000100
00001000
00000000
00010000
00000000
,
00100000
00010000
00100000
00000000
00001000
00010000
00001000
00000000
,
01000000
00010000
01000000
00000000
00100000
01000000
00100000
00000000
,
10000000
01000000
00010000
01000000
10000000
00100000
10000000
01000000
,
00010000
00001000
00000100
00000001
00000000
00000000
00001000
00000000
,
00000001
00000100
00000000
00000101
00000000
00000000
00000000
00000000
,
00000010
00001000
00000000
00001010
00000000
00000000
00000000
00000000
,
00000100
00000001
00000010
00000001
00000100
00001000
00000100
00000001
,
00000100
00001000
00010000
00100000
00000000
00000000
10000000
00000000
,
00100000
00000000
00000000
01000000
00000000
00000000
00001000
00000000
00010000
00000000
00000000
00000010
00000000
00000000
00000100
00000000
,
00000002
00000000
00001003
00000000
00000001
00000010
00000001
00001000
,
00000000
00000000
00001100
00000000
00010000
00001000
00000000
00001000
,
00000000
00000000
00011000
00000000
01000000
00010000
00000000
00010000
,
00000000
00000000
10010000
00000000
10000000
00100000
00000000
00000000
,
10000000
00100000
01000000
00100000
10000000
01000000
00010000
00001000
,
00000000
00000000
00011000
00000000
00000010
00001000
00000000
00000100
,
00000000
00000000
00000110
00000000
00000100
00001000
00000000
00000001
,
00000000
00000000
00001010
00000000
00000100
00001000
00010000
01000000
,
10000000
00010000
01000000
00100000
10000000
01000000
00100000
00010000
,
00000000
00000000
00011000
00000000
00000010
00000100
00000000
00000100
,
00000000
00000000
00001001
00000000
00001000
00000100
00000000
00000100
,
00000000
00000000
00001010
00000000
00000100
00010000
00001000
00010000
,
00100000
10000000
01000000
10000000
00100000
00010000
00100000
10000000
,
00000000
00000000
10010000
00000000
01000000
01000000
00000000
00010000
,
00000000
00000000
01010000
00000000
00001000
00001000
00000000
00010000
,
00000000
00000000
00001010
00000000
00000100
00000100
00000010
00000100
,
00001000
00000100
00000001
00001000
00000100
00001000
00000000
00000000
,
00000010
00000100
00001000
00010000
00100000
10000000
00100000
01000000
,
00010000
00100000
00010000
01000000
10000000
01000000
00010000
00000000
,
00100000
01000000
00010000
00001000
00000010
00000001
00000010
00000100
,
00001000
00000010
00001000
00000100
00000001
00000100
00001000
00000000
,
00000010
00001000
00000010
00000100
00000010
00001000
00000010
00000100
,
00001000
00010000
01000000
10000000
00100000
10000000
00010000
00000000
,
10000000
00100000
01000000
00010000
10000000
01000000
00100000
00010000
,
01000000
01010000
00011000
00001010
,
00000022
00000000
00000000
00000033
,
00000000
00000000
00000000
00000000
;
