#TITLE:Pink Rose;
#ARTIST:Kiyommy+Seiya;
#BANNER:Pink Rose.png;
#BACKGROUND:Pink Rose-bg.png;
#CDTITLE:./CDTITLES/KEYBOARDMANIA.PNG;
#MUSIC:Pink Rose.ogg;
#SAMPLESTART:58.356;
#SAMPLELENGTH:15;
#DISPLAYBPM:146;
#BPMS:0=146.341,4=145.997;

//---------------dance-single - ----------------
#NOTES:
     dance-single:
     :
     Beginner:
     3:
     :
0000
0000
0000
0000
,
0000
0000
0000
0000
,
0000
0000
0000
0000
,
0000
0000
0000
0000
,
0010
0000
0000
0000
,
0010
0000
0000
0000
,
0001
0000
0001
0000
,
1000
0000
1000
0000
,
0010
0000
0100
0000
,
0001
0001
0000
0000
,
0001
0000
0100
0000
,
0010
0000
0100
0000
,
1000
0000
0100
0000
,
0010
0000
0100
0000
,
1000
0000
0000
0000
,
0001
0000
0000
0000
,
1000
0000
0001
0000
,
1001
0000
0000
0000
,
0001
0000
0000
0000
,
0010
0000
0000
0000
,
1000
0000
0000
0000
,
0010
0000
0010
0000
,
1001
0000
0000
0000
,
0110
0000
0000
0000
,
1000
0000
0001
0000
,
0010
0000
0010
0000
,
0001
0000
1000
0000
,
1001
0000
0000
0000
,
0110
0000
0000
0000
,
1001
0000
0100
0000
,
1001
0000
0000
0000
,
1000
0000
1000
0000
,
0001
0000
0001
0000
,
0100
0000
0100
0000
,
0010
0000
0000
0000
,
0010
0010
0000
0000
,
1000
0000
1000
0000
,
0010
0000
0010
0000
,
1000
0000
0001
0000
,
0010
0000
0010
0000
,
0001
0000
1000
0000
,
0001
0000
0100
0000
,
0001
0000
0000
0000
,
0100
0100
0000
0000
,
0001
0000
0001
0000
,
0100
0000
0100
0000
,
0001
0000
1000
0000
,
0100
0000
0100
0000
,
1000
0000
0001
0000
,
1000
0000
0010
0000
,
1000
0000
0000
0000
,
0100
0100
0000
0000
,
0010
0000
0000
0000
,
1000
0000
0001
0000
,
0010
0000
0000
0000
,
0000
0000
0000
0000
;

//---------------dance-single - ----------------
#NOTES:
     dance-single:
     :
     Easy:
     4:
     :
0000
0000
0000
0000
,
0000
0000
0000
0000
,
0000
0000
0000
0000
,
0000
0000
0000
0000
,
0010
0000
0000
0000
,
0010
0000
0000
0000
,
0001
0000
0100
0000
,
1000
0000
0100
0000
,
0010
0000
0100
0000
,
0001
0001
1000
1000
,
0001
0000
0100
0000
,
0010
1000
0100
0000
,
1000
0000
0100
0000
,
0010
0001
0100
0000
,
1000
0000
1000
0000
,
0001
0000
0001
0000
,
1000
0000
0001
0000
,
0100
0100
0000
1001
,
0010
0001
1000
0000
,
0010
1000
0001
0000
,
0100
0100
0001
0100
,
0100
1000
0010
0000
,
1001
0000
0100
0000
,
0110
0000
0001
0000
,
1000
0000
0001
0000
,
0010
1000
0010
0001
,
1000
0100
0001
0000
,
1001
0000
0100
0000
,
1001
0000
0010
0000
,
0110
0000
1001
0000
,
0110
0000
0000
0000
,
2000
0000
3000
0000
,
0002
0000
0003
0000
,
0200
0000
0300
0000
,
0020
0000
0030
0000
,
0010
0010
0000
0100
,
0001
0000
1000
0000
,
0010
1000
0010
0000
,
1000
0000
0001
0000
,
0010
0001
0010
0000
,
0001
0010
1000
1000
,
0100
0001
0100
0100
,
1000
0000
0001
0000
,
0100
0100
0000
0000
,
1000
0000
0001
0000
,
0100
0001
0100
0000
,
0001
0000
1000
0000
,
0100
1000
0100
0000
,
1000
0010
0001
0001
,
0100
1000
0100
0100
,
0001
0000
1000
0000
,
0100
0100
0001
1000
,
0020
0000
0030
0000
,
1000
0010
0001
0100
,
0010
0000
0000
0000
,
0000
0000
0000
0000
;

//---------------dance-single - ----------------
#NOTES:
     dance-single:
     :
     Medium:
     7:
     :
0000
0000
0000
0000
,
0000
0000
0000
0000
,
0000
0000
0000
0000
,
0000
0000
0000
0000
,
1000
0010
1000
0001
,
1000
0100
1000
1001
,
0010
0100
0010
0001
,
0010
0100
0010
1000
,
0001
0010
0001
1000
,
0001
0110
0001
1001
,
0010
0010
1000
0100
,
0001
0000
0010
0000
1000
0001
1000
0000
,
0010
0010
0001
0001
,
1000
0000
0010
0000
0001
1000
0100
0000
,
0010
0001
1000
0110
,
0100
1000
0001
0110
,
0010
1000
0001
0000
1000
0001
0100
0000
,
0001
1000
0010
0110
,
0001
0000
0100
0000
0100
0000
1000
0010
,
1000
0000
0100
0000
0100
0000
0001
0010
,
1000
0000
0100
0000
0001
0000
0100
0001
,
0010
1000
0001
1001
,
0010
1001
0001
0110
,
0100
1100
1000
0101
,
0001
0010
1000
0010
,
0100
0001
1000
0010
,
1001
0100
1001
0010
,
0200
0000
0001
0301
,
0020
0000
1000
1030
,
0200
0000
0320
0000
,
1030
0001
0100
0010
,
0110
1000
0100
0001
,
0110
0001
0010
1000
,
0110
0000
0001
0000
1000
0000
0010
0200
,
0000
0000
0000
0300
,
1001
1001
0100
0110
,
1001
0000
0000
0100
0000
0000
0110
0000
,
1000
0000
0010
0100
0000
0000
0010
1000
,
0010
0000
1000
0001
0000
1000
0001
2000
,
0000
0000
0000
3001
,
0010
0001
0100
1000
,
0100
0001
0010
0001
,
1010
0000
0000
1010
0000
0000
0001
0000
,
0100
0010
1000
0100
,
1001
0000
0000
0010
0000
0000
0110
0000
,
0001
0000
0100
0010
0000
0000
0100
0001
,
0100
0000
0001
1000
0000
0001
1000
0002
,
0000
0000
0000
1003
,
0010
1000
0100
1001
,
0100
1000
0001
1000
,
0110
0000
0000
0110
0000
0000
1000
0000
,
0100
0001
0010
0100
,
2000
0000
0000
0000
,
3010
1000
0001
0100
,
1001
0000
0000
0000
,
0000
0000
0000
0000
;

//---------------dance-single - ----------------
#NOTES:
     dance-single:
     :
     Hard:
     10:
     :
0000
0000
0000
0000
,
0000
0000
0000
0000
,
0000
0000
0000
0000
,
0000
0000
0000
0000
,
1000
1000
0001
0001
,
0010
0100
1000
0001
,
0010
0100
0010
1000
0000
0000
0001
0100
,
0000
0000
0010
0001
0000
0100
1000
0010
,
0000
1000
0002
0000
0000
0000
0003
1000
,
0001
0010
0001
0100
0010
0100
0010
1000
,
0010
0000
0000
0100
0000
0000
0001
0000
0000
1000
0000
0000
0010
0000
0010
0000
,
1000
0000
0000
0001
0000
0000
0010
0000
0000
0100
0000
0000
1000
0000
1000
0000
,
0010
0000
0000
0100
0000
0000
0010
0000
0000
1001
0000
0000
0100
0000
0100
0000
,
0001
0000
0000
1000
0000
0000
0001
0000
0000
0110
0000
0000
0001
0000
0001
0000
,
1000
0000
0000
0100
0000
0000
1000
0000
0000
0101
0000
0000
0010
0000
0010
0000
,
0100
0000
0000
1000
0000
0000
0100
0000
0000
0011
0000
0000
1000
0000
1000
0000
,
0010
0000
0000
0100
0000
0000
0010
0000
0000
1001
0000
0000
0100
0000
0100
0000
,
0010
0000
0000
1000
0000
0000
0100
0000
0001
0000
0100
0000
1000
0000
0100
0000
,
0000
0000
1000
0000
0010
0000
1000
0000
0010
0000
0000
0110
0000
0000
0101
0000
,
0000
0000
0001
0000
0010
0000
0001
0000
0010
0000
0000
0110
0000
0000
1100
0000
,
0000
0000
0010
0000
1000
0000
0001
0000
0100
0000
0000
0101
0000
0000
0110
0000
,
0000
0000
0010
0000
1000
0000
0001
0000
0010
0000
0000
1010
0000
0000
0110
0000
,
0000
1000
0100
0001
0000
0100
0001
0010
,
0000
0000
1000
0000
0010
0000
0001
0000
0100
0000
0000
0110
0000
0000
1010
0000
,
0000
0000
1000
0000
0001
0000
1000
0000
1010
0000
0000
0110
0000
0000
1100
0000
,
0000
0000
0001
0000
1000
0000
0001
0000
0011
0000
0000
0110
0000
0000
0101
0000
,
1000
0000
0000
0010
0000
0000
1000
0000
0100
0000
0001
0000
0100
0000
0010
0000
,
0002
0000
2000
0003
,
0200
3000
0020
0300
,
0002
0030
0200
0303
,
1000
0010
1000
0001
,
2000
3020
0230
0302
,
2003
3200
0320
0032
,
0203
0000
0302
0000
2003
0000
3020
0200
,
0000
0000
0000
0330
,
1100
0000
0101
0000
1000
0010
0100
0001
,
1000
0000
0000
0011
0000
0000
0101
1000
,
0100
0000
1000
0010
0000
0000
1000
0100
,
0010
0000
0001
0100
0000
0010
1000
0002
,
0000
0100
0100
0103
,
0010
1010
0010
1001
,
0100
0000
0010
0100
0000
1000
0010
0000
,
0200
0000
0300
0100
0000
0001
0010
1000
,
0010
0000
1001
0000
0010
0100
0001
0100
,
0001
0000
0000
0110
0000
0000
1010
0001
,
0100
0000
0001
1000
0000
0000
0010
1000
,
0100
0000
0001
0100
0000
1000
0010
0200
,
0000
0001
0001
0301
,
0110
1010
1001
1100
,
0001
0000
1000
0100
0000
0010
0001
0000
,
2000
0000
3000
1000
0000
0010
1000
0010
,
0110
1001
0110
0101
,
2020
0000
0000
0030
,
0001
0010
3100
0010
,
1001
0000
0000
0000
,
0000
0000
0000
0000
;

//---------------dance-double - ----------------
#NOTES:
     dance-double:
     :
     Easy:
     4:
     :
00000000
00000000
00000000
00000000
,
00000000
00000000
00000000
00000000
,
00000000
00000000
00000000
00000000
,
00000000
00000000
00000000
00000000
,
00100000
00000000
00000000
00000000
,
00100000
00000000
00000000
00000000
,
10000000
00000000
01000000
00000000
,
00010000
00000000
01000000
00000000
,
00001000
00000000
00010000
00000000
,
00000100
00000100
00001000
00001000
,
00000001
00000000
00000100
00000000
,
00000010
00001000
00000100
00000000
,
00010000
00000000
00001000
00000000
,
00100000
00010000
01000000
00000000
,
10000000
00000000
10000000
00000000
,
00010000
00000000
00010000
00000000
,
00100000
00000000
00001000
00000000
,
00010000
00000000
00000000
00011000
,
00000010
00000000
00001000
00000000
,
00000100
00000001
00000001
00000000
,
00001000
00000000
00000100
00000000
,
00000100
00010000
00001000
00000000
,
00011000
00000000
01000000
00000000
,
01100000
00000000
10000000
00000000
,
10010000
00000000
00100000
00000000
,
01000000
00000000
00010000
00000000
,
01000000
00001000
00010000
00011000
,
00010000
00000000
00000100
00000000
,
00000110
00000000
00000010
00000000
,
00000001
00000000
00001000
00000000
,
00000100
00000000
00010000
00000000
,
00001000
00000000
00100000
00000000
,
00010000
00000000
10000000
00000000
,
00100000
00000000
01000000
00000000
,
00002000
00000000
00003000
00000000
,
00010000
00010000
00000000
00011000
,
00000010
00000000
00000010
00000000
,
00001000
00000001
00000100
00000000
,
00001000
00000000
00000100
00000000
,
00010000
00001000
00011000
00000000
,
00100000
00010000
01000000
00010000
,
10000000
10000000
00100000
01000000
,
00010000
00000000
01000000
00000000
,
00001000
00011000
00000000
00000010
,
00000100
00000000
00000100
00000000
,
00000001
00001000
00000100
00000000
,
00010000
00000000
00001000
00000000
,
00100000
00010000
01000000
00000000
,
10000000
00010000
00100000
00001000
,
00010000
00001000
00010000
00000100
,
00001000
00000000
00000001
00000000
,
00000010
00000010
00001000
00000010
,
00020000
00000000
00030000
00000000
,
00001000
00100000
00001000
00010000
,
00011000
00000000
00000000
00000000
,
00000000
00000000
00000000
00000000
;

//---------------dance-double - ----------------
#NOTES:
     dance-double:
     :
     Medium:
     7:
     :
00000000
00000000
00000000
00000000
,
00000000
00000000
00000000
00000000
,
00000000
00000000
00000000
00000000
,
00000000
00000000
00000000
00000000
,
10000000
00100000
10000000
01000000
,
00010000
00001000
00000010
00000110
,
00000001
00001000
00000010
00000100
,
00001000
00010000
01000000
10000000
,
00020000
00000000
20000000
30030000
,
01000000
01000000
00010000
00011000
,
00000010
00000001
00000010
00001000
,
00000100
00000000
00000100
00000000
00000001
00000100
00001000
00000000
,
00000100
00001000
00010000
00001000
,
00100000
00000000
00100000
00000000
00010000
10000000
01000000
00000000
,
00100000
00010000
10000000
01100000
,
10000000
01000000
00010000
00011000
,
00000010
00000100
00000010
00001001
,
00000010
00000100
00001000
00011000
,
00100000
00000000
00010000
00000000
00010000
00000000
10000000
01000000
,
10000000
00000000
00100000
00000000
00100000
00000000
10000000
00010000
,
01000000
00000000
00010000
00000000
00010000
00000000
01000000
00010000
,
00100000
01000000
00010000
00001000
,
00000100
00000101
00001000
00001100
,
00000010
00001010
00000001
00000011
,
00000001
00000100
00001000
00010000
,
00100000
01000000
00010000
01000000
,
10010000
01000000
10010000
00100000
,
02000000
00000000
00010000
03010000
,
00200000
00000000
00001000
00301000
,
00020000
00000000
00030020
00000000
,
00001030
00000001
00000100
00001000
,
00020000
00000100
00001000
00030010
,
00002000
01000000
00010000
00103000
,
00010000
00000000
10000000
00000000
00010000
00000000
00200000
02000000
,
00000000
00000000
00000000
03300000
,
10010000
10010000
00000000
00011000
,
00000110
00000000
00000000
00000001
00000000
00000000
00001001
00000000
,
00000010
00000100
00000001
00000100
,
00001000
00000000
00010000
00000000
00000010
00000000
00010000
00002000
,
00000000
00000000
00000000
00013000
,
00100000
00010000
01000000
10000000
,
01000000
00010000
00001000
00000100
,
00000101
00000000
00000000
00000101
00000000
00000000
00000010
00000000
,
00001000
00000001
00000100
00001000
,
00011000
00000000
00000000
00100000
00000000
00000000
01100000
00000000
,
00010000
10000000
00010000
00100000
,
00010000
00000000
10000000
00000000
01000000
00000000
00010000
00002000
,
00000000
00000000
00000000
00013000
,
00000100
00000010
00000100
00000001
,
00000100
00000010
00000100
00001000
,
00011000
00000000
00000000
00011000
00000000
00000000
00100000
00000000
,
01000000
00010000
00001000
00000100
,
00000002
00000000
00000000
00000000
,
00001003
00000001
00000100
00001000
,
00011000
00000000
00000000
00000000
,
00000000
00000000
00000000
00000000
;

//---------------dance-double - ----------------
#NOTES:
     dance-double:
     :
     Hard:
     10:
     :
00000000
00000000
00000000
00000000
,
00000000
00000000
00000000
00000000
,
00000000
00000000
00000000
00000000
,
00000000
00000000
00000000
00000000
,
00010000
00010000
00001000
00001000
,
00100000
00010000
01000000
10000000
,
01000000
00100000
01000000
00010000
00000000
00000000
10000000
01000000
,
00000000
00000000
00001000
00010000
00000000
00000100
00001000
00000010
,
00000000
00000100
00000002
00000000
00000000
00000000
00000003
00000000
,
00000110
00001010
00011000
00110000
,
10000000
00000000
00000000
01000000
00000000
00000000
00010000
00000000
00000000
10000000
00000000
00000000
00010000
00000000
01000000
00000000
,
00100000
00000000
00000000
10000000
00000000
00000000
01000000
00000000
00000000
00010000
00000000
00000000
00001000
00000000
00010000
00000000
,
00000010
00000000
00000000
00001000
00000000
00000000
00000100
00000000
00000000
00000001
00000000
00000000
00001000
00000000
00000100
00000000
,
00001000
00000000
00000000
00000001
00000000
00000000
00000100
00000000
00000000
00001000
00000000
00000000
00010000
00000000
00001000
00000000
,
00100000
00000000
00000000
00010000
00000000
00000000
00100000
00000000
00000000
01000000
00000000
00000000
10000000
00000000
01000000
00000000
,
00010000
00000000
00000000
00001000
00000000
00000000
00000010
00000000
00000000
00000100
00000000
00000000
00000001
00000000
00000100
00000000
,
00001000
00000000
00000000
00010000
00000000
00000000
00100000
00000000
00000000
01000000
00000000
00000000
00010000
00000000
00100000
00000000
,
00010000
00000000
00000000
10000000
00000000
00000000
01000000
00000000
00010000
00000000
01000000
00000000
10000000
00000000
01000000
00000000
,
00000000
00000000
10000000
00000000
00100000
00000000
10000000
00000000
01000000
00000000
00000000
00010000
00000000
00000000
00001000
00000000
,
00000000
00000000
00000100
00000000
00000001
00000000
00000100
00000000
00000010
00000000
00000000
00000100
00000000
00000000
00000001
00000000
,
00000000
00000000
00000001
00000000
00000010
00000000
00000001
00000000
00000100
00000000
00000000
00001000
00000000
00000000
00010000
00000000
,
00000000
00000000
01000000
00000000
10000000
00000000
01000000
00000000
00100000
00000000
00000000
01000000
00000000
00000000
10000000
00000000
,
00000000
10000000
01000000
00010000
00000000
01000000
00010000
00001000
,
00000000
00000000
00010000
00000000
00001000
00000000
00000010
00000000
00000001
00000000
00000000
00000100
00000000
00000000
00000101
00000000
,
00000000
00000000
00000010
00000000
00001000
00000000
00000010
00000000
00000100
00000000
00000000
00001000
00000000
00000000
00011000
00000000
,
00000000
00000000
00100000
00000000
10000000
00000000
00010000
00000000
00100000
00000000
00000000
01000000
00000000
00000000
11000000
00000000
,
00010000
00000000
00000000
00100000
00000000
00000000
10000000
00000000
00100000
00000000
00010000
00000000
01000000
00000000
00001000
00000000
,
00020000
00000000
00000200
00030000
,
00000020
00000300
00000002
00000030
,
00000203
00000000
00002000
00000300
,
00020000
00000000
00000000
00033000
,
01100000
10000000
01000000
00010000
,
00011000
00000010
00001000
00000100
,
00001001
00000000
00000010
00000000
00001000
00000000
00000200
00002000
,
00000000
00000000
00000000
00003300
,
00011000
00000000
01010000
00000000
10000000
00100000
01000000
00010000
,
10000000
00000000
00000000
00011000
00000000
00000000
00001001
00000000
,
00000100
00000000
00000010
00001000
00000000
00000000
00000001
00000100
,
00001000
00000000
00010000
01000000
00000000
00100000
00010000
20000000
,
00000000
01000000
01000000
31000000
,
10000000
01000000
00010000
00100000
,
10000000
00000000
00100000
01000000
00000000
00010000
01000000
00000000
,
00002000
00000000
00003000
00010000
00000000
00000010
00001000
00000010
,
00000100
00000000
00001001
00000000
00000100
00000100
00000010
00001000
,
00000001
00000000
00000000
00011000
00000000
00000000
10010000
00000000
,
01000000
00000000
00100000
10000000
00000000
00000000
00100000
10000000
,
01000000
00000000
10000000
01000000
00000000
00010000
00001000
00020000
,
00000000
00001000
00001000
00031000
,
00000010
00000001
00000100
00001000
,
00000100
00000000
00000001
00000100
00000000
00000010
00001000
00000000
,
00000200
00000000
00000300
00010000
00000000
00001000
00010000
00001000
,
00011000
00110000
10010000
11000000
,
20200000
00000000
00000000
30000000
,
00010000
01000000
10300000
01000000
,
10010000
00000000
00000000
00000000
,
00000000
00000000
00000000
00000000
;
