
//----- song ID: loo2 -----//
#TITLE:Look To The Sky(True Color Mix);
#ARTIST:SySF. feat.Anna;
#BANNER:Look To The Sky(True Color Mix).png;
#BACKGROUND:Look To The Sky(True Color Mix)-bg.png;
#CDTITLE:./CDTITLES/DANCE DANCE REVOLUTION HOME VERSION.PNG;
#MUSIC:Look To The Sky(True Color Mix).ogg;
#SAMPLESTART:22.287;
#SAMPLELENGTH:15;
#DISPLAYBPM:140;
#BPMS:0=140,180=138,181=140;
#NOTES:
     dance-single:
     :
     Beginner:
     2:
     :
0000
0000
0000
0000
,
0000
0000
0000
0000
,
0000
0000
0000
0000
,
0000
0000
0000
0000
,
0000
0000
0000
0000
,
1000
0000
0000
0000
,
0100
0000
0010
0000
,
1000
0000
0000
0000
,
0100
0000
0010
0000
,
0100
0000
0100
0000
,
0100
0000
0100
0000
,
0100
0000
0100
0000
,
0010
0010
0010
0000
,
0001
0001
0001
0000
,
0001
0001
0001
0000
,
0010
0000
0100
0000
,
1000
1000
1000
0000
,
1000
1000
1000
0000
,
1000
1000
1000
0000
,
0010
0000
0100
0000
,
0001
0001
0001
0000
,
0001
0001
0001
0000
,
0001
0001
0001
0000
,
0010
0000
0100
0000
,
1000
1000
1000
0000
,
1000
1000
1000
0000
,
1000
1000
1000
0000
,
0010
0000
0100
0000
,
0001
0001
0001
0000
,
0001
0000
0000
0000
,
0001
0000
0000
0000
,
1000
0000
0000
0000
,
1000
0000
0000
0000
,
0010
0000
0000
0000
,
0100
0000
0000
0000
,
0010
0000
0000
0000
,
0100
0000
0000
0000
,
0001
0000
0001
0000
,
0001
0000
0001
0000
,
0010
0000
0001
0000
,
0010
0000
0010
0000
,
1000
0000
1000
0000
,
1000
0000
1000
0000
,
0010
0000
1000
0000
,
0010
0000
0010
0000
,
1001
0000
0000
0000
,
1001
0000
0000
0000
,
0010
0000
0000
0000
,
0100
0000
0000
0000
,
0001
0000
0001
0000
,
1000
0000
1000
0000
,
0010
0000
0100
0000
,
0010
0000
0100
0000
,
0100
0000
0000
0000
,
0000
0000
0000
0000
;
#NOTES:
     dance-single:
     :
     Easy:
     6:
     :
0000
0000
0000
0000
,
0000
0000
0000
0000
,
0000
0000
0000
0000
,
0000
0000
0000
0000
,
0000
0000
0000
0000
,
2000
3000
0000
0001
,
0100
0000
1000
0000
,
0002
0003
0000
1000
,
0100
0000
0010
0000
,
0001
0001
1000
0000
,
0100
0100
0010
0001
,
1000
0100
0001
0000
,
0100
0000
0010
0000
,
0010
1000
0001
0100
,
1000
1001
0100
0001
,
2000
3000
0002
0003
,
0100
1000
0100
0001
,
1000
0001
0100
0001
,
0010
0100
1000
0001
,
0100
0010
1000
0100
,
1001
0000
0110
0000
,
0010
1000
0100
0010
,
0001
0100
0010
1000
,
0020
0030
0200
0300
,
0001
0001
1000
0100
,
0010
0001
0100
1000
,
0001
0100
1000
0101
,
0020
0030
0200
0300
,
0101
0110
1001
0000
,
0020
0130
0001
1000
,
0200
0301
0010
0100
,
2000
3002
1003
0010
,
0001
0110
0001
0100
,
2000
3001
0020
1030
,
0010
1000
0100
0000
,
2001
3000
0100
0000
,
1020
0030
0100
0000
,
0001
0001
0010
1000
,
0001
0200
0020
0330
,
1000
1000
0100
0001
,
0010
0001
0100
0000
,
0010
0010
0100
0100
,
2000
0000
3001
0100
,
1000
0010
0001
0100
,
1000
0000
0001
0100
,
0020
0030
0200
0300
,
0001
0000
0100
0000
,
1000
0001
0100
0000
,
0002
0003
0020
0030
,
1000
0100
0001
1000
,
0001
0100
1000
0001
,
0110
0000
1001
0000
,
0001
0100
1000
0010
,
0110
0000
0000
0000
,
0000
0000
0000
0000
;
#NOTES:
     dance-single:
     :
     Medium:
     7:
     :
0000
0000
0000
0000
,
0000
0000
0000
0000
,
0000
0000
0000
0000
,
0000
0000
0000
0000
,
0000
0000
0000
0000
,
0001
0010
1000
0100
,
0002
0003
2000
3000
,
1001
0000
0000
0000
0010
1000
0001
0000
,
1000
0100
2002
3003
,
0100
0010
2000
3100
,
0001
0100
1000
0010
,
0001
1000
0002
0103
,
0110
0001
1100
0001
,
1001
0000
0100
0000
1000
0001
0100
0000
,
1000
0000
0110
0000
0010
1000
0100
0010
,
0001
0100
1000
0100
,
0001
1000
0001
0000
0100
0000
0010
0000
,
0002
1003
0010
0100
,
1000
0101
0010
1000
,
0002
0103
1000
0010
,
1000
0010
1000
0001
0100
0000
1001
0000
,
0020
1000
0130
1001
,
0200
0010
0301
1100
,
0002
0013
2000
3100
,
0010
0001
1000
0000
0001
0000
0100
0000
,
0010
0101
1000
0100
,
0010
1100
0001
0100
,
0010
1000
0100
0010
,
0001
0100
0010
0000
0100
0000
1001
0000
,
0010
1000
0100
0000
0010
0000
0100
0000
,
1001
0000
0100
0000
0010
0100
0001
0000
,
1010
0000
0001
0000
1000
0100
0001
0000
,
0001
1100
0002
0103
,
0010
0110
0001
1000
,
0010
1000
0100
0010
0001
0000
0101
0000
,
0010
0001
1000
0000
0110
0000
1001
0000
,
0010
1000
0100
0001
,
0010
0000
1000
0000
0001
1000
0100
0000
,
0010
0001
1000
0000
0100
1000
0010
0000
,
1100
0020
1000
0130
,
1000
0001
0100
1000
,
0001
0000
0001
0000
0100
0001
1000
0000
,
0010
0100
0010
0000
1000
0000
0100
0000
,
0001
0110
1000
1100
,
0001
0010
1000
0100
,
0002
1000
0103
0011
,
2000
0001
3100
1010
,
0100
1000
0001
0100
,
0010
1000
0100
0000
0010
0000
0001
0000
,
1000
0000
0010
0000
1000
0100
0010
0000
,
0001
1000
0100
0000
0010
0001
0100
0000
,
1000
0110
0001
1100
,
0010
0001
1000
0100
,
2002
0000
0000
3003
,
0000
0000
0000
0000
;
#NOTES:
     dance-single:
     :
     Hard:
     8:
     :
0000
0000
0000
0000
,
0000
0000
0000
0000
,
0000
0000
0000
0000
,
0000
0000
0000
0000
,
0000
0000
0000
0000
,
0001
0000
0100
0000
0010
1000
0100
0000
,
0010
1000
0100
0000
0002
0000
0013
0000
,
2000
0000
3100
0000
0010
0001
0100
0000
,
1000
0100
0010
0000
0002
0000
0103
0000
,
0010
0100
0001
0000
2000
0000
3100
0000
,
1000
0010
0100
0000
0002
0000
0103
0000
,
2000
0000
0020
3030
,
0010
0010
1001
0110
,
1001
0000
0100
0000
0001
0010
0100
0000
,
1001
0010
0110
0001
,
0200
0301
0020
1030
,
1000
0010
0100
0000
0002
0000
1003
0000
,
0100
0010
1100
0110
,
0001
1000
0100
0010
0002
0000
1003
0000
,
0020
0000
0130
0000
0001
1000
0100
0000
,
0020
0230
0301
1000
,
0001
0000
1001
0000
0100
0010
0100
0000
,
1000
0001
0100
0010
1000
0000
0101
0000
,
0002
0100
2000
3003
,
0020
0030
0011
1100
,
1000
0001
0100
0000
0001
0000
1100
0000
,
0010
0001
0100
0010
1000
0000
0101
0000
,
0010
0120
1030
0110
,
1000
0100
1000
0010
0100
0000
0101
0000
,
2000
0000
0200
3300
,
0020
0000
0002
0033
,
1000
1000
0110
0101
,
0010
0010
1100
0110
,
2000
3001
0200
0310
,
0002
0103
0020
0031
,
1001
0010
0100
1000
,
0110
1001
1010
0100
,
0001
0100
0010
0000
0100
0000
0110
0000
,
0010
1000
0010
0000
0001
0000
1010
0000
,
0100
0001
1000
0100
0010
0000
0101
0000
,
0010
0001
0010
0000
1000
0000
1001
0000
,
0010
0000
1100
0000
0010
0001
0100
0010
,
0100
0001
1000
0100
0010
0000
1001
0000
,
0010
0101
0010
1001
,
0010
1100
0110
1001
,
0020
0000
1000
0031
,
2010
3000
0102
0003
,
0010
1000
0100
0010
0001
0100
0010
0000
,
0100
0011
0100
1001
,
0100
0020
1030
0101
,
0010
0100
0010
1000
0001
0100
0010
0000
,
0100
0011
0100
1001
,
0010
1000
0001
0100
0010
0000
0100
0000
,
2002
0000
0000
3003
,
0000
0000
0000
0000
;
#NOTES:
     dance-double:
     :
     Easy:
     5:
     :
00000000
00000000
00000000
00000000
,
00000000
00000000
00000000
00000000
,
00000000
00000000
00000000
00000000
,
00000000
00000000
00000000
00000000
,
00000000
00000000
00000000
00000000
,
00010000
00000000
00100000
00000000
,
10000000
00000000
01000000
00000000
,
00010000
00000000
00001000
00000000
,
00000100
00000000
00000001
00000010
,
00002002
00003003
00000000
00000000
,
00000200
00000300
00000000
00000000
,
00002000
00003000
00000000
00000000
,
00000001
00000100
00000010
00001001
,
00000100
00000010
00000001
00000100
,
00000010
00001000
00000001
00000010
,
00001000
00000000
00010000
00000000
,
00100000
00000000
10000000
01000000
,
00100000
00010000
10000000
00100000
,
01000000
00010000
10000000
00000000
,
01000000
00000000
00010000
00000000
,
00001000
00000100
00000001
00000010
,
00000100
00001000
00000001
00000100
,
00001000
00000000
00010000
00000000
,
01000000
00000000
10000000
00000000
,
00100000
01000000
00010000
00000010
,
00000001
00000100
00000010
00001000
,
00000100
00000001
00000100
00000000
,
00000010
00000000
00001000
00000000
,
00000001
00001000
00000100
00010000
,
00100000
00000000
01000000
00000000
,
00010000
00000000
10000000
00000000
,
01000000
00000000
00100000
00010000
,
10000000
00100000
01000000
00000000
,
00001000
00000010
00000001
00001000
,
00000010
00000000
00000100
00000000
,
00000001
00000000
00001000
00000100
,
00000001
00000000
00001001
00000000
,
00000010
00000001
00000100
00001000
,
00010000
01000000
10000000
00100000
,
01000000
00000000
00010000
00100000
,
01000000
00000000
10010000
00000000
,
00100000
10000000
01000000
00010000
,
00001000
00000100
00000001
00000010
,
00001000
00000000
00010000
00100000
,
10000000
00010000
01000000
00100000
,
10010000
00000000
01000000
00000000
,
00100000
00000000
00010000
00000000
,
00001000
00000010
00000001
00001000
,
00000010
00000100
00002002
00003003
,
00000020
00000030
00000200
00000300
,
00002000
00003000
00020000
00030000
,
01000000
10000000
00100000
00010000
,
00001000
00000010
00000001
00000100
,
00001001
00000000
00000000
00000000
,
00000000
00000000
00000000
00000000
;
#NOTES:
     dance-double:
     :
     Medium:
     7:
     :
00000000
00000000
00000000
00000000
,
00000000
00000000
00000000
00000000
,
00000000
00000000
00000000
00000000
,
00000000
00000000
00000000
00000000
,
00000000
00000000
00000000
00000000
,
00200000
00300000
20000000
30000000
,
02000000
03000000
00020000
00030000
,
00002000
00003000
00000200
00000300
,
00000002
00000000
00000000
00001003
,
00000100
00000010
00000001
00000100
,
00001000
00100000
01000000
10000000
,
00020000
01030000
20000000
31000000
,
00200000
10000000
00310000
10010000
,
00100000
00010000
00000010
00000001
,
00000100
00000010
00001000
00000100
,
00010000
00100000
10000000
01000000
,
00100000
00010000
10000000
00100000
,
20000000
31000000
00020000
01030000
,
10000000
01000000
00010000
00001000
,
00000200
00000301
00002000
00003010
,
00000100
00001000
00001100
00000000
,
00000010
00000001
00000100
00001000
,
00010000
01000000
10000000
00010000
,
00100000
10000000
01000000
00010000
,
00001000
00000100
00000001
00001000
,
00000110
00001000
00000010
00000100
,
00000001
00001000
00000100
00000010
,
00000001
00001000
00000010
00000100
,
00001000
00010000
01000000
10000000
,
00020000
00000000
00130000
01000000
,
20000000
00000000
30010000
01000000
,
00200000
00000000
00310000
00001000
,
00000020
00000000
00000031
00001000
,
00000200
00000310
00002000
00003010
,
00000002
00000103
00002000
00003100
,
00000010
00000001
00000100
00001000
,
00000001
00000010
00001000
00010000
,
01010000
00000000
00001000
00000000
00010000
00100000
10000000
00000000
,
01100000
00000000
00010000
00000000
10000000
01000000
00100000
00000000
,
00011000
00000010
00000101
00001000
,
00000001
00000000
00001000
00000000
00000100
00000010
00000001
00000000
,
00000100
00000000
00000010
00000000
00001000
00000001
00000100
00000000
,
00001010
00000000
00000001
00000000
00000100
00001000
00010000
00000000
,
01000000
10000000
00010000
00100000
,
01000000
10000000
01100000
11000000
,
00100000
00010000
10010000
01000000
,
00010000
00001000
00000110
00000001
,
00000100
00000010
00001000
00000001
,
00000100
00001000
00010000
01000000
,
10000000
00000000
00010000
00000000
00100000
00010000
01000000
00000000
,
00100000
00000000
10000000
00000000
01000000
00100000
00001000
00000000
,
00000100
00000001
00001000
00000100
,
00001001
00000000
00000010
00000100
00000010
00000000
00000000
00000000
,
00001100
00000000
00000000
00000000
,
00000000
00000000
00000000
00000000
;
#NOTES:
     dance-double:
     :
     Hard:
     8:
     :
00000000
00000000
00000000
00000000
,
00000000
00000000
00000000
00000000
,
00000000
00000000
00000000
00000000
,
00000000
00000000
00000000
00000000
,
00000000
00000000
00000000
00000000
,
00000010
00000001
00000100
00000000
00001100
00000000
00000101
00000000
,
00000010
00010000
00100000
00000000
11000000
00000000
01100000
00000000
,
00010000
10000000
01000000
00000000
00100000
00010000
00000100
00000000
,
00000001
00000100
00000010
00000000
00001000
00000001
00000100
00000000
,
00001001
00000010
00010000
00100000
,
10000000
00010000
01000000
00000000
00100000
00000000
01010000
00000000
,
00001000
00000100
00000001
00000000
00000110
00000000
00001001
00000000
,
00000010
00000100
00010000
00000000
00100000
00000000
01010000
00000000
,
00100000
10000000
01000000
00000000
00100000
00010000
01000000
00000000
,
00010000
00000100
00000010
00001000
,
00000001
00001000
00000100
00000000
00000010
00000000
00001001
00000000
,
00010000
00100000
10000000
00000000
00010000
00000000
01100000
00000000
,
10000000
00010000
01000000
00100000
,
00010000
01000000
00001000
00000000
00000110
00000000
00001001
00000000
,
00000100
00000001
00000010
00000000
00000100
00000000
00001000
00000000
,
00000001
00001000
00000010
00000000
00000100
00000000
00000101
00000000
,
00000010
00001000
00010000
00000000
01100000
00000000
10010000
00000000
,
00100000
10000000
01000000
00000000
00100000
00010000
01000000
00000000
,
00100000
10000000
01000000
00010000
,
00000010
00000100
00001010
00001001
,
00000010
00001000
00000001
00000100
,
00000010
00001000
00100000
10010000
,
01000000
00010000
10000000
01000000
,
00100000
00010000
00000100
00000010
,
00000002
00000003
00000200
00000300
,
00000020
00000030
00020000
00030000
,
00200000
10300000
01000000
00010000
,
00001000
00000100
00000001
00001000
,
00020000
00030000
00200000
00300000
,
02000000
03000000
20000000
30000000
,
00100000
10000000
01000000
00010000
,
00000010
00000100
00000010
00000000
00001100
00000000
00000110
00000000
,
00000001
00000000
00001000
00000010
00000100
00000000
00000001
00000100
,
00001000
00000000
00010000
01000000
00100000
00010000
10000000
01000000
,
00100000
10010000
01000000
00011000
,
00000010
00000100
00000001
00001000
00000100
00000010
00000001
00000000
,
00001000
00100000
01000000
00000000
00010000
10000000
11000000
00000000
,
00100000
00010000
01000000
00100000
10000000
00010000
01000000
00000000
,
00010000
00000100
00000010
00001000
00000001
00000000
00000110
00000000
,
00000011
00001000
00000110
00001001
,
00000010
00010000
01000000
00000000
00100000
00010000
10000000
00000000
,
01000000
00100000
01000000
00010000
00000100
00000010
00001001
00000000
,
00000010
00000001
00000100
00000000
00000010
00010000
01000000
00000000
,
10000000
00100000
01000000
00010000
10000000
01000000
01100000
00000000
,
00010000
00000100
00000010
00000000
00001000
00000001
00000010
00000000
,
00000100
00000010
00000001
00001000
00000010
00000000
00000110
00000000
,
00010000
00000000
00100000
00000000
01000000
10000000
10010000
00000000
,
00100000
10000000
01000000
00100000
00010000
01000000
00100000
00000000
,
20020000
00000000
00000000
30030000
,
00000000
00000000
00000000
00000000
;
