#TITLE:GRADUATION ~それぞれの明日~;
#ARTIST:BeForU;
#BANNER:GRADUATION.png;
#BACKGROUND:GRADUATION-bg.png;
#CDTITLE:./CDTITLES/DANCE DANCE REVOLUTION EXTREME.PNG;
#MUSIC:GRADUATION.ogg;
#SAMPLESTART:31.928;
#SAMPLELENGTH:15;
#DISPLAYBPM:125;
#BPMS:0=125;

//---------------dance-single - ----------------
#NOTES:
     dance-single:
     :
     Beginner:
     2:
     :
0000
0000
0000
0000
,
0000
0000
0000
0000
,
0000
0000
0000
0000
,
0000
0000
0000
0000
,
0000
0000
0000
0000
,
0100
0000
0100
0000
,
0010
0000
0010
0000
,
1000
0000
0001
0000
,
1000
0000
0001
0000
,
0010
0000
0010
0000
,
0100
0000
0100
0000
,
0001
0000
0001
0000
,
1000
0000
1000
0000
,
0010
0000
0001
0000
,
0010
0000
1000
0000
,
0001
0000
1000
0000
,
1000
0000
1001
0000
,
0100
0100
0000
0000
,
0010
0010
0000
0000
,
1000
0000
0001
0000
,
1000
0000
0001
0000
,
0010
0000
0010
0000
,
0100
0000
0100
0000
,
1000
0000
0001
0000
,
0001
0000
1000
0000
,
0001
0000
1000
0000
,
1001
0000
0000
0000
,
1000
0000
0001
0000
,
1001
0000
0000
0000
,
0010
0000
0010
0000
,
0100
0000
0100
0000
,
0010
0000
0001
0000
,
0000
1000
0000
0010
,
0010
0000
0010
0000
,
0100
0000
0100
0000
,
0010
0000
1001
0000
,
0100
0000
0100
0100
,
0000
0001
0000
0100
,
0000
1000
0000
1000
,
0000
0001
0000
0001
,
0000
0100
0100
0000
,
1000
0000
1000
0000
,
0001
0000
0001
0000
,
1000
0000
1000
0000
,
0001
0000
0001
0000
,
0010
0000
0100
0000
,
0010
0000
0100
0000
,
1000
0000
0001
0000
,
0001
0000
1000
0000
,
0010
0000
0000
0000
,
0100
0000
0000
0000
,
1001
0000
0000
0000
,
0000
0000
0000
0000
;

//---------------dance-single - ----------------
#NOTES:
     dance-single:
     :
     Easy:
     3:
     :
0000
0000
0000
0000
,
0000
0000
0000
0000
,
0000
0000
0000
0000
,
0000
0000
0000
0000
,
0000
0000
0000
0000
,
0100
0000
1000
0000
,
0010
0000
0001
0000
,
0010
0100
0010
0000
,
1000
0001
1000
0000
,
0010
0000
0010
0000
,
0100
0000
0100
0000
,
0001
0000
0001
0000
,
1000
0000
1000
0100
,
0010
0000
0001
0000
,
0010
0000
1000
0000
,
0001
0000
1000
0000
,
1000
0000
1001
0000
,
0100
0100
0000
0010
,
0100
0100
0000
0010
,
1000
0000
0001
0000
,
1000
0000
0001
0000
,
0010
0100
0010
0000
,
1000
0001
1000
0000
,
0100
0000
0010
0000
,
0001
0000
1000
0000
,
1001
0000
1001
0000
,
1001
1000
0000
0000
,
1001
0000
1001
0000
,
1001
0001
0000
0000
,
0010
0100
0010
0000
,
0100
0010
0100
0000
,
0110
0000
0110
0010
,
0000
1000
0000
0001
,
0010
0000
0010
0110
,
0100
0000
0100
0110
,
0010
0000
1001
0000
,
0100
0000
0100
0100
,
0010
0001
0010
0000
,
0100
1000
0100
0000
,
0010
0000
0100
0000
,
0010
0000
0110
0000
,
1000
0010
1000
0000
,
0001
0100
0001
0000
,
1000
0000
1000
0000
,
0001
0000
0001
1001
,
0010
0000
0100
0000
,
0010
0000
0100
0000
,
1000
0000
0001
0000
,
0001
0000
1000
0000
,
0010
0000
0000
0000
,
0100
0000
0010
0000
,
1001
0000
0000
0000
;

//---------------dance-single - ----------------
#NOTES:
     dance-single:
     :
     Medium:
     7:
     :
0000
0000
0000
0000
,
0000
0000
0000
0000
,
0000
0000
0000
0000
,
0000
0000
0000
0000
,
0000
0000
0000
0000
,
1000
0000
0001
0100
0000
0000
0010
0000
,
0000
1000
0100
1000
0000
0000
0001
0000
,
1000
0100
1000
0010
0000
0000
0100
0000
,
0000
0001
0100
0000
0010
0000
0010
0000
,
0001
0000
1000
0100
0000
0000
0001
0000
,
1000
0000
0001
0100
0000
0000
1000
0000
,
0010
0000
1000
0100
0000
0001
0100
0000
,
0010
0000
0010
0000
1000
0001
0000
0000
,
0100
0000
0010
0001
0000
0000
1000
0000
,
0100
0000
0010
1000
0000
0000
0001
0000
,
0010
0000
1000
0100
0000
0010
0001
0000
,
1000
0001
0000
0000
1100
0000
0011
0000
,
1000
0000
1000
0100
0000
0000
1001
0000
,
0001
0000
0001
0100
0000
0000
1001
0000
,
0010
0000
1000
0100
0000
0010
0001
0000
,
1000
0001
0000
0100
0000
0010
1000
0000
,
0001
0000
0100
0010
0000
0000
1001
0000
,
1000
0000
0100
0010
0000
0000
1001
0000
,
2010
0100
0010
3100
,
0012
0100
0010
0103
,
2020
0030
0002
0003
,
0100
0100
0000
3001
,
0022
0030
2000
3000
,
0100
0100
0000
1003
,
1000
0100
1000
0000
0001
0000
0001
0000
,
0001
0100
0001
0000
1000
0000
1000
0000
,
0010
1000
0100
0000
0000
0010
0001
0100
,
0000
0100
0010
0000
1010
0000
0101
0000
,
2000
0000
0000
0001
0001
0000
3100
0000
,
0002
0000
0000
1000
1000
0000
0103
0000
,
0010
0100
0010
0100
,
1000
0100
0010
1001
,
1000
0000
1000
0000
0001
0100
0001
0000
,
0001
0000
0001
0000
0001
0100
0001
0000
,
0010
0000
0010
0000
1000
0001
1000
0000
,
0001
0010
0100
1001
,
1000
0000
0100
0000
0001
0100
0001
0000
,
0001
0000
0100
0000
1000
0100
1000
0000
,
0010
0000
0100
0000
1000
0001
1000
0000
,
1000
0010
0100
1001
,
0010
0000
0001
0100
0000
0000
1001
0000
,
0010
0000
1000
0100
0000
0000
1001
0000
,
0012
0100
0010
0103
,
2010
0100
0010
3100
,
0001
0000
0000
0001
0000
0000
1000
0000
,
0000
1000
0000
0000
0100
0000
0100
0000
,
2002
0000
0000
3003
,
0000
0000
0000
0000
;

//---------------dance-single - ----------------
#NOTES:
     dance-single:
     :
     Hard:
     9:
     :
0000
0000
0000
0000
,
0000
0000
0000
0000
,
0000
0000
0000
0000
,
0000
0000
0000
0000
,
0000
0000
0000
0000
,
1000
0100
1000
0010
0000
0001
0001
0000
,
0000
0100
0010
1000
0000
0001
0001
0000
,
0001
0100
0001
0010
0000
0000
1000
1000
,
0000
1000
0100
0000
0010
0001
0001
1000
,
0010
0000
0100
0001
0000
0100
0010
1000
,
1000
0000
0100
0001
0000
0010
0100
1000
,
0001
0000
0001
0010
0000
0001
1000
1000
,
0100
0010
0000
0100
0010
1000
0000
1000
,
0001
0100
0010
1000
0000
0001
0100
0001
,
1000
0000
0100
0010
0000
0010
0001
1000
,
0010
0000
0010
1000
0000
1000
0100
0010
,
0001
0000
1000
0000
0000
0000
0100
0000
0010
0001
0010
0000
0100
0000
1000
0000
,
1000
0000
0100
0001
0000
1000
0100
1000
,
0001
0000
0100
1000
0000
0001
0100
0001
,
1000
0000
0010
0010
0000
1000
0001
1000
,
0100
0010
0000
0001
0000
1000
0100
1000
,
0010
0000
0001
0100
0000
1000
0100
1000
,
0000
0010
1000
0100
0000
0001
0100
1000
,
0010
0000
0000
0000
1000
0000
0100
0000
1000
0000
0000
1000
0000
0000
0010
0000
,
0000
0001
1000
0100
0000
1000
0001
0010
,
0001
1000
0000
0000
0000
0000
0000
0000
1000
0010
0000
0000
0000
0000
0000
0000
,
0010
0100
0000
0000
0101
0000
0000
0000
0000
0000
0010
0000
0100
0000
0010
0000
,
1000
0001
0000
0000
0000
0000
0000
0000
0001
0010
0000
0000
0000
0000
0000
0000
,
0010
0100
0000
0000
1100
0000
0000
0000
0000
0000
0010
0000
0100
0000
0010
0000
,
1000
0100
1000
0000
1000
0001
1000
0000
,
0001
0000
0100
0000
0001
0000
1000
0000
0000
0000
1000
0000
0100
0000
0000
0100
,
0000
0010
0001
0010
0000
0100
1000
1000
,
0000
0100
0010
0100
1000
0000
0001
0001
,
1000
0000
0100
0001
0000
0010
1000
0010
,
0001
0000
1000
1000
0000
0010
0001
0010
,
1000
0000
1000
0100
0000
0010
0001
1000
,
0100
0000
0000
0000
0010
0001
0000
0000
1000
0100
0000
0000
0010
0000
0100
0000
,
0001
0000
1000
1000
0000
1100
0000
0010
,
0001
0000
1000
0100
0000
0011
0000
0100
,
0010
0000
0000
0000
1000
0000
0001
0000
1000
0000
0000
0001
0000
0000
0010
0000
,
0000
1000
0001
0100
0000
0100
0001
0100
,
0010
0000
1000
1000
0000
1000
0100
1000
,
0010
0000
0001
0100
0000
0001
0100
0010
,
1000
0100
1000
0010
0001
0010
0000
1000
,
0100
0000
0001
0100
0000
0100
0010
1000
,
0001
0000
0001
0010
0000
1000
0000
1000
,
0001
1000
0010
0100
0000
0001
0000
0100
,
0010
0000
1000
0100
0010
0000
0001
0010
,
0000
0010
0001
0100
0000
1000
0010
0010
,
1000
0100
0000
0001
0100
0000
1000
0010
,
0000
0001
0010
0001
1000
0000
0001
0000
,
2002
0000
0000
3003
,
0000
0000
0000
0000
;

//---------------dance-double - ----------------
#NOTES:
     dance-double:
     :
     Easy:
     3:
     :
00000000
00000000
00000000
00000000
,
00000000
00000000
00000000
00000000
,
00000000
00000000
00000000
00000000
,
00000000
00000000
00000000
00000000
,
00000000
00000000
00000000
00000000
,
00010000
00000000
00010000
00000000
,
00001000
00000000
00001000
00000000
,
00010000
01000000
00000000
00010000
,
00001000
00000100
00000000
00001000
,
00010000
00000000
00100000
00000000
,
00010000
00000000
00010000
00000000
,
00001000
00000000
00000010
00000000
,
00001000
00000000
00001000
00000000
,
00010000
01000000
00000000
00010000
,
00001000
00000100
00000000
00001000
,
00010000
00100000
10000000
00000000
,
01000000
00000000
00010000
00011000
,
00001000
00000010
00000000
00000100
,
00000010
00000001
00000000
00001000
,
00000001
00000100
00001000
00010000
,
00100000
10000000
00010000
01000000
,
00100000
10000000
00000000
00010000
,
10000000
01000000
00000000
00010000
,
00001000
00000000
00000010
00000000
,
00000100
00000000
00010000
00001000
,
00010000
00000000
00010000
00000000
,
00010000
00000100
00000000
00000000
,
00001000
00000000
00001000
00000000
,
00001000
01000000
00000000
00000000
,
00100000
10000000
01000000
00000000
,
00010000
00000000
00010000
00000000
,
00001000
00000100
00000001
00000000
,
00000010
00001000
00010000
00000000
,
00011000
00000000
00100000
00000000
,
00011000
00000000
00000010
00000000
,
00011000
00000000
01000000
00000000
,
00011000
00000000
00000100
00000000
,
00000010
00000001
00000100
00000000
,
00001000
00010000
00001000
00000000
,
01001000
00000000
00010000
00000000
,
00010100
00000000
00001000
00000000
,
00010000
00100000
00000000
00010000
,
00001000
00000100
00000000
00001000
,
00010000
00000000
00100000
00000000
,
10000000
00000000
01000000
00000000
,
00010000
00001000
00000000
00000010
,
00001000
00010000
00000000
01000000
,
10000000
00000000
00100000
00000000
,
00010000
00000000
00001000
00000000
,
00011000
00000000
00000000
00000000
,
00010000
00000000
00001000
00000000
,
00011000
00000000
00000000
00000000
,
00000000
00000000
00000000
00000000
;

//---------------dance-double - ----------------
#NOTES:
     dance-double:
     :
     Medium:
     7:
     :
00000000
00000000
00000000
00000000
,
00000000
00000000
00000000
00000000
,
00000000
00000000
00000000
00000000
,
00000000
00000000
00000000
00000000
,
00000000
00000000
00000000
00000000
,
10000000
00000000
00100000
01000000
00000000
00000000
00001000
00000000
,
00000000
00010000
00001000
00000000
00000010
00000000
00000001
00000000
,
00000001
00000100
00000010
00010000
00000000
00000000
00001000
00000000
,
00000000
00000010
00000001
00000000
00000010
00000000
00001000
00000000
,
00010000
00000000
00100000
01000000
00000000
00000000
00010000
00000000
,
10000000
00000000
01000000
00010000
00000000
00000000
00001000
00000000
,
00000010
00000000
00000001
00001000
00000000
00000000
00000100
00000000
,
00000010
00000000
00000001
00000000
00001000
00000100
00000000
00000000
,
00001000
00000000
00000100
00000010
00000000
00000000
00001000
00000000
,
00000001
00000000
00000010
00001000
00000000
00000000
00010000
00000000
,
01000000
00000000
10000000
00010000
00000000
00000000
00100000
00000000
,
01000000
10000000
00010000
10010000
,
10000000
00000000
00010000
01000000
00000000
00000000
01100000
00000000
,
00001000
00000000
00010000
00000100
00000000
00000000
00001001
00000000
,
00000010
00000001
00000100
00001000
,
00010000
00100000
10000000
00100000
,
01000000
00000000
00010000
01000000
00000000
00000000
00001000
00000000
,
00010000
00000000
00000010
00000100
00000000
00000000
00000001
00000000
,
00000001
00000100
00000010
00010000
,
00001000
01000000
00100000
10000000
,
21000000
30000000
00201000
00300000
,
00020100
00030100
00000000
00000010
,
00000012
00000003
00010200
00000300
,
00102000
00103000
00000000
00010000
,
00100000
10000000
01000000
00010000
,
00001000
00000010
00000001
00000100
,
00000010
00001000
00000010
00000000
00000001
00000000
00000100
00000000
,
00000000
00001000
00010000
00000000
00010000
00000000
01100000
00000000
,
20000000
30000000
10000000
01000000
,
00020000
00030000
00010000
00001000
,
00000020
00000030
00000010
00000001
,
00000001
00000100
00001000
00010000
,
00001000
00000000
00010000
00000000
00100000
00010000
00001000
00000000
,
00010000
00000000
01000000
00000000
00010000
00001000
00000010
00000000
,
00000001
00000100
00001000
00010000
,
00001000
00000010
00000001
00001001
,
00000010
00000000
00000001
00000000
00000100
00001000
00000100
00000000
,
00001000
00000000
00010000
00000000
00100000
10000000
00100000
00000000
,
01000000
10000000
00100000
00010000
,
00001000
00000100
00000001
00000010
,
00000001
00000000
00000010
00000100
00000000
00000000
00010000
00000000
,
00001000
00000000
00100000
01000000
00000000
00000000
10000000
00000000
,
10000000
01000000
00100000
00001000
,
00010000
00000100
00000010
00000001
,
00000100
00000000
00000000
00000010
00000000
00000000
00010000
00000000
,
00000000
00001000
00000000
00100000
01000000
00000000
00010000
00000000
,
00022000
00000000
00000000
00033000
,
00000000
00000000
00000000
00000000
;

//---------------dance-double - ----------------
#NOTES:
     dance-double:
     :
     Hard:
     9:
     :
00000000
00000000
00000000
00000000
,
00000000
00000000
00000000
00000000
,
00000000
00000000
00000000
00000000
,
00000000
00000000
00000000
00000000
,
00000000
00000000
00000000
00000000
,
10000000
01000000
10000000
00100000
00000000
01000000
00001000
00000000
,
00000000
00010000
00000100
00000010
00000000
00000001
00000100
00000000
,
00000001
00000100
00000010
00010000
00000000
00000000
00001000
01000000
,
00100000
10010000
01000000
10010000
,
00100000
00000000
10000000
01000000
00000000
01000000
00010000
01000000
,
00010000
00000000
00001000
00000100
00000000
00000100
00000001
00000100
,
00000010
00000000
00000001
00000100
00001000
00000000
00001000
00010000
,
00001000
01000000
00000000
00100000
10000000
00100000
00000000
00000000
,
10000000
01000000
10000000
00100000
00000000
00010000
00001000
00000000
,
00000010
00000001
00000010
00000000
00000100
00010000
00001000
00000000
,
00100000
00000000
01000000
10000000
00000000
00100000
00010000
00001000
,
01000000
00100000
00000000
10000000
01000000
00010000
00001000
00000000
,
00000010
00000000
00000001
00000100
00000000
00000100
00001000
00000100
,
00001000
00000000
00010000
01000000
00000000
01000000
10000000
01000000
,
00100000
00000000
10000000
01000000
00010000
00000000
00010000
00001000
,
00010000
00000100
00000000
00000010
00000000
00000001
00000010
00000000
,
00000001
00000100
00000001
00000010
00000000
00001000
00010000
00000000
,
00100000
10000000
00100000
00000000
01000000
00001000
00010000
00000000
,
00000010
00000000
00000100
00000001
00000010
00000000
00001000
00010000
,
00000100
00000010
00000001
00000000
00000100
00001000
00010000
00000000
,
00200000
00300000
20000000
30000000
,
01000000
00000000
01000000
00000000
00000000
00010000
00001000
00000000
,
00000020
00000030
00000002
00000003
,
00000100
00000000
00000100
00000000
00000000
00001000
00010000
00000000
,
00100000
10000000
00010000
00000000
01000000
00001000
00010000
00000000
,
00000100
00000010
00000001
00000000
00000100
00000010
00010000
00000000
,
00001000
01000000
00100000
10000000
00000000
10000000
01000000
00100000
,
00000000
00001000
00011000
00010000
00011000
00000000
01000000
00000000
,
00100000
00000000
10000000
10000000
00000000
01000000
01000000
00000000
,
00100000
00000000
00001000
00001000
00000000
00010000
00010000
00000000
,
00001000
00000000
00000010
00000001
00000000
00000100
00000100
00000000
,
00000010
00000101
00010010
00011000
,
00100000
00000000
10000000
01000000
00010000
00000000
10000000
00000000
,
10000000
01000000
00010000
00001000
00010000
00000000
00011000
00000000
,
00000010
00000000
00000001
00000100
00000001
00000000
00000100
00000000
,
00000010
00001000
00000010
00010000
00001000
00000000
00011000
00000000
,
01000000
00000000
10000000
10000000
00000000
00100000
00100000
00000000
,
01000000
00000000
00001000
00001000
00000000
00010000
00010000
00000000
,
00001000
00000100
00000001
00000000
00000010
00000010
00000000
00000000
,
00000100
00000011
00010100
00011000
,
01000000
00000000
10000000
00100000
00010000
00000000
10000000
00000000
,
10000000
00100000
00010000
00001000
00010000
00000000
00011000
00000000
,
00000100
00000000
00000001
00000010
00000001
00000000
00000010
00000000
,
00000100
00001000
00000100
00010000
00001000
00000000
00011000
00000000
,
00100000
10000000
00000000
00001000
01000000
00000000
00010000
00000100
,
00000000
00000010
00000001
00000100
00001000
00000000
00010000
00000000
,
00022000
00000000
00000000
00033000
,
00000000
00000000
00000000
00000000
;
