#TITLE:Destiny lovers;
#SUBTITLE:;
#ARTIST:くにたけみゆき;
#TITLETRANSLIT:;
#SUBTITLETRANSLIT:;
#ARTISTTRANSLIT:MIYUKI KUNITAKE;
#CREDIT:;
#BANNER:Destiny lovers.png;
#BACKGROUND:Destiny lovers-bg.png;
#LYRICSPATH:;
#CDTITLE:./CDTITLES/GUITARFREAKS & drummania.PNG;
#MUSIC:Destiny lovers.ogg;
#OFFSET:0.000;
#SAMPLESTART:51.766;
#SAMPLELENGTH:15.000;
#SELECTABLE:YES;
#DISPLAYBPM:170.000;
#BPMS:0.000=170.616,4.000=170.006;
#STOPS:;
#BGCHANGES:;

//---------------dance-single - ----------------
#NOTES:
     dance-single:
     :
     Beginner:
     3:
     0.172,0.200,0.106,0.000,0.000:
0000
0000
0000
0000
,
0000
0000
0000
0000
,
0000
0000
0000
0000
,
0000
0000
0000
0000
,
0000
0000
0000
0000
,
1000
0000
0000
0000
,
0001
0000
0000
0000
,
0100
0000
0000
0000
,
0010
0000
0010
0000
,
0001
0000
0001
0000
,
1000
0000
1000
0000
,
0100
0000
0100
0000
,
1001
0000
0000
0000
,
0001
0000
0100
0000
,
0001
0000
0001
0000
,
1000
0000
0100
0000
,
1000
0000
1000
0000
,
0001
0000
0010
0000
,
1000
0000
0010
0000
,
0001
0000
1000
0000
,
1000
0000
0001
0000
,
0001
0000
0100
0000
,
1000
0000
0100
0000
,
0010
0000
0100
0000
,
0001
0000
1000
0000
,
0001
0000
0001
0000
,
1000
0000
1000
0000
,
0001
0000
0100
0000
,
1000
0000
0100
0000
,
0000
1000
0000
0001
,
0000
0001
0000
1000
,
0000
0010
0000
0001
,
0000
0010
0000
1000
,
0000
0000
0001
0000
,
0010
0000
1000
0000
,
1001
0000
0000
0000
,
0110
0000
0000
0000
,
0001
0000
0010
0000
,
1000
0000
0001
0000
,
1000
0000
0010
0000
,
0001
0000
1000
0000
,
0001
0000
0001
0000
,
1000
0000
1000
0000
,
1001
0000
0000
0000
,
0100
0000
0100
0000
,
0001
0000
0001
0000
,
1000
0000
1000
0000
,
0001
0000
0100
0000
,
1000
0000
0100
0000
,
0001
0000
0001
0000
,
1000
0000
1000
0000
,
1001
0000
0000
0000
,
0110
0000
0000
0000
,
1001
0000
0000
0000
,
0001
0000
0001
0000
,
1000
0000
0100
0000
,
1000
0000
1000
0000
,
0001
0000
0100
0000
,
0010
0000
0001
0000
,
0010
0000
1000
0000
,
0001
0000
1000
0000
,
1001
0000
0000
0000
,
0110
0000
0000
0000
,
1001
0000
0000
0000
,
0000
0000
0000
0000
;

//---------------dance-single - ----------------
#NOTES:
     dance-single:
     :
     Easy:
     4:
     0.205,0.235,0.106,0.085,0.000:
0000
0000
0000
0000
,
0000
0000
0000
0000
,
0000
0000
0000
0000
,
0000
0000
0000
0000
,
0000
0000
0000
0000
,
1000
0000
0000
0000
,
0001
0000
0000
0000
,
0100
0000
0000
0000
,
0010
0000
0010
0000
,
0001
0000
0001
0000
,
1000
0000
1000
0000
,
0100
0000
0100
0000
,
2002
3003
0000
0000
,
0001
0000
0100
0000
,
0001
0000
0001
0000
,
1000
0000
0100
0000
,
1000
0000
1000
0000
,
0001
0000
0010
0000
,
1000
0000
0010
0000
,
0002
0000
1003
0000
,
2000
0000
3001
0000
,
0001
0000
0100
0000
,
1000
0000
0100
0000
,
0010
0000
0100
0000
,
0001
0000
1000
0000
,
0001
0001
0001
0000
,
1000
1000
1000
0000
,
0002
0000
0103
0000
,
2000
0000
3100
0000
,
0000
1000
0100
0001
,
0000
0001
0100
1000
,
0000
0010
0000
0001
,
0000
0010
0000
1000
,
0010
0000
0001
0000
,
0010
0000
1000
0000
,
1001
0000
0000
0000
,
0110
0000
0000
0000
,
0001
0000
0010
0000
,
1000
0000
0001
0000
,
1000
0000
0010
0000
,
0001
0000
1000
0000
,
0001
0001
0100
0000
,
1000
1000
0100
0000
,
1001
0000
0000
0000
,
0100
0100
0100
0000
,
0001
0001
0001
0000
,
1000
1000
1000
0000
,
0001
0000
0100
0000
,
1000
0000
0100
0000
,
0001
0001
1000
0000
,
1000
1000
0001
0000
,
1001
0000
0000
0000
,
0110
0000
0000
0000
,
1001
0000
0000
0000
,
0001
0000
0001
0000
,
1000
0001
0100
0000
,
1000
0000
1000
0000
,
0001
1000
0100
0000
,
0010
0000
0001
0000
,
0010
0000
1000
0000
,
0001
0000
1000
0000
,
1001
0000
0000
0000
,
0110
0000
0000
0000
,
2002
0000
3003
0000
,
0000
0000
0000
0000
;

//---------------dance-single - ----------------
#NOTES:
     dance-single:
     :
     Medium:
     7:
     0.362,0.378,0.254,0.254,0.000:
0000
0000
0000
0000
,
0000
0000
0000
0000
,
0000
0000
0000
0000
,
0000
0000
0000
0000
,
0000
0000
0000
1000
,
0002
0000
0000
1003
0000
0000
0000
0000
,
2000
0000
0000
3001
0000
0000
0000
0000
,
0010
0001
0010
1000
,
2002
0000
3003
0000
,
0001
0000
0000
0101
0000
0000
0000
0000
,
1000
0000
0000
1100
0000
0000
0000
0000
,
0010
0000
0000
0110
0000
0000
0000
0000
,
2002
0000
0000
3003
,
0001
1000
0001
0100
,
1000
0001
1000
0100
,
0010
0100
0001
1000
,
0010
0100
0010
0100
,
0001
0100
1000
0100
,
0001
0100
1000
0100
,
0002
0000
1000
1003
,
2000
0000
0001
3001
,
0001
0010
0100
0100
,
1000
0010
0100
0100
,
0001
0010
0001
1000
,
1000
0010
1000
0001
,
0010
1000
0010
0001
,
0100
1000
0010
0001
,
2000
0000
0001
3100
,
0002
0000
1000
0103
,
0000
0100
0010
0001
,
0100
0100
0010
1000
,
0001
1000
0100
0010
,
0110
0000
0000
1001
0000
0000
0110
0000
,
0000
0010
0100
0001
,
1000
0010
0100
0100
,
0002
0000
0000
2000
0003
0000
3020
0000
,
0200
0000
0330
1000
,
0002
0100
0100
0103
,
2000
0010
0010
3010
,
1010
0000
0101
0000
,
0010
1000
0001
0100
,
0002
0010
1000
0013
,
2000
0010
0001
3010
,
1010
0000
0101
0000
,
0010
0100
0010
0000
,
0020
1000
1000
1030
,
0200
0001
0001
0301
,
0100
0001
0100
1000
,
0010
0001
0010
1000
,
0002
0010
1000
0103
,
2000
0010
0001
3100
,
1100
0000
0011
0000
,
1000
0000
0000
0101
0000
0000
0000
0000
,
0001
0000
0000
1100
0000
0000
0000
0000
,
0010
0100
0001
1000
,
0001
0010
0100
1000
,
0100
0001
0010
1000
,
1001
0000
0100
0100
,
0010
0000
0000
1001
0000
0000
0010
0000
,
0100
0000
0000
1001
0000
0000
0100
0000
,
0001
1000
0010
0100
,
0110
0000
0000
1001
0000
0000
0100
0000
,
0101
0000
0000
1100
0000
0000
0010
0000
,
2002
0000
0000
0000
,
0000
0000
0000
0000
,
3003
0000
0000
0000
,
0000
0000
0000
0000
;

//---------------dance-single - ----------------
#NOTES:
     dance-single:
     :
     Hard:
     13:
     0.609,0.722,0.317,0.159,0.169:
0000
0000
0000
0000
,
0000
0000
0000
0000
,
0000
0000
0000
0000
,
0000
0000
0000
0000
,
0000
0000
0000
0000
0000
0000
0010
0100
,
0002
0000
1000
1003
0000
0000
0010
0000
,
2000
0000
0001
3001
0000
0100
0010
0000
,
1100
0101
0011
1001
,
1000
0000
0000
0010
0000
0000
0100
0000
0000
0001
0000
0000
0100
0000
0000
0000
,
0010
1000
0000
0100
1000
0000
0001
0100
0000
0010
0100
0000
0010
0000
1000
0000
,
0010
0100
0000
0010
1000
0000
0001
0100
0000
0001
1000
0000
0001
0000
0100
0000
,
0010
0100
0000
0010
1000
0000
0001
0010
0000
0100
1000
0000
0001
0000
1000
0000
,
0020
0000
0000
0000
0000
0000
0000
0000
1030
0000
0100
1000
0100
0000
1000
0000
,
1000
0000
0001
1000
0010
1000
0100
0000
,
0001
0000
0010
0100
1000
0001
0100
0000
,
1000
0000
0100
0010
0001
0100
0010
0000
,
0001
0000
1000
0010
0100
0010
1000
0000
,
0010
0000
0001
0100
0001
0010
0100
0000
,
0001
0000
1000
0100
1000
0010
0001
0000
,
0200
0000
0001
0000
0301
0100
0000
0001
,
2000
0000
0010
0000
3010
1000
0000
0100
,
1000
0000
0010
0100
0001
0100
0000
1000
,
0100
0001
0000
0010
1000
0100
0000
0100
,
0001
0000
0010
0100
1000
0100
0000
0001
,
0100
1000
0000
0010
0001
0100
0000
0010
,
0100
0000
0001
0010
0100
1000
0000
1000
,
0010
1000
0000
0010
0001
0010
0000
0010
,
2000
0000
0010
0000
3010
1000
0000
0001
,
0200
0000
0001
0000
0301
0100
0000
0100
,
0001
0010
0100
0010
0100
1000
0001
0000
,
1000
0100
0010
0100
0010
0001
1000
0000
,
1000
0010
1000
0001
0100
0010
1000
0000
,
0100
0000
1000
0100
0000
0001
0100
0000
,
0010
0001
1000
0010
1000
0100
0010
0000
,
0100
0001
1000
0100
1000
0010
0001
0000
,
0010
0000
1000
0010
0000
0001
0010
0000
,
0001
0100
0100
0100
0000
0000
0010
0100
,
0002
0000
1000
1003
0000
0010
0010
0000
,
2000
0000
0001
3001
0000
0100
0100
0000
,
0001
0100
0101
0000
1000
0010
1010
0000
,
0001
0010
0001
0100
0010
1000
0010
0000
,
2000
0000
0010
3001
0000
0010
0100
0000
,
0002
0000
0010
1003
0000
0100
0010
0000
,
1001
0001
1001
0000
0110
0010
0110
0000
,
0001
0000
0000
1000
0000
0000
1001
0000
0000
0000
1000
0000
0100
0000
1000
0000
,
0011
0000
1000
0001
0000
0001
1000
0000
,
0110
0000
0001
1000
0000
1000
0001
0000
,
1010
0000
0001
0100
0110
0000
1001
0000
,
0100
0001
1000
0010
0100
0001
1000
0000
,
1100
0000
0001
1000
0000
1000
0001
0000
,
0011
0000
1000
0001
0000
0001
1000
0000
,
0101
0100
0101
0000
1010
1000
1010
0000
,
0010
1000
0000
0001
0100
0000
0010
0100
0000
0010
1000
0000
0001
0000
0000
0000
,
0010
0001
0000
1000
0100
0000
0010
0100
0000
1000
0001
0000
1000
0000
0000
0000
,
0001
0100
0010
0000
1000
0100
0010
0000
,
1000
0010
1000
0000
0001
0010
1000
0000
,
0001
1000
0100
0000
0010
0001
0100
0000
,
1000
0001
0010
0100
0010
0100
1001
0000
,
2000
0000
3010
1000
0000
0001
0100
0000
,
0002
0000
0013
0001
0000
1000
0100
0000
,
1010
0011
1100
0101
,
1000
0100
0000
0010
0001
0000
1000
0001
0000
0100
0010
0000
1001
0000
0000
0000
,
0001
0100
0000
0010
1000
0000
0001
1000
0000
0100
0010
0000
1001
0000
0000
0000
,
2002
0000
0000
0000
,
0000
0000
0000
0000
,
3003
0000
0000
0000
,
0000
0000
0000
0000
;

//---------------dance-double - ----------------
#NOTES:
     dance-double:
     :
     Easy:
     4:
     0.198,0.235,0.106,0.063,0.000:
00000000
00000000
00000000
00000000
,
00000000
00000000
00000000
00000000
,
00000000
00000000
00000000
00000000
,
00000000
00000000
00000000
00000000
,
00000000
00000000
00000000
00000000
,
00100000
00000000
00000000
00000000
,
00010000
00000000
00000000
00000000
,
00001000
00000000
00000000
00000000
,
00000100
00000000
00000000
00000000
,
00000001
00000000
00000001
00000000
,
00000010
00000000
00001000
00000000
,
00010000
00000000
00001000
00000000
,
00022000
00033000
00000000
00000000
,
00100000
00000000
00010000
00000000
,
10000000
00000000
01000000
00000000
,
00100000
00000000
00010000
00000000
,
00001000
00000000
00010000
00000000
,
00000010
00000000
00001000
00000000
,
00000001
00000000
00000100
00000000
,
00001000
00000000
00010000
00000000
,
00001000
00000000
00010000
00000000
,
00100000
00000000
01000000
00000000
,
00010000
00000000
10000000
00000000
,
00100000
00000000
01000000
00000000
,
01000000
00000000
00010000
00000000
,
00001000
00000000
00011000
00000000
,
00000010
00000000
00001000
00000000
,
00000002
00000000
00001003
00000000
,
00000020
00000000
00000130
00000000
,
00001000
00001000
00001000
00000000
,
00010000
00000000
00001000
00000000
,
01000000
01000000
01000000
00000000
,
00010000
00000000
10000000
00000000
,
00100000
00100000
00100000
00000000
,
00010000
00010000
00010000
00000000
,
00011000
00000000
00000000
00000000
,
00001001
00000000
00000000
00000000
,
00000010
00000000
00000010
00000000
,
00001000
00000000
00000001
00000000
,
00000100
00000000
00000010
00000000
,
00010000
00000000
00011000
00000000
,
00100000
00000000
00100000
00000000
,
00010000
00000000
10000000
00000000
,
01000000
00000000
00100000
00000000
,
00001000
00000000
00011000
00000000
,
00000010
00000010
00000010
00000000
,
00001000
00001000
00000001
00000000
,
00000010
00000000
00001000
00000000
,
00010000
00000000
00001000
00000000
,
00100000
00100000
00100000
00000000
,
00010000
00010000
10000000
00000000
,
00100000
00000000
00010000
00000000
,
00001000
00000000
00010000
00000000
,
00011000
00000000
00000000
00000000
,
00010000
00000000
00001000
00000000
,
00000010
00000000
00001000
00000000
,
00000001
00000000
00000100
00000000
,
00001000
00000000
00000100
00000000
,
00010000
00000000
00001000
00000000
,
00100000
00000000
00010000
00000000
,
10000000
00000000
01000000
00000000
,
10010000
00000000
00000000
00000000
,
01100000
00000000
00000000
00000000
,
00022000
00000000
00033000
00000000
,
00000000
00000000
00000000
00000000
;

//---------------dance-double - ----------------
#NOTES:
     dance-double:
     :
     Medium:
     7:
     0.343,0.344,0.159,0.159,0.000:
00000000
00000000
00000000
00000000
,
00000000
00000000
00000000
00000000
,
00000000
00000000
00000000
00000000
,
00000000
00000000
00000000
00000000
,
00000000
00000000
00000000
10000000
,
00020000
00000000
00000000
10030000
00000000
00000000
00000000
00000000
,
02000000
00000000
00000000
03010000
00000000
00000000
00000000
00000000
,
00100000
10000000
01000000
00010000
,
00002000
00000000
00000000
00003000
,
00010000
00000000
00000000
00001000
00000000
00000000
00000010
00000000
,
00000001
00000000
00000000
00001000
00000000
00000000
00000100
00000000
,
00010000
00000000
00000000
00011000
00000000
00000000
01000000
00000000
,
00100000
00100000
00100000
00100000
,
00010000
10000000
00010000
01000000
,
10000000
01000000
00010000
01000000
,
10000000
01000000
00010000
00001000
,
00000010
00000001
00001000
00000000
,
00001000
00000001
00001000
00000100
,
00000001
00000100
00001000
00000010
,
00000001
00000100
00001000
00010000
,
00100000
01000000
01000000
00000000
,
10000000
00010000
00100000
01000000
,
00100000
00010000
01000000
00100000
,
00010000
00001000
00000010
00000100
,
00001000
00000001
00000100
00000000
,
00000001
00000100
00000010
00000100
,
00001000
00010000
00100000
10000000
,
00020000
00000000
10030000
01000000
,
00200000
00000000
01000000
00310000
,
00100000
00001000
00010000
00000010
,
00000100
00000001
00000010
00000010
,
00000000
00000001
00001000
00000100
,
00001100
00000000
00000000
00011000
00000000
00000000
01010000
00000000
,
00000000
10000000
00010000
00100000
,
00010000
01000000
00010000
10000000
,
00020000
00000000
00000000
00032000
00000000
00000000
00003002
00000000
,
00002000
00000000
00000000
00000000
00003003
00000000
00000010
00000100
,
00000001
00000000
00000000
00001100
00000000
00000000
00000100
00000000
,
00010000
00000000
00000000
00011000
00000000
00000000
01000000
00000000
,
00010000
01000000
10000000
01000000
,
00010000
00000000
00000000
00010000
00000000
00000000
00010000
00000000
,
10000000
00000000
00000000
01010000
00000000
00000000
01000000
00000000
,
00001000
00000000
00000000
00011000
00000000
00000000
00000010
00000000
,
00001000
00000100
00000001
00000100
,
00001000
00010000
00100000
00000000
,
00200000
00000000
00000000
10300000
00000000
00000000
00010000
00000000
,
00200000
00000000
00000000
00301000
00000000
00000000
00010000
00000000
,
00000010
00000100
00000001
00001000
,
00000100
00000000
00000000
00000100
00000000
00000000
00000100
00000000
,
00000020
00000000
00000000
00010030
00000000
00000000
00001000
00000000
,
00200000
00000000
00000000
00301000
00000000
00000000
01000000
00000000
,
00010000
10000000
00100000
01000000
,
00010000
00000000
00000000
01010000
00000000
00000000
00100000
00000000
,
00001000
00000000
00000000
00011000
00000000
00000000
00010000
00000000
,
00000100
00000001
00000010
00001000
,
00000100
00000001
00000010
00001000
,
00000001
00000100
00001000
00010000
,
00100000
10000000
01000000
00010000
,
00100000
00000000
00000000
10010000
00000000
00000000
00100000
00000000
,
01000000
00000000
00000000
10010000
00000000
00000000
01000000
00000000
,
00010000
00001000
00000100
00000001
,
00001000
00000000
00000000
00011000
00000000
00000000
00001000
00000000
,
00100000
00000000
00000000
01100000
00000000
00000000
00100000
00000000
,
20020000
00000000
00000000
00000000
,
00000000
00000000
00000000
00000000
,
30030000
00000000
00000000
00000000
,
00000000
00000000
00000000
00000000
;

//---------------dance-double - ----------------
#NOTES:
     dance-double:
     :
     Hard:
     12:
     0.518,0.515,0.275,0.159,0.116:
00000000
00000000
00000000
00000000
,
00000000
00000000
00000000
00000000
,
00000000
00000000
00000000
00000000
,
00000000
00000000
00000000
00000000
,
00000000
00000000
00000000
00000000
,
20000000
00000000
00000000
30010000
00000000
00000000
00001000
00000000
,
00000002
00000000
00000000
00001003
00000000
00000100
00000010
00000000
,
00000001
00001000
00000100
00000010
00000001
00000100
00000010
00000000
,
00000100
00000000
00000000
00000001
00000000
00000000
00000100
00000000
00000000
00001000
00000000
00000000
00100000
00000000
00000000
00000000
,
10000000
00000000
00000000
00010000
00000000
00000000
10000000
00000000
00000000
01000000
00000000
00000000
00100000
00000000
00010000
00000000
,
00100000
00000000
00000000
00001000
00000000
00000000
00000010
00000000
00000000
00000001
00000000
00000000
00000100
00000000
00000001
00000000
,
00000100
00000000
00000000
00000010
00000000
00000000
00000100
00000000
00000000
00001000
00000000
00000000
00010000
00000000
00001000
00000000
,
00200000
00000000
00000000
00000000
00000000
00000000
00000000
00000000
00310000
00000000
10000000
01000000
10000000
00000000
00010000
00000000
,
00010000
00000000
10000000
00100000
10000000
01000000
00010000
00000000
,
01000000
00000000
00001000
00010000
00000100
00000010
00000001
00000000
,
00000001
00000000
00001000
00000100
00000010
00000001
00000100
00000000
,
00000100
00000000
00000001
00000100
00001000
00010000
00100000
00000000
,
01000000
00000000
10000000
01000000
00010000
00001000
00000100
00000000
,
00000010
00000000
00000001
00000100
00001000
00010000
01000000
00000000
,
00100000
00000000
10000000
00000000
00010000
01000000
00000000
00010000
,
01000000
00000000
00100000
00000000
10000000
01000000
00000000
00001000
,
00010000
00000000
00000010
00000100
00000010
00000100
00000000
00000001
,
00000000
00000011
00000000
00000110
00000000
00001000
00000000
00100000
,
01000000
00000000
00010000
01000000
00010000
01000000
00000000
00010000
,
00000000
01010000
00000000
01100000
00000000
10000000
00000000
00100000
,
01000000
00000000
00010000
00100000
01000000
10000000
00000000
01000000
,
00000000
00110000
00000000
00011000
00000000
00001010
00000000
00000100
,
00002000
00000000
00000010
00000000
00003010
00001000
00000000
00000001
,
00000200
00000000
00000001
00000000
00000301
00000100
00000000
00000001
,
00002000
00000100
00000001
00003010
,
00000200
00000000
00000000
00000001
00000010
00000000
00001300
00000000
,
00010000
01000000
10000000
00100000
,
01000000
00000000
00001000
00010000
00000000
00000010
00000100
00000000
,
00000100
00000001
00001100
00001000
,
00110000
00100000
01100000
10000000
,
10100000
00000000
00000000
00110000
00000000
00000000
01010000
00000000
,
00022000
00000000
00000000
00000000
00033000
00000000
00100000
00010000
,
02000000
00000000
00000000
03001000
00000000
00010000
00010000
00000000
,
00000200
00000000
00000000
00000310
00000000
00000001
00000001
00000000
,
00000010
00001000
00010000
00100000
,
10100000
00000000
00000000
10010000
00000000
10000000
10000000
00000000
,
00020000
00000000
00000000
00031000
00000000
00000100
00000100
00000000
,
00000020
00000000
00000000
00000031
00000000
00001000
00001000
00000000
,
00000100
00001000
00010000
00000000
00000010
00001000
00010000
00000000
,
00001000
00000000
00000000
00100000
00000000
00000000
01000000
00000000
00000000
00000000
10000000
00000000
01000000
00000000
10000000
00000000
,
00100000
00000000
10000000
01000000
00100000
01000000
00001000
00000000
,
00010000
00000000
00000100
00001000
00000010
00000001
00000010
00000000
,
00000001
00000000
00001000
00000001
00000100
00000000
00000110
00000000
,
00000010
00000100
00000010
00010000
00001000
00100000
01000000
00000000
,
00100000
00000000
01000000
00100000
10000000
01000000
00010000
00000000
,
01000000
00000000
00001000
00010000
00000010
00000100
00000010
00000000
,
00001010
00010010
00001100
00010100
,
00001000
00000000
00000000
00010000
00000000
00000000
01000000
00000000
00000000
10000000
00000000
00000000
01000000
00000000
00000000
00000000
,
00010000
00000000
00000000
00001000
00000000
00000000
00000100
00000000
00000000
00000001
00000000
00000000
00000100
00000000
00000000
00000000
,
00000001
00000100
00000010
00000000
00001000
00000100
00001000
00000000
,
00000100
00010000
00001000
00000000
00100000
00010000
01000000
00000000
,
00010000
10000000
01000000
00000000
00100000
00001000
00010000
00000000
,
00000010
00001000
00000001
00000000
00001000
00000000
00000001
00000000
,
00000110
00000000
00000010
00001010
00000000
00000100
00000100
00000000
,
00011000
00000000
00100000
01100000
00000000
01000000
01000000
00000000
,
00010000
00001000
00000001
00001000
,
00010000
00001000
00000000
00000100
00000010
00000000
00000010
00000001
00000000
00000001
00001000
00000000
00000100
00000000
00000000
00000000
,
00010000
00001000
00000000
01000000
00100000
00000000
00100000
10000000
00000000
10000000
00010000
00000000
00100000
00000000
00000000
00000000
,
20020000
00000000
00000000
00000000
,
00000000
00000000
00000000
00000000
,
30030000
00000000
00000000
00000000
,
00000000
00000000
00000000
00000000
;
