
//----- song ID: belo -----//
#TITLE:BE LOVIN;
#ARTIST:D-Crew;
#BANNER:BE LOVIN.png;
#BACKGROUND:BE LOVIN-bg.png;
#CDTITLE:./CDTITLES/beatmania.PNG;
#MUSIC:BE LOVIN.ogg;
#SAMPLESTART:10.357;
#SAMPLELENGTH:15;
#DISPLAYBPM:185;
#BPMS:0=185.5,4=185;
#BGCHANGES:3.5=BE LOVIN.avi=1=0=0=0;
#NOTES:
     dance-single:
     :
     Beginner:
     4:
     :
0000
0000
0000
0000
,
0000
0000
0000
0000
,
0000
0000
0000
0000
,
0000
0000
0000
0000
,
0000
0000
0000
0000
,
1000
0000
0000
0000
,
0100
0000
0000
0000
,
0010
0000
0000
0000
,
1001
0000
0000
0000
,
1000
1000
1000
1000
,
1000
1000
1000
0000
,
0100
0100
0100
0100
,
0100
0100
0100
0000
,
0010
0010
0010
0010
,
0010
0010
0010
0000
,
1001
0000
1001
0000
,
1001
0000
0000
0000
,
0001
0001
0001
0001
,
0001
0001
0001
0000
,
0100
0100
0100
0100
,
0100
0100
0100
0000
,
0010
0010
0010
0010
,
0010
0010
0010
0000
,
1001
0000
1001
0000
,
1001
0000
0000
0000
,
0010
0010
0010
0010
,
0010
0000
0010
0000
,
0000
0000
0000
0000
,
0110
0000
0000
0000
,
1001
0000
0000
0000
,
0110
0000
0000
0000
,
1001
0000
0000
0000
,
0110
0000
0000
0000
,
1001
0000
0110
0000
,
1000
1000
1000
0000
,
1001
0000
0110
0000
,
0001
0001
0001
0000
,
1001
0000
0110
0000
,
1000
1000
1000
0000
,
1001
0000
0110
0000
,
0001
0001
0001
0000
,
0010
0010
0010
0010
,
0010
0010
0010
0000
,
1000
1000
1000
1000
,
1000
1000
1000
0000
,
0100
0100
0100
0100
,
0100
0100
0100
0000
,
1001
0000
1001
0000
,
1001
0000
0000
0000
,
0010
0010
0010
0010
,
0010
0010
0010
0000
,
0001
0001
0001
0001
,
0001
0001
0001
0000
,
0100
0100
0100
0100
,
0100
0100
0100
0000
,
1001
0000
0110
0000
,
1001
0000
0110
0000
,
1001
0000
0000
0000
,
0000
0000
0000
0000
;
#NOTES:
     dance-single:
     :
     Easy:
     5:
     :
0000
0000
0000
0000
,
0000
0000
0000
0000
,
0000
0000
0000
0000
,
0000
0000
0000
0000
,
0000
0000
0000
0000
,
0010
0000
0010
0010
,
0100
0000
0100
0100
,
0001
1000
0001
1000
,
0200
0000
0000
0300
,
0001
1000
0001
1000
,
0001
1000
0001
1000
,
0010
0100
0010
0100
,
0010
0100
0010
0100
,
0000
0010
0000
0010
,
0000
0100
0000
0100
,
0000
0001
0000
0001
,
0000
1000
0000
1000
,
0001
0000
0001
0001
,
0010
0000
0010
0010
,
1000
0000
1000
1000
,
0100
0000
0100
0100
,
0000
0010
0000
0100
,
0000
0001
0000
1000
,
0000
0010
0000
0100
,
0000
0100
0000
1001
,
0010
0000
0010
0010
,
0100
0000
0100
0100
,
0001
0000
0001
0001
,
1000
0000
1000
1000
,
0010
0010
0100
0100
,
0010
0010
0100
0100
,
0001
0001
1000
1000
,
0001
1000
0001
1001
,
0000
0001
0000
0100
,
0000
0010
0000
1000
,
0000
0001
0000
1000
,
0000
0010
0000
0100
,
0000
0001
0000
0100
,
0000
1000
0000
0010
,
0000
1000
0000
0001
,
0200
0000
0300
0100
,
0001
1000
0001
1000
,
0010
0100
0010
0100
,
0001
1000
0010
0100
,
0001
1000
0010
0100
,
0000
0010
0000
1001
,
0000
0100
0000
1001
,
0000
0010
0000
0100
,
0001
1000
0001
1000
,
0000
0010
0000
1001
,
0000
0100
0000
1001
,
0001
0001
1000
1000
,
0010
0010
0100
0100
,
0001
0001
0000
0001
,
1000
1000
0000
1000
,
0010
0100
0010
0100
,
0001
1000
0001
1000
,
0020
0000
0000
0030
,
0000
0000
0000
0000
;
#NOTES:
     dance-single:
     :
     Medium:
     9:
     :
0000
0000
0000
0000
,
0000
0000
0000
0000
,
0000
0000
0000
0000
,
0000
0000
0000
0000
,
0000
0000
0000
0000
,
0001
0000
0000
0001
0000
0001
0000
0000
,
1000
0000
0000
1000
0000
1000
0000
0000
,
0010
0000
0000
0010
0000
0010
0000
0000
,
0200
0000
0000
0300
,
0010
0100
0010
0100
,
0010
0100
0010
0100
,
0001
1000
0001
1000
,
0001
1000
0001
1000
,
0001
1000
0100
0000
0010
0000
0010
0000
,
1000
0001
0100
0000
0010
0000
0010
0000
,
0100
0001
0010
0000
0100
1000
0010
0000
,
0100
0001
1000
0010
1000
0001
0100
0000
,
0000
0001
0000
1000
0000
0010
0000
0100
,
0000
0010
0000
1000
0000
0001
0000
0100
,
0000
0010
0000
0100
0000
0001
0000
0010
,
0000
0100
0000
1000
0000
0010
0000
0100
,
0001
0100
0001
0100
0000
0010
0000
0010
,
1000
0100
1000
0100
0000
0010
0000
0010
,
0001
1000
0001
1000
0000
0010
0000
0100
,
0001
1000
0000
0001
1000
0000
1001
0000
,
0010
0000
0100
0000
0001
1000
0100
0000
,
0010
0000
0100
0000
0001
1000
0100
0000
,
0010
0000
0100
0000
1000
0001
0100
0000
,
0010
0000
0100
0000
1000
0001
0100
0000
,
1000
0001
0100
0000
0010
0000
0010
0000
,
0001
1000
0100
0000
0010
0000
0010
0000
,
1000
0001
0100
0000
0010
0000
0010
0000
,
0100
0100
1001
0110
,
1001
0010
0100
0010
,
1000
0001
0100
0010
,
1000
0100
0001
0100
,
2002
0000
0000
3003
,
0100
0010
1000
0001
,
0001
1000
0010
0100
,
0010
1000
0001
0100
,
2002
0000
3003
1001
,
0010
0100
0010
0100
,
1000
0001
1000
0001
,
1000
0100
0001
0010
,
0001
0100
1000
0010
,
0100
0010
1000
0000
0001
0000
0100
0000
,
0010
0100
0001
0000
1000
0000
0100
0000
,
0010
0001
0100
0000
0010
1000
0100
0000
,
1000
0001
1000
0001
0010
0100
0010
0100
,
0010
0001
0100
1001
,
0010
1000
0100
1001
,
1000
0010
0100
0001
,
0010
0100
1000
0110
,
0001
0000
1000
0000
0001
0010
0100
0000
,
1000
0000
0001
0000
1000
0010
0100
0000
,
0001
0110
1000
0110
,
0001
1000
0101
1100
,
2002
0000
0000
3003
,
0000
0000
0000
0000
;
#NOTES:
     dance-single:
     :
     Hard:
     12:
     :
0000
0000
0000
0000
,
0000
0000
0000
0000
,
0000
0000
0000
0000
,
0000
0000
0000
0000
,
0000
0000
0000
0000
,
0010
0100
0010
0100
0010
0100
0010
0100
,
1000
0001
1000
0001
1000
0001
1000
0001
,
0010
0100
0010
0100
1000
0001
1000
0001
,
2002
0000
0000
3003
,
0010
0000
0100
0000
0010
0001
0100
0000
,
0010
0000
0100
0000
0010
1000
0100
0000
,
0010
0000
0100
0000
0010
0001
1000
0100
,
0010
0000
0100
0000
0010
0001
1000
0100
,
0010
0001
0100
0000
0010
0000
0100
0000
,
0010
1000
0100
0000
0010
0000
0100
0000
,
0010
0001
0100
0000
0010
1000
0100
0000
,
1000
0010
0001
1000
0100
0001
1000
0000
,
0001
0100
0001
0010
0001
0100
0001
1000
,
0001
0100
0001
0010
0001
0100
0001
1000
,
0010
1000
0010
0100
0010
1000
0010
0001
,
0010
1000
0010
0100
0010
1000
0010
0000
,
1000
0010
1000
0100
1000
0010
1000
0001
,
1000
0010
1000
0100
1000
0010
1000
0001
,
0100
0001
0100
0010
0100
0001
0100
1000
,
0100
0001
0100
0010
0100
0001
0100
0000
,
0010
0000
0010
0000
1000
0100
0010
0000
,
0010
0000
0010
0000
0001
0100
0010
0000
,
1000
0000
0100
0000
1000
0010
0100
0000
,
0001
0000
0100
0000
0001
0010
0100
0000
,
1000
0001
0100
0010
,
1000
0100
0001
0010
,
1000
0001
0100
0010
,
1000
0001
1100
0101
,
0010
0001
1000
0001
,
0100
0100
1000
0100
,
0010
1000
0001
1000
,
0200
0001
1000
0301
,
1001
0000
0010
0100
0001
0010
0100
1000
,
0000
0001
0000
1000
0000
0100
0000
0000
,
0010
0000
0001
0100
1000
0100
0001
0000
,
0020
0000
0000
0130
,
1001
0000
0010
0000
0001
0100
0010
0000
,
1001
0000
0010
0000
1000
0100
0010
0000
,
0100
0000
0010
0000
0001
1000
0100
0010
,
0100
0000
0010
0000
0001
1000
0100
0010
,
0100
0010
0001
0000
1000
0000
0100
0000
,
0010
0100
1000
0000
0001
0000
0100
0000
,
0010
1000
0001
0000
1000
0001
0100
0000
,
0001
0010
1000
0001
0100
1000
0001
0000
,
1000
1000
0100
0100
0010
0010
0001
0001
,
1000
0100
0010
0001
1000
0100
0010
0001
,
0100
0100
0001
0001
1000
1000
0010
0010
,
0110
0100
0101
0001
1001
1000
1010
0010
,
1000
0001
1000
0001
1000
0100
0010
0001
,
1000
0001
1000
0001
1000
0100
0010
0001
,
0010
1001
0100
1001
,
0010
0100
1100
0101
,
2002
0000
0000
3003
,
0000
0000
0000
0000
;
#NOTES:
     dance-single:
     :
     Challenge:
     15:
     :
0000
0000
0000
0000
,
0000
0000
0000
0000
,
0000
0000
0000
0000
,
0000
0000
0000
0000
,
0000
0000
0000
0000
,
0010
0100
0010
0100
0010
0100
0010
0100
,
0001
1000
0001
1000
0001
1000
0001
1000
,
0010
0100
0010
0100
0001
1000
0001
1000
,
2002
0000
0000
3003
,
0001
0000
0100
0000
0010
0000
0100
0000
0001
0000
0010
0100
0010
0000
0001
0000
,
1000
0000
0100
0000
0010
0000
0100
0000
1000
0000
0010
0100
0010
0000
1000
0000
,
0001
0000
0010
0000
0100
0000
0010
0000
0001
0000
0100
0010
0100
0000
0001
0000
,
1000
0000
0010
0000
0100
0000
0010
0000
1000
0000
0100
0010
0100
0000
1000
0000
,
0001
0100
0010
1000
0100
0001
0100
1000
,
0001
0010
0100
1000
0001
0010
0100
1000
,
0001
0000
0100
0001
0100
0000
0010
0000
1000
0000
0100
1000
0100
0000
0010
0000
,
0001
0100
0001
0000
1000
0100
1000
0000
0010
0000
0100
0000
0001
0000
1000
0000
,
0100
0000
0001
0000
0100
0000
1000
0000
0100
0000
0010
0100
0010
0000
0100
1000
,
0100
0000
0001
0000
0100
0000
1000
0000
0100
0000
0010
0100
0010
0000
0001
1000
,
0010
0000
0001
0000
0010
0000
1000
0000
0010
0000
0100
0010
0100
0000
0010
1000
,
0010
0000
0001
0000
0010
0000
1000
0000
0010
0000
0100
0010
0100
0000
0000
0000
,
0100
0000
1000
0000
0100
0000
0001
0000
0100
0000
0010
0100
0010
0000
0100
0001
,
0100
0000
1000
0000
0100
0000
0001
0000
0100
0000
0010
0100
0010
0000
1000
0001
,
0010
0000
1000
0000
0010
0000
0001
0000
0010
0000
0100
0010
0100
0000
0010
0001
,
0010
0000
1000
0000
0010
0000
0001
0000
0010
0000
0100
0010
0100
0000
0000
0000
,
0010
0000
1001
1000
0100
0010
0001
0000
,
0100
0000
1001
1000
0010
0100
0001
0000
,
1000
0000
0110
0001
0100
0010
1000
0000
,
0001
0000
0110
1000
0100
0010
0001
0000
,
1000
0100
0001
0010
,
1000
0100
0001
0000
0010
1000
0100
0000
,
0001
0010
1000
0000
0100
0001
0010
0000
,
1000
0001
1010
0011
,
0001
0000
0100
0010
0000
1010
0000
1100
,
0000
0011
0000
0101
0000
1001
0000
0000
,
1000
0000
0100
0010
0000
0011
0000
0101
,
0100
0000
0010
0000
1010
0000
1000
0100
0000
1000
0100
0000
0010
0001
0100
0010
,
1000
0000
0001
0100
1000
0100
0010
1010
,
0000
1100
0000
0110
0000
0011
0000
0000
,
0001
0000
1000
0100
1000
0000
0001
0100
0001
0000
1000
0010
1000
0000
0001
0010
,
0002
0000
0000
0003
,
0001
0000
0100
0001
0100
0000
0001
0000
0010
0100
0010
0000
0100
0000
1000
0000
,
0010
0000
1000
0100
1000
0000
0100
0000
0010
0001
0010
0000
0001
0000
1000
0000
,
0010
0000
0100
0001
0100
0000
0010
0000
1000
0001
1000
0000
0100
0000
0010
0000
,
0001
0000
1000
0010
1000
0000
0001
0000
1000
0100
1000
0000
0010
0000
0100
0000
,
0001
0000
0100
0010
0100
0000
0010
1000
0010
0000
1000
0001
1000
0000
0001
0100
,
0001
0000
0010
0001
0010
0000
0100
1000
0100
0000
1000
0001
1000
0000
0010
0100
,
0010
0000
1000
0100
0010
0000
0100
0010
0001
0000
0010
0001
1000
0000
0001
1000
,
0010
0010
0100
0100
0101
0000
1001
0000
,
1100
0100
0110
0010
0011
0001
1001
1000
,
1010
0010
0110
0100
0101
0001
1001
1000
,
1100
0100
0110
0010
0011
0001
1001
1000
,
1010
0110
0101
0000
0101
0110
1010
0000
,
1000
0010
1000
0000
0001
0100
0001
0000
0101
0000
0100
0000
0110
0000
0010
0000
,
1000
0001
1000
0000
0100
1000
0100
0000
1100
0000
0100
0000
0110
0000
0010
0000
,
0001
0010
0001
0000
1000
0100
1000
0000
0010
1000
0010
0000
0100
0001
0100
0000
,
0101
0000
0100
0000
0110
0000
0010
0000
1000
0001
1000
0001
1000
0001
1000
0000
,
2002
0000
0000
3003
,
0000
0000
0000
0000
;
#NOTES:
     dance-double:
     :
     Easy:
     5:
     :
00000000
00000000
00000000
00000000
,
00000000
00000000
00000000
00000000
,
00000000
00000000
00000000
00000000
,
00000000
00000000
00000000
00000000
,
00000000
00000000
00000000
00000000
,
00000000
00100000
00000000
00100000
,
00000000
00010000
00000000
00010000
,
00000000
00001000
00000000
00001000
,
00000020
00000000
00000000
00000030
,
00000010
00000000
00000010
00000010
,
00000001
00000000
00000001
00000001
,
00000100
00000000
00000100
00000100
,
00001000
00000000
00001000
00001000
,
00010000
00000000
00010000
00010000
,
01000000
00000000
01000000
01000000
,
10000000
00000000
10000000
10000000
,
00100000
00000000
00100000
00100000
,
00000000
00010000
00000000
00001000
,
00000000
00010000
00000000
00001000
,
00000000
00000010
00000000
00000100
,
00000000
00000010
00000000
00000100
,
00000000
00010000
00000000
00001000
,
00000000
00010000
00000000
00001000
,
00000000
00100000
00000000
01000000
,
00000000
00100000
00000000
01000000
,
10000000
10000000
10000000
10000000
,
00010000
00010000
00010000
00010000
,
00001000
00001000
00001000
00001000
,
00000001
00000001
00000001
00000001
,
00000000
00001001
00000000
00011000
,
00000000
10010000
00000000
00011000
,
00000000
00000110
00000000
00011000
,
00000000
01100000
00000000
00011000
,
00000000
00000010
00000000
00000001
,
00000000
00001000
00000000
00000100
,
00000000
00000010
00000000
00000001
,
00000000
00000100
00000000
00001000
,
00000000
00010000
00000000
01000000
,
00000000
10000000
00000000
00100000
,
00000000
01000000
00000000
00010000
,
00200000
00000000
00000000
00300000
,
00000000
00001000
00000000
00010000
,
00000000
00000010
00000000
00000100
,
00000000
00001000
00000000
00010000
,
00000000
00100000
00000000
01000000
,
00000000
00100000
00000000
01000000
,
00000000
00001000
00000000
00010000
,
00000000
00000100
00000000
00000010
,
00000200
00000000
00000000
00000300
,
00001000
00000001
00001000
00000001
,
00000100
00000010
00000100
00000010
,
00010000
00001000
00010000
00001000
,
00100000
01000000
00100000
01000000
,
00000000
10000000
00000000
10010000
,
00000000
00010000
00000000
00011000
,
00000000
00001000
00000000
00001001
,
00000100
00001000
00010000
01000000
,
00011000
00000000
00000000
00000000
,
00000000
00000000
00000000
00000000
;
#NOTES:
     dance-double:
     :
     Medium:
     10:
     :
00000000
00000000
00000000
00000000
,
00000000
00000000
00000000
00000000
,
00000000
00000000
00000000
00000000
,
00000000
00000000
00000000
00000000
,
00000000
00000000
00000000
00000000
,
00001000
00000000
00000000
00001000
00000000
00001000
00000000
00000000
,
00010000
00000000
00000000
00010000
00000000
00010000
00000000
00000000
,
00100000
00000000
00000000
00100000
00000000
00100000
00000000
00000000
,
02000000
00000000
00000000
03010000
,
00011000
00000010
00000100
00001000
,
00010000
00100000
01000000
00010000
,
00011000
00000100
00000001
00000010
,
00011000
01000000
10000000
00100000
,
00100000
10000000
01000000
00000000
00010000
00000000
00001000
00000000
,
00000010
00000001
00000100
00000000
00001000
00000000
00010000
00000000
,
00100000
00010000
00001000
00000000
00000010
00001000
00010000
00000000
,
00001000
00010000
00001000
00000000
00011000
00000000
00011000
00000000
,
00000000
00100000
00000000
00100000
00000000
10000000
00000000
01000000
,
00000000
00010000
00000000
01000000
00000000
00010000
00000000
00001000
,
00000000
00000010
00000000
00000010
00000000
00000001
00000000
00000100
,
00000000
00001000
00000000
00000100
00000000
00001000
00000000
00010000
,
00000010
00001000
00000010
00001000
00000000
00000010
00000000
00010000
,
00001000
00010000
00001000
00010000
00000000
00001000
00000000
00010000
,
00100000
00010000
00100000
00010000
00000000
00100000
00000000
01000000
,
00001000
00010000
00000000
00001000
00010000
00000000
00011000
00000000
,
00000010
00000000
00000100
00000000
00000001
00000100
00001000
00000000
,
00000100
00000000
00000010
00000000
00000100
00001000
00010000
00000000
,
00001000
00000000
00010000
00000000
01000000
10000000
00100000
00000000
,
01000000
00000000
00010000
00000000
10000000
01000000
00100000
00000000
,
00100000
00010000
01000000
00000000
00100000
00000000
00100000
00000000
,
00010000
00001000
00000010
00000000
00000100
00000000
00000100
00000000
,
00001000
00000001
00000100
00000000
00001000
00000000
00001000
00000000
,
00010000
01000000
10000000
00000000
10010000
00000000
01100000
00000000
,
10010000
01000000
00100000
00010000
,
00001000
00000100
00000010
00001001
,
00000010
00001000
00000001
00000100
,
00001000
00000000
00010000
00000000
00001000
00000100
00000001
00000000
,
00001001
00000010
00000100
00001000
,
00010000
00100000
01000000
10010000
,
00100000
01000000
10000000
00010000
,
00200000
00000000
00000000
01300000
,
10000000
00000000
01000000
00000000
00010000
00001000
00000100
00000000
,
00000001
00000000
00000100
00000000
00001000
00010000
01000000
00000000
,
00100000
00000000
01000000
00000000
00010000
00001000
00000100
00000000
,
00000010
00000000
00000100
00000000
00001000
00010000
01000000
00000000
,
10000000
01000000
00010000
00000000
00001000
00000000
00000010
00000000
,
00000001
00000100
00001000
00000000
00010000
00000000
00100000
00000000
,
00100000
00010000
00001000
00000000
00000010
00001000
00010000
00000000
,
01000000
00010000
01000000
00010000
00001000
00000100
00001000
00000100
,
00001000
00010000
00100000
11000000
,
00010000
00001000
00000010
00000101
,
00000010
00011000
00100000
00011000
,
01001000
00011000
00010100
00011000
,
00001000
00000000
00000100
00000000
00000001
00000010
00001000
00000000
,
00010000
00000000
01000000
00000000
10000000
00100000
00010000
00000000
,
00001000
00000100
00001000
00010000
,
01000000
00010000
00001000
00010000
,
00022000
00000000
00000000
00033000
,
00000000
00000000
00000000
00000000
;
#NOTES:
     dance-double:
     :
     Hard:
     12:
     :
00000000
00000000
00000000
00000000
,
00000000
00000000
00000000
00000000
,
00000000
00000000
00000000
00000000
,
00000000
00000000
00000000
00000000
,
00000000
00000000
00000000
00000000
,
00100000
01000000
00100000
01000000
00100000
01000000
00100000
01000000
,
00010000
00001000
00010000
00001000
00010000
00001000
00010000
00001000
,
00000100
00000010
00000100
00000010
00000100
00000010
00000100
00000010
,
00002000
00000000
00000000
00003000
,
00000010
00000000
00000100
00000000
00001000
00010000
01000000
00000000
,
10000000
00000000
00100000
00000000
10000000
00010000
01000000
00000000
,
00100000
00000000
01000000
00000000
00100000
10000000
01000000
00000000
,
00100000
00000000
01000000
00000000
00010000
00001000
00000100
00000000
,
00001000
00000100
00000001
00000000
00000010
00000000
00000010
00000000
,
00000001
00000100
00001000
00000000
00010000
00000000
00010000
00000000
,
00001000
00010000
00100000
00000000
00010000
00100000
01000000
00000000
,
00010000
10000000
01000000
00010000
00001000
00000100
00000001
00000000
,
00000001
00001000
00000001
00000010
00000001
00001000
00000001
00000100
,
00000001
00001000
00000001
00000010
00001000
00010000
00100000
00000000
,
10000000
00010000
10000000
00100000
10000000
00010000
10000000
01000000
,
10000000
00010000
10000000
00100000
00010000
00001000
00000100
00000000
,
00000001
00000100
00000001
00000100
00000010
00010000
00000010
00010000
,
00001000
00100000
00001000
00100000
01000000
10000000
01000000
10000000
,
00100000
01000000
00100000
01000000
00001000
00010000
00001000
00010000
,
00000010
00000100
00000010
00000100
00000001
00000000
00001000
00000000
,
00001001
00000000
00000100
00000000
00000010
00001000
00000100
00000000
,
00001001
00000000
00000100
00000000
00001000
00010000
01000000
00000000
,
10010000
00000000
00100000
00000000
01000000
00010000
00100000
00000000
,
10010000
00000000
01000000
00000000
00010000
00001000
00000100
00000000
,
00000001
00001000
00000100
00000010
,
00000001
00000100
00001000
00010000
,
00001000
00010000
00100000
10000000
,
00010000
01000000
00100000
10000000
,
00120000
10000000
01000000
10000000
,
01000000
10000000
00130000
00011000
,
00002010
00000001
00000100
00000001
,
00000100
00000001
00003010
00011000
,
00010000
00000000
00100000
00000000
10000000
01000000
00010000
00001000
,
00000000
00000100
00000000
00000001
00000000
00000010
00000000
00000000
,
00001000
00000000
00000010
00001000
00010000
00100000
10000000
00000000
,
00200000
00000000
00000000
01300000
,
10010000
00000000
00100000
00000000
00010000
00001000
00010000
00000000
,
00011000
00000000
00000100
00000000
00000001
00001000
00000010
00000000
,
00001001
00000000
00000010
00000000
00001000
00010000
00001000
00000000
,
00011000
00000000
01000000
00000000
10000000
00010000
00100000
00000000
,
01000000
00010000
00001000
00000000
00010000
00000000
00000010
00000000
,
00000100
00001000
00010000
00000000
00001000
00000000
00100000
00000000
,
01000000
00010000
00001000
00000000
00010000
00001000
00000100
00000000
,
00000010
00000100
00001000
00010000
00100000
00010000
00001000
00000000
,
00010000
00010000
01000000
01000000
10000000
10000000
00100000
00100000
,
00010000
00001000
00010000
00001000
00000100
00001000
00000100
00000000
,
00001000
00001000
00000100
00000100
00000001
00000001
00000010
00000010
,
00001000
00010000
00001000
00010000
01000000
00010000
01000000
00000000
,
00010000
00000000
00010000
00000000
01000000
10000000
00100000
00010000
,
00001000
00000000
00001000
00000000
00000100
00000001
00000010
00001000
,
00010000
00000010
00001000
00100000
,
00011000
00010100
00011000
01001000
,
00022000
00000000
00000000
00033000
,
00000000
00000000
00000000
00000000
;
#NOTES:
     dance-double:
     :
     Challenge:
     15:
     :
00000000
00000000
00000000
00000000
,
00000000
00000000
00000000
00000000
,
00000000
00000000
00000000
00000000
,
00000000
00000000
00000000
00000000
,
00000000
00000000
00000000
00000000
,
00000010
00000100
00000010
00000100
00000010
00000100
00000010
00000100
,
00001000
00010000
00001000
00010000
00001000
00010000
00001000
00010000
,
01000000
00100000
01000000
00100000
01000000
00100000
01000000
00100000
,
00020000
00000000
00000000
00030000
,
10000000
00000000
00100000
00000000
01000000
00000000
00100000
00000000
10000000
00000000
01000000
00100000
01000000
00000000
00100000
00000000
,
00010000
00000000
00100000
00000000
00001000
00000000
00010000
00000000
00000100
00000000
00010000
00001000
00010000
00000000
00001000
00000000
,
00010000
00000000
00000010
00000000
00001000
00000000
00000100
00000000
00001000
00000000
00000010
00000100
00000010
00000000
00001000
00000000
,
00000100
00000000
00000010
00000000
00000001
00000000
00001000
00000000
00000001
00000000
00000010
00000100
00000010
00000000
00000001
00000000
,
00000100
00000010
00010000
00001000
00000010
00001000
00010000
00000010
,
00000100
00001000
00000100
00001000
00010000
00100000
00010000
00100000
,
01000000
00000000
00010000
10000000
00010000
00000000
00100000
00000000
01000000
00000000
10000000
00010000
10000000
00000000
00100000
00000000
,
01000000
00010000
01000000
00000000
00010000
00100000
00010000
00000000
00100000
00000000
00001000
00000000
00010000
00000000
00000000
00000000
,
00001000
00000000
00010000
00000000
00000100
00000000
00001000
00000000
00000010
00000000
00000100
00000010
00000100
00000000
00000010
00001000
,
00000010
00000000
00001000
00000000
00000001
00000000
00000010
00000000
00000100
00000000
00001000
00000100
00010000
00000000
00001000
00010000
,
00001000
00000000
00010000
00000000
01000000
00000000
10000000
00000000
00010000
00000000
00100000
01000000
00100000
00000000
00010000
10000000
,
00010000
00000000
01000000
00000000
00100000
00000000
00010000
00000000
00100000
00000000
01000000
00010000
01000000
00000000
00000000
00000000
,
00010000
00000000
10000000
00000000
00100000
00000000
00010000
00000000
00001000
00000000
00010000
00001000
00010000
00000000
00001000
00100000
,
00001000
00000000
00010000
00000000
00001000
00000000
00000010
00000000
00000001
00000000
00001000
00000100
00001000
00000000
00000001
00000100
,
00000001
00000000
00000010
00000000
00000001
00000000
00000100
00000000
00000010
00000000
00001000
00000100
00001000
00000000
00000010
00001000
,
00000010
00000000
00000100
00000000
00001000
00000000
00010000
00000000
00100000
00000000
00010000
00001000
00010000
00000000
00000000
00000000
,
00001000
00010000
00001000
00010000
00100000
10000000
01000000
00010000
,
00001000
00010000
00001000
00010000
00001000
00000010
00001000
00010000
,
00001000
00000100
00001000
00000100
00000001
00000010
00001000
00010000
,
01000000
10000000
01000000
10000000
00100000
00010000
00001000
00000000
,
00010000
00001000
00000010
00000000
00001000
00010000
01000000
00000000
,
00010000
00001000
00000100
00000000
00001000
00010000
00100000
00000000
,
00010000
00001000
00000010
00000001
00000100
00001000
00010000
00000000
,
00100000
10000000
01000000
00010000
00001000
00000010
00000001
00000000
,
00001001
00000000
00000001
00000100
00000000
00001100
00000000
00011000
,
00000000
00110000
00000000
10100000
00000000
10010000
00000000
00000000
,
01100000
00000000
10000000
01000000
00000000
01000000
00010000
00001000
,
00000010
00000000
00000001
00000000
00000100
00000000
00000001
00000010
00000000
00000100
00001000
00000000
00000100
00010000
00001000
00010000
,
00001000
00000000
00010000
00100000
01000000
00100000
00010000
00001000
,
00000000
00010000
00000100
00010000
00000000
00001000
01000000
00001000
,
00010000
00000000
00000100
00001000
00000100
00000000
00000010
00000100
00000010
00000000
00000001
00000010
00000001
00000000
00001000
00000001
,
00002000
00000000
00000000
00003000
,
00000001
00000000
00000100
00000010
00000100
00000000
00000001
00000000
00001000
00000100
00001000
00000000
00000100
00000000
00000010
00000000
,
00000100
00000000
00010000
00001000
00010000
00000000
00001000
00000000
00100000
00010000
00100000
00000000
00010000
00000000
01000000
00000000
,
00100000
00000000
10000000
00010000
10000000
00000000
01000000
00000000
00100000
00010000
00100000
00000000
00001000
00000000
00010000
00000000
,
00000100
00000000
00001000
00000010
00001000
00000000
00000100
00000000
00000010
00000001
00000010
00000000
00000001
00000000
00001000
00000000
,
00000010
00000000
00000100
00000001
00000100
00000000
00000010
00001000
00000010
00000000
00001000
00000100
00001000
00000000
00000100
00010000
,
00000100
00000000
00010000
00001000
00010000
00000000
00001000
01000000
00001000
00000000
01000000
00010000
01000000
00000000
00010000
00100000
,
00010000
00000000
10000000
01000000
00100000
00000000
01000000
00100000
00010000
00000000
00100000
00001000
00010000
00000000
00001000
00010000
,
00000100
00000100
00001000
00001000
00000001
00000000
00001001
00000000
,
00000101
00000100
00000110
00000010
00010010
00010000
00011000
00001000
,
01001000
01000000
01010000
00010000
10010000
10000000
10100000
00100000
,
10100000
10000000
11000000
01000000
01010000
00010000
00011000
00001000
,
00001010
00000010
00000011
00000001
00000101
00000110
00001010
00000000
,
00000001
00000100
00000001
00000000
00001000
00000100
00001000
00000000
00000100
00010000
00001000
00000000
00010000
00001000
01000000
00000000
,
00100000
10000000
00010000
00000000
00100000
01000000
00100000
00000000
00010000
00100000
00001000
00000000
00010000
00000010
00001000
00000000
,
00001100
00000110
00000011
00000001
00000101
00000110
00001010
00001000
,
00000010
00010000
00000010
00000000
00010000
00000100
00010000
00000000
00001000
00010000
00001000
00010000
00001000
00010000
00001000
00000000
,
00022000
00000000
00000000
00033000
,
00000000
00000000
00000000
00000000
;
