
//----- song ID: tars -----//
#TITLE:321STARS;
#ARTIST:DJ SIMON;
#BANNER:321STARS.png;
#BACKGROUND:321STARS-bg.png;
#CDTITLE:./CDTitles/beatmania.png;
#MUSIC:321STARS.ogg;
#SAMPLESTART:18.748;
#SAMPLELENGTH:15;
#DISPLAYBPM:192;
#BPMS:0=192.513,4=191.984,202=192.083;
#STOPS:202=0.467;
#BGSTAGE:1;
#NOTES:
     dance-single:
     :
     Beginner:
     4:
     :
0000
0000
0000
0000
,
0000
0000
0000
0000
,
0000
0000
0000
0000
,
0010
0000
0000
0000
,
1000
0000
0001
0000
,
0010
0000
0000
0000
,
0001
0000
1000
0000
,
0100
0000
0000
0000
,
0001
0000
1000
0000
,
0100
0000
0000
0000
,
1000
0000
0001
0000
,
0100
0000
0000
0000
,
0010
0000
0000
0000
,
0100
0000
0100
0000
,
0001
0000
1000
0000
,
0010
0000
0100
0000
,
0000
0000
1000
0000
,
0100
0000
0010
0000
,
0000
0000
0001
0000
,
0010
0000
0010
0000
,
1000
0000
0001
0000
,
1000
0000
0000
0000
,
0001
0000
0000
0000
,
0010
0000
0010
0000
,
0000
0000
0010
0000
,
0100
0000
0100
0000
,
0000
0000
0100
0000
,
0010
0000
0010
0000
,
0001
0000
1000
0000
,
0001
0000
0000
0000
,
1000
0000
0000
0000
,
0000
0001
0000
0001
,
0000
1000
0000
1000
,
0000
0010
0000
0010
,
0000
1000
0000
1000
,
0000
0001
0000
0001
,
0000
1000
0000
1000
,
0000
0010
0000
0010
,
0000
0100
0000
0000
,
0010
0000
0000
0000
,
1000
0000
1000
0000
,
0010
0000
0000
0000
,
0001
0000
0001
0000
,
0100
0000
0000
0000
,
0010
0000
0010
0000
,
0010
0000
0000
0000
,
0100
0000
0100
0000
,
0001
0000
0000
0000
,
1000
0000
0000
0000
,
0010
0000
0000
0000
,
1001
0000
0000
0000
,
0001
0000
0001
0000
,
0010
0000
0001
0000
,
1000
0000
1000
0000
,
0100
0000
1000
0000
,
0010
0000
0100
0000
,
0010
0000
0000
0000
,
0000
1000
0000
0001
,
0000
0100
0000
0000
,
1000
0000
0001
0000
,
1000
0000
0001
0000
,
0100
0000
0100
0000
,
0010
0000
0000
1001
,
0000
0000
0000
0000
;
#NOTES:
     dance-single:
     :
     Easy:
     5:
     :
0000
0000
0000
0000
,
0000
0000
0000
0000
,
0000
0000
0000
0000
,
0010
0000
0100
0000
,
1000
0100
0001
0000
,
0010
0000
0100
0000
,
0001
0100
1000
0000
,
0100
0000
0010
0000
,
0001
0100
1000
1000
,
0100
0000
0010
0000
,
1000
0100
0001
0001
,
1000
0000
1000
0000
,
0001
0000
0001
0000
,
0100
0100
0100
0100
,
0001
0100
1000
0000
,
0010
0100
0100
0000
,
0000
0000
1000
0001
,
0100
0010
0010
0000
,
0000
0000
0001
1000
,
0010
0100
0010
0000
,
1000
0000
0001
0000
,
2000
0000
3000
0000
,
0002
0000
0003
0000
,
0010
0100
0010
0000
,
0000
0000
0010
0001
,
0100
0010
0100
0000
,
0000
0000
0100
1000
,
0010
0100
0010
0000
,
0001
0000
1000
0000
,
0002
0000
0003
0000
,
2000
0000
3000
0000
,
0000
0001
0000
0001
,
0000
0100
1000
0100
,
0000
1000
0000
1000
,
0000
0100
0001
0100
,
0000
0001
0000
0001
,
0000
1000
0000
1000
,
0000
0010
0000
0010
,
0100
0100
0100
0100
,
0010
0000
0010
0000
,
1000
0001
1000
0000
,
0010
0000
0010
0000
,
0001
1000
0001
0000
,
0100
0000
0100
0000
,
0010
0100
0010
0100
,
0001
0000
1000
0000
,
0001
1000
0001
1000
,
0001
0000
0001
0000
,
1000
0000
1000
0000
,
0010
0010
0010
0000
,
1001
0000
0000
0000
,
0001
0000
0001
0000
,
0010
0000
1001
0000
,
1000
0000
1000
0000
,
0100
0000
1001
0000
,
0010
0000
0100
0000
,
0010
0000
1001
0000
,
0000
1000
0000
0001
,
0100
0100
0100
0000
,
1000
0000
0001
0000
,
1000
0000
0001
0000
,
0100
0100
0100
0100
,
0001
0100
1000
0200
,
0000
0300
0000
0000
,
0000
0000
0000
0000
;
#NOTES:
     dance-single:
     :
     Medium:
     9:
     :
0000
0000
0000
0000
,
0000
0000
0000
0000
,
0000
0000
0000
0000
,
2000
0000
0000
0001
0000
0001
3000
0001
,
0000
0100
0000
0010
0100
0000
0000
0000
,
0002
0000
0000
1000
0000
1000
0003
1000
,
0000
0100
0000
0010
0100
0000
0000
0000
,
0020
0000
0000
0100
0000
0100
0030
0100
,
0000
0001
0000
1000
0010
0000
0010
0000
,
0200
0000
0000
0010
0000
0010
0300
0010
,
0000
1000
0000
0001
0100
0000
0100
0000
,
1000
0001
1000
0001
,
1000
0001
1000
0001
,
0001
0100
0001
0100
0001
0100
0001
0000
,
0010
0100
1000
0000
,
0100
0010
1000
0000
,
0001
0001
1000
0100
,
0010
0100
1000
0000
,
0001
0001
1000
0100
,
0001
0010
1000
0010
,
0100
0001
0010
1000
,
0002
0010
0100
1000
,
0100
0010
0100
1003
,
0010
0000
0100
0000
1000
0001
0000
2000
,
0000
0000
0000
3001
0000
0010
0100
0000
,
1000
0000
0010
0000
0001
1000
0000
0200
,
0000
0000
0000
0310
0100
0000
1000
0000
,
0010
0100
0001
1000
,
0010
1000
0100
0001
,
2000
0100
0010
0001
,
0010
0100
0010
3001
,
0100
0001
1000
0001
,
1000
0010
0000
0100
0000
0000
0010
0000
,
1000
0000
0001
0100
0001
1000
0000
0010
,
0000
0100
0000
0001
0000
0000
0100
0000
,
0010
1000
0001
1000
,
0001
0100
0000
0010
0000
0000
0100
0000
,
2000
0000
3200
0000
,
0310
0100
1000
0001
,
2000
0000
0000
0010
0000
3100
0000
0010
,
0000
1000
0000
0001
0100
0000
0000
0000
,
0002
0000
0000
0010
0000
0103
0000
0010
,
0000
0001
0000
1000
0100
0000
0000
0000
,
0020
0000
0000
0001
0000
0031
0000
1000
,
0000
0100
0000
0010
1000
0000
1000
0000
,
0200
0000
0000
1000
0000
1300
0000
0001
,
0000
0010
0000
0100
0001
0000
0001
0000
,
1000
0010
1000
0010
,
1000
0100
1000
0100
,
0010
0100
0010
0100
0010
0100
0010
0000
,
0001
0000
0010
1000
0000
0000
0000
0000
,
1000
0010
1000
0010
,
0100
0001
0000
1000
0000
0000
0001
0000
,
0100
0000
0010
0000
0100
0001
0000
1000
,
0000
0010
0000
0100
0000
0000
0000
0000
,
0001
0010
0001
0010
,
0100
1000
0000
0001
0000
0000
0100
0000
,
1000
0001
1000
0001
,
0100
0100
0100
0100
,
0010
1001
0010
1001
,
0100
1001
0100
1001
,
0001
0100
0001
0100
0001
0100
0001
0000
,
0010
0100
1000
0002
,
0000
0000
0003
0000
,
0000
0000
0000
0000
;
#NOTES:
     dance-single:
     :
     Hard:
     11:
     :
0000
0000
0000
0000
,
0000
0000
0000
0000
,
0000
0000
0000
0100
,
0001
0000
1000
0100
1000
0001
1000
0100
,
0000
1000
0000
1000
0001
0000
0000
0000
,
1000
0000
0001
0100
0001
1000
0001
0100
,
0000
0001
0000
0001
1000
0000
0000
0000
,
0010
0000
0100
0001
0100
0010
0100
0001
,
0000
1000
0000
0010
0100
0000
0001
0000
,
0100
0000
0010
0001
0010
0100
0010
0001
,
0000
1000
0000
1000
0010
0000
0100
0000
,
0010
1001
0010
1001
,
0100
1001
0100
1001
,
0010
0100
0010
0100
0010
0100
0010
0100
,
0001
0100
1000
0000
,
0010
0000
0100
0000
1000
0010
1000
0001
,
0000
0010
0000
0001
1000
0000
0000
0000
,
0001
0000
1000
0000
0010
1000
0010
0100
,
0000
1000
0000
1000
0001
0000
0000
0000
,
1000
0000
0100
0000
0001
1000
0001
0100
,
0000
0010
0100
0010
1000
0000
0100
0000
,
0001
0010
0001
0100
0010
0100
0010
1000
,
0100
0010
0001
0010
0100
1000
0010
1000
,
0010
0000
0100
0000
0001
0010
0001
2000
,
0100
3100
0010
0100
,
0010
0000
0100
0000
1000
0100
1000
0002
,
0010
0013
0100
0010
,
0100
0000
0010
0000
1000
0001
0100
0010
,
0000
1000
0100
1000
0010
0000
0001
0000
,
1000
0100
1000
0010
0100
0010
0100
0001
,
0010
0100
1000
0100
0010
0001
0100
0000
,
0001
1000
0100
1000
0001
1000
0100
1000
,
0001
0100
0010
0100
0000
0001
1000
0000
,
0010
0100
0001
0100
0010
1000
0001
0100
,
0000
1000
0000
0001
0000
0000
0000
0000
,
1000
0001
0100
0001
1000
0001
0100
0001
,
1000
0100
0010
0100
0000
1000
0001
0000
,
1000
0010
0100
0001
0100
0010
0000
0200
,
0000
0000
0000
0300
,
0010
0000
1000
0001
0100
0010
0000
0100
,
0000
1000
0000
0001
2000
0000
0000
3000
,
0010
0000
0001
1000
0010
0100
0000
1000
,
0000
0100
0000
1000
0002
0000
0000
0003
,
0010
0000
0100
1000
0100
0001
0000
0010
,
0000
1000
0000
0001
0100
0000
1000
0000
,
0001
0000
0100
0010
1000
0010
0000
0100
,
0000
1000
0000
0010
0100
0000
0000
0000
,
0010
0101
0010
0101
,
0010
1100
0010
1100
,
0001
0100
0001
0100
0001
0100
0001
0100
,
1000
0000
0010
0001
0000
0000
0000
0000
,
1000
0000
0000
0000
0000
0000
0000
0000
0010
0000
0000
0000
0000
0000
0000
0010
,
0100
0100
1001
0000
,
0010
0000
0000
0000
0000
0000
0000
0000
1000
0000
0000
0000
0000
0000
0000
1000
,
0001
0000
0000
0000
0001
0000
0000
1000
0010
0000
0000
1000
0010
0000
0000
1000
,
0010
0000
0000
0000
0000
0000
0000
0000
0001
0000
0000
0000
0000
0000
0000
0001
,
0000
1000
0001
0200
0000
0000
0300
0000
,
1000
0001
1000
0001
,
1000
0100
1000
0100
0010
0001
0010
0001
,
0010
1001
0010
1001
,
0010
1001
0010
1001
,
0100
0001
0100
1000
0100
0001
0100
1000
,
0001
0100
1000
0020
,
0000
0000
0030
0000
,
0000
0000
0000
0000
;
#NOTES:
     dance-single:
     :
     Challenge:
     14:
     :
0000
0000
0000
0000
,
0000
0000
0000
0000
,
0000
0000
0000
0110
,
0001
0000
1000
0100
1000
0001
1000
0100
,
1000
0001
0000
0001
0200
0000
0310
0000
,
1000
0000
0001
0100
0001
1000
0001
0100
,
0001
1000
0000
1000
0200
0000
0310
0000
,
0001
0000
0100
0001
0100
0010
0100
0001
,
1000
1000
0000
0010
0100
0000
1001
0000
,
1000
0000
0010
1000
0010
0100
0010
1000
,
0001
0001
0000
0100
0010
0000
1001
0000
,
0010
0000
1001
0010
0100
0000
1001
0100
,
0010
0000
1001
0010
0100
0000
1001
0000
,
0001
0100
0001
0100
1000
0100
0010
1000
,
0001
0100
1000
0110
,
0010
0000
0100
0000
0001
0010
0001
1000
,
0000
0010
0000
0010
1000
0100
0010
0001
,
0010
0000
0100
0000
1000
0010
1000
0001
,
0000
0010
0000
0100
1000
0100
0010
0001
,
0010
0000
0100
0000
1000
0010
0001
0010
,
0000
0010
0100
0010
1000
0000
0100
0000
,
1000
0010
0001
0010
1000
0100
1000
0010
,
1000
0000
0100
0010
0001
0000
0010
0100
1000
0000
0100
1000
0001
0000
1000
0000
,
0010
0000
0100
0000
0001
0010
0001
2000
,
0010
0000
0000
0000
3100
0000
1000
0000
1000
0000
0100
0000
0010
0000
0001
0010
,
0001
0000
0100
0000
0001
0010
0001
2000
,
0010
0000
0000
0000
3100
0000
1000
0000
0001
0000
1000
0100
0010
0000
0001
0000
,
1000
0000
0010
0000
1000
0001
0100
0010
,
0000
0000
0010
0000
0100
0000
0001
0100
0010
0000
0000
0000
1000
0000
0000
0000
,
0001
0010
1000
0010
0001
0100
0001
0010
,
0001
0000
0100
0010
1000
0000
0010
0100
0001
0000
1000
0000
0001
0000
1000
0000
,
0001
0000
1000
0001
1001
0000
1000
0001
,
1000
0000
0100
0000
0010
0000
0110
0000
0000
0000
0001
0000
1000
0000
0001
0010
,
0001
0100
0001
0100
0010
1000
0001
0100
,
0000
0000
0001
0000
0000
0000
1000
0000
0000
0000
0100
1000
0100
0000
0000
0000
,
1001
0000
0100
0000
1001
0000
0001
0100
,
0100
0001
0000
1010
0000
0001
0100
0010
,
0100
0000
0001
0100
0001
1000
0000
0200
,
1000
0010
0301
1001
,
0110
0000
1000
0001
0100
0010
1000
0001
,
1000
0100
0000
0100
2000
0000
3001
0000
,
1000
0000
0001
1000
0010
0100
0001
1000
,
0001
0010
0000
0010
0002
0000
1003
0000
,
0001
0000
0100
1000
0100
0001
0100
0010
,
0100
0000
1000
0000
0100
0000
0001
0000
0100
0001
0100
0000
0002
0000
0000
0000
,
1003
0000
0000
0000
0100
0000
1000
0000
0100
0000
0001
0000
0100
0000
0010
0100
,
1000
0100
1000
0001
2000
0000
3002
0000
,
0013
0000
1001
0010
0010
0000
1001
0100
,
0100
0000
1001
0010
0010
0000
1001
0000
,
1000
0100
1000
0100
1000
0100
1000
0100
,
0001
0000
0000
0100
0000
0000
1000
0000
0000
0000
1000
0000
0100
0000
0010
0000
,
0001
0000
0000
0000
1000
0000
0100
0000
0010
0000
0000
0000
0001
0000
0010
0001
,
0010
0000
0001
0000
1000
0000
1001
0000
0000
0000
1000
0000
0010
0000
0100
0010
,
0100
0000
0010
0100
0010
1000
0000
0001
,
0000
0000
0010
0000
0000
0000
0100
1000
0100
0000
0010
0100
0010
0000
0001
0010
,
0001
0000
0000
0000
1000
0000
0100
0000
0010
0000
0000
0000
0001
0000
0010
0001
,
0010
0001
0000
0200
0000
0000
0300
0000
,
0001
0000
1000
0100
0001
0100
0000
1000
,
0001
0100
0001
0100
0010
1000
0010
1000
,
0001
0000
1000
0100
0001
0000
1000
0010
,
0001
0000
1000
0100
0001
0000
1000
0010
,
0001
0010
0001
0010
1000
0010
0001
0100
,
1000
0100
0010
0200
,
0000
0000
0300
0000
,
0000
0000
0000
0000
;
#NOTES:
     dance-double:
     :
     Easy:
     5:
     :
00000000
00000000
00000000
00000000
,
00000000
00000000
00000000
00000000
,
00000000
00000000
00000000
00000000
,
10000000
00000000
00010000
00000000
,
01000000
00000000
00001000
00000000
,
00010000
00000000
00000100
00000000
,
00000010
00000000
00000001
00000000
,
00000001
00000000
00001000
00000000
,
00000100
00000000
00010000
00010000
,
00001000
00000000
01000000
00000000
,
00100000
00000000
10000000
00000000
,
00010000
00000000
00010000
00000000
,
00100000
00000000
00100000
00000000
,
00001000
00010000
00001000
00010000
,
00000010
00001000
00000010
00000000
,
00000001
00000001
00001000
00000000
,
00000010
00000000
00001000
00000100
,
00010000
00010000
00001000
00000000
,
00100000
00000000
00010000
01000000
,
00010000
00000000
10000000
00000000
,
00010000
00000000
10000000
00000000
,
02000000
00000000
03000000
00000000
,
00200000
00000000
00300000
00000000
,
00001000
00001000
00010000
00000000
,
00000010
00000000
00001000
00000100
,
00001000
00001000
00000001
00000000
,
00000001
00000000
00000010
00000100
,
00010000
00010000
00001000
00000000
,
00100000
00000000
01000000
00000000
,
00002000
00000000
00003000
00000000
,
00200000
00000000
00300000
00000000
,
00000000
00010000
00000000
00010000
,
00000000
00100000
10000000
10000000
,
00000000
01000000
00000000
00001000
,
00000000
00010000
00001000
00010000
,
00000000
00000100
00000000
00000100
,
00000000
00001000
00000001
00001000
,
00000000
00000100
00000000
00000100
,
00010000
00001000
01000000
00010000
,
00100000
00000000
00010000
00000000
,
01000000
00001000
00001000
00000000
,
00010000
00000000
00000010
00000000
,
00000100
00000100
00000001
00000000
,
00000001
00000000
00001000
00000000
,
00000100
00000100
00010000
00010000
,
00001000
00000000
00100000
00000000
,
01000000
01000000
10000000
00010000
,
00100000
00000000
01000000
00000000
,
00001000
00000000
00010000
00000000
,
00001000
00010000
00000010
00000100
,
00000001
00001000
00000000
00000000
,
00010000
00000000
00001000
00000000
,
00100000
00000000
01100000
00000000
,
01000000
00000000
00010000
00000000
,
10000000
00000000
10010000
00000000
,
00100000
00000000
00001000
00000000
,
00010000
00000000
00011000
00000000
,
00000000
00000010
00000000
00000100
,
00000001
00000001
00000001
00000000
,
00000100
00000000
00000010
00000000
,
00010000
00000000
00001000
00000000
,
00010000
00001000
00010000
00001000
,
01000000
00100000
10000000
00020000
,
00000000
00030000
00000000
00000000
,
00000000
00000000
00000000
00000000
;
#NOTES:
     dance-double:
     :
     Medium:
     8:
     :
00000000
00000000
00000000
00000000
,
00000000
00000000
00000000
00000000
,
00000000
00000000
00000000
00000000
,
01000000
00000000
01000000
00000000
00100000
00000000
10000000
01000000
,
00010000
00001000
00000110
00000000
,
00000100
00000000
00000100
00000000
00000010
00000000
00000001
00000100
,
00001000
00010000
01100000
00000000
,
10000000
10000000
00100000
01000000
,
00100000
00010000
00001000
00011000
,
00000010
00000000
00000010
00000000
00000100
00000000
00000010
00001000
,
00000001
00000100
00001000
00011000
,
00100000
00001000
01000000
00001000
,
00000010
00010000
00000100
00010000
,
00001000
00010000
00001000
00010000
00001000
00010000
00001000
00000000
,
00100000
00010000
11000000
00000000
,
00100000
01000000
10000000
00000000
,
01000000
01000000
00010000
00001000
,
00000100
00000010
00000001
00000000
,
00000100
00000100
00001000
00010000
,
00100000
01000000
10000000
01000000
,
00010000
10000000
01000000
00100000
,
00001000
00000010
00000001
00000100
,
00001000
00010000
01000000
10000000
,
00100000
00000000
10000000
00000000
01000000
00100000
00000000
00001000
,
00000000
00000000
00000000
00100000
00000000
00010000
01000000
00000000
,
10000000
00000000
00100000
00000000
01000000
00001000
00000000
00010000
,
00000000
00000000
00000000
00000100
00001000
00000000
00000010
00000000
,
00000010
00000100
00000001
00000100
,
00001000
00000001
00000100
00000010
,
00010000
00100000
10000000
01000000
,
00010000
00001000
00000100
00000001
,
00000010
00000001
00001000
00000001
,
00001000
00000100
00000000
00001000
00000000
00000000
00010000
00000000
,
01000000
00000000
00010000
01000000
00010000
10000000
00000000
00010000
,
00000000
00001000
00000000
00000001
00000000
00000000
00001000
00000000
,
00000010
00000100
00000001
00000100
,
00000001
00000100
00000000
00001000
00000000
00000000
00010000
00000000
,
00200000
00000000
20000000
30300000
,
01010000
00011000
00001010
00000000
,
00000002
00000000
00000000
00001000
00000000
00001003
00000000
00000010
,
00000000
00001000
00000000
00000001
00000100
00000000
00000000
00000000
,
00002000
00000000
00000000
00010000
00000000
00013000
00000000
00100000
,
00000000
01000000
00000000
00010000
01000000
00000000
00000000
00000000
,
20000000
00000000
00000000
00010000
00000000
30010000
00000000
00100000
,
00000000
00010000
00000000
10000000
01000000
00000000
01000000
00000000
,
00020000
00000000
00000000
00001000
00000000
00031000
00000000
00000010
,
00000000
00000100
00000000
00001000
00000100
00000000
00010000
00000000
,
00000010
00010000
00000010
00010000
,
00100000
00001000
00100000
00001000
,
00100000
00010000
00100000
00010000
00100000
00010000
00100000
00000000
,
00010000
00000000
10000000
01000000
00000000
00000000
00000000
00000000
,
10000000
00100000
10000000
00100000
,
01000000
00010000
00000000
00011000
00000000
00000000
00000100
00000000
,
00000010
00000000
00000001
00000000
00000010
00000001
00000000
00001000
,
00000000
00000100
00000000
00011000
00000000
00000000
00000000
00000000
,
01000000
00010000
01000000
10000000
,
00100000
01000000
00000000
00011000
00000000
00000000
00000010
00000000
,
00001000
00000001
00001000
00000001
,
00000100
00001000
00010000
00001000
,
01000000
00011000
00000100
00011000
,
00100000
00011000
00000010
00011000
,
00001000
00010000
00001000
00010000
00001000
00010000
00001000
00000000
,
00100000
01000000
10000000
00020000
,
00000000
00000000
00030000
00000000
,
00000000
00000000
00000000
00000000
;
#NOTES:
     dance-double:
     :
     Hard:
     11:
     :
00000000
00000000
00000000
00000000
,
00000000
00000000
00000000
00000000
,
00000000
00000000
00000000
01000000
,
10000000
00000000
00100000
01000000
00100000
01000000
00010000
10000000
,
00000000
01000000
00000000
00010000
00001000
00000000
00000000
00000000
,
00000100
00000000
00000010
00000100
00000010
00000100
00001000
00000001
,
00000000
00000100
00000000
00001000
00010000
00000000
00000000
00000000
,
01000000
00000000
10000000
00100000
10000000
00100000
01000000
00010000
,
00000000
10000000
00000000
01000000
00010000
00000000
00001000
00000000
,
00000100
00000000
00000001
00000010
00000001
00000010
00000100
00001000
,
00000000
00000001
00000000
00000100
00001000
00000000
00010000
00000000
,
00100000
00011000
00000010
00011000
,
00100000
00011000
00000010
00011000
,
00001000
00010000
00001000
00010000
00001000
00010000
00001000
00010000
,
00000010
00001000
00000001
00000000
,
00000100
00000000
00001000
00000000
00010000
00001000
00010000
00001000
,
00000000
00100000
00000000
00010000
10000000
00000000
00000000
00000000
,
01000000
00000000
00010000
00000000
00001000
00010000
00001000
00010000
,
00000000
00000010
00000000
00001000
00000001
00000000
00000000
00000000
,
00000001
00000000
00001000
00000000
00000010
00000100
00000010
00000100
,
00000000
00000010
00001000
00000001
00000100
00000000
00001000
00000000
,
00010000
00001000
00100000
00010000
00100000
01000000
10000000
01000000
,
10000000
00010000
00100000
00010000
10000000
01000000
10000000
00010000
,
00100000
00000000
00001000
00000000
00010000
00001000
00010000
00002000
,
00000000
00000000
00000000
00013000
00000000
00010000
00000010
00001000
,
00000010
00000000
00010000
00000000
00001000
00010000
00001000
00020000
,
00000000
00000000
00000000
00031000
00010000
00001000
01000000
00000000
,
00010000
00000000
01000000
00000000
10000000
01000000
10000000
00010000
,
00000000
10000000
00100000
10000000
01000000
00000000
00010000
00000000
,
00001000
00010000
00000010
00001000
00000010
00000100
00000001
00000100
,
00000001
00001000
00000010
00001000
00000001
00000100
00000001
00000000
,
00000100
00001000
00000100
00000001
00000100
00001000
00000100
00000001
,
00000100
00001000
00000000
00010000
00000000
00100000
10000000
00000000
,
00100000
10000000
00100000
00010000
00100000
10000000
00100000
00010000
,
00000000
01000000
00000000
00001000
00000000
00000000
00000000
00000000
,
00010000
00001000
00010000
00000100
00001000
00000100
00001000
00000001
,
00001000
00000001
00000100
00000001
00000000
00001000
00000100
00000000
,
00010000
00001000
00100000
00010000
10000000
00010000
00000000
02000000
,
00000000
00000000
00000000
03000000
,
00100000
00000000
10000000
00010000
10000000
00010000
00000000
10000000
,
00000000
01000000
00000000
00010000
00002000
00000000
00000000
00003000
,
00000010
00000000
00000001
00001000
00000001
00001000
00000000
00000001
,
00000000
00000100
00000000
00001000
00020000
00000000
00000000
00030000
,
00100000
00000000
10000000
00010000
10000000
01000000
00000000
00100000
,
00000000
10000000
00000000
01000000
00010000
00000000
00001000
00000000
,
00000010
00000000
00000001
00001000
00000001
00000100
00000000
00000010
,
00000000
00000001
00000000
00000100
00001000
00000000
00000000
00000000
,
00100000
00011000
00000010
00011000
,
01000000
00011000
00000100
00011000
,
00001000
00010000
00001000
00010000
00001000
00010000
00001000
00010000
,
00001000
00000000
00100000
00010000
00000000
00000000
00000000
00000000
,
10000000
00000000
00000000
00000000
00000000
00000000
00000000
00000000
00010000
00000000
00000000
00000000
00000000
00000000
00000000
00100000
,
00010000
00010000
00011000
00000000
,
00000010
00000000
00000000
00000000
00000000
00000000
00000000
00000000
00000001
00000000
00000000
00000000
00000000
00000000
00000000
00001000
,
00000100
00000000
00000000
00000000
00000100
00000000
00000000
00010000
00001000
00000000
00000000
00010000
00001000
00000000
00000000
00010000
,
00001000
00000000
00000000
00000000
00000000
00000000
00000000
00000000
00100000
00000000
00000000
00000000
00000000
00000000
00000000
00010000
,
00000000
10000000
00010000
02000000
00000000
00000000
03000000
00000000
,
00100000
00001000
00100000
00001000
,
00010000
00001000
00010000
00000100
00001000
00000100
00001000
00000100
,
00000010
00000011
00000001
00000101
,
00000010
00001010
00010000
00011000
,
01000000
00010000
01000000
00010000
10000000
01000000
10000000
01000000
,
00010000
01000000
10000000
02200000
,
00000000
00000000
03300000
00000000
,
00000000
00000000
00000000
00000000
;
#NOTES:
     dance-double:
     :
     Challenge:
     15:
     :
00000000
00000000
00000000
00000000
,
00000000
00000000
00000000
00000000
,
00000000
00000000
00000000
00011000
,
00010000
00000000
00001000
01000000
00010000
00100000
10000000
00100000
,
01000000
00010000
00000000
00001000
00020000
00000000
00031000
00000000
,
00001000
00000000
00010000
00000100
00001000
00000010
00000001
00000010
,
00000100
00001000
00000000
00010000
00002000
00000000
00013000
00000000
,
00001000
00000000
01000000
00010000
01000000
00001000
01000000
00010000
,
00100000
00100000
00000000
00001000
00010000
00000000
00011000
00000000
,
00010000
00000000
00000100
00001000
00000100
00010000
00000100
00001000
,
00000010
00000010
00000000
00010000
00001000
00000000
00011000
00000000
,
00110000
00011000
00001010
00011000
,
00110000
00011000
00001010
00011000
,
00010000
00100000
10000000
01000000
00010000
00001000
00000010
00000001
,
00000100
00001000
00010000
00011000
,
00001000
00000000
01000000
00000000
00010000
00100000
00010000
10000000
,
00000000
00100000
00000000
00100000
01000000
00100000
00010000
00001000
,
00010000
00000000
00000100
00000000
00001000
00000010
00001000
00000001
,
00000000
00000100
00000000
00000100
00000010
00000100
00001000
00010000
,
00100000
00000000
01000000
00000000
00010000
00100000
00001000
00010000
,
00000000
00000100
00001000
00000010
00000001
00000000
00000010
00000000
,
00000001
00000010
00001000
00010000
01000000
00100000
10000000
00100000
,
10000000
00000000
01000000
00000000
00100000
00000000
00001000
00000000
00010000
00000000
00001000
00010000
00000100
00000000
00001000
00000000
,
00000001
00000000
00001000
00000000
00000010
00010000
00001000
00200000
,
00001000
00000000
00310000
00100000
00100000
01000000
10000000
00010000
,
10000000
00000000
00010000
00000000
00100000
00001000
00010000
00000020
,
00010000
00000000
00001030
00000010
00000010
00001000
00000100
00010000
,
00001000
00000000
00010000
00000000
00001000
00000010
00000001
00000100
,
00000000
00000000
00001000
00000000
00010000
00000000
00001000
01000000
00001000
00000000
00000000
00000000
00100000
00000000
00000000
00000000
,
00010000
00100000
10000000
00100000
00010000
00001000
00000100
00000001
,
00000100
00000000
00010000
00000100
00010000
00000000
00001000
01000000
00001000
00000000
01000000
00000000
00100000
00000000
00010000
00000000
,
00001000
00000000
01000000
00100000
00010000
00000000
00100000
00010000
,
00001000
00000100
00000010
00000010
00000000
00000001
00000010
00000100
,
00001000
00000000
00000100
00001000
00000100
00001000
00000000
00010000
,
00000000
00001000
00000000
00000100
00000000
00000001
00000010
00000100
,
00001000
00000000
00000010
00000100
00001000
00000000
00000100
00001000
,
00010000
00100000
00000000
10000000
00000000
00010000
00100000
00010000
,
00100000
00000000
00010000
00001000
00000100
00000010
00000000
00000100
,
00002000
00003000
00020000
00030000
00200000
00300000
00101000
00000000
,
00001000
00000000
00010000
00000010
00001000
00000100
00000001
00000100
,
00000010
00001000
00000000
00010000
00002000
00000000
00013000
00000000
,
00010000
00000000
00001000
00100000
00010000
01000000
10000000
01000000
,
00100000
00010000
00000000
00001000
00020000
00000000
00031000
00000000
,
00010000
00000000
00000010
00001000
00000010
00010000
00000010
00001000
,
00000100
00000100
00000000
00010000
00001000
00000000
00011000
00000000
,
00001000
00000000
00100000
00010000
00100000
00001000
00100000
00010000
,
01000000
01000000
00000000
00001000
00010000
00000000
00011000
00000000
,
00110000
00000000
00011000
00000100
00000100
00000000
00011000
01000000
,
01000000
00000000
00011000
00000100
00000100
00000000
00011000
00000000
,
00010000
00001000
00010000
00001000
00010000
00001000
00010000
00001000
,
00010000
00000000
00000000
01000000
00000000
00000000
10000000
00000000
00000000
00000000
10000000
00000000
01000000
00000000
00100000
00000000
,
00010000
00000000
00000000
00000000
01000000
00000000
00100000
00000000
00010000
00000000
00000000
00000000
00001000
00000000
00010000
00001000
,
00010000
00000100
00000010
00000110
00000000
00000010
00000100
00001000
,
00010000
00000000
01000000
00010000
01000000
00010000
00000000
01000000
,
00000000
00000000
00001000
00000000
00000000
00000000
00010000
00001000
00010000
00000000
00000000
00000100
00000010
00000000
00000000
00000010
,
00000001
00000000
00000001
00000010
00000100
00000000
00000010
00000100
,
00001000
00010000
00000000
01000000
00000000
01000000
00100000
00010000
,
00001000
00000000
00010000
00001000
00000100
00000010
00000000
00000100
,
00000001
00000100
00001000
00010000
00100000
10000000
00100000
10000000
,
10100000
11000000
01100000
00101000
,
00011000
00010100
00000110
00000011
,
00000001
00000100
00001000
00010000
00100000
10000000
01000000
00010000
,
00001000
00000010
00000001
00000200
,
00000000
00000000
00000300
00000000
,
00000000
00000000
00000000
00000000
;
