#TITLE:electro peaceful;
#SUBTITLE:;
#ARTIST:Mr.T;
#TITLETRANSLIT:;
#SUBTITLETRANSLIT:;
#ARTISTTRANSLIT:;
#GENRE:jubeat;
#CREDIT:;
#BANNER:electro peaceful.png;
#BACKGROUND:electro peaceful-bg.png;
#LYRICSPATH:;
#CDTITLE:./CDTITLES/JUBEAT.png;
#MUSIC:electro peaceful.mp3;
#OFFSET:-0.360000;
#SAMPLESTART:60.180000;
#SAMPLELENGTH:15.000000;
#SELECTABLE:YES;
#BPMS:0.000000=160.000000
;
#STOPS:
;
#BGCHANGES:;
#KEYSOUNDS:;
#ATTACKS:;

//---------------dance-single - ----------------
#NOTES:
     dance-single:
     :
     Hard:
     12:
     0.633283,0.732299,0.244916,0.310227,0.367374,475.000000,30.000000,38.000000,0.000000,0.000000,0.000000,0.633283,0.732299,0.244916,0.310227,0.367374,475.000000,30.000000,38.000000,0.000000,0.000000,0.000000:
// measure 0
0000
0000
0000
0000
,  // measure 1
0000
0000
0000
0000
,  // measure 2
0000
0000
0000
0000
,  // measure 3
0000
0000
0000
0000
,  // measure 4
1001
1000
0000
0001
,  // measure 5
0000
0010
0000
0100
,  // measure 6
1000
0100
0010
0001
1000
0100
0010
0001
,  // measure 7
1000
0010
0100
0001
1000
0010
0100
0001
,  // measure 8
0110
0010
0100
0000
1000
0001
1000
0000
,  // measure 9
0010
0001
0010
0000
0100
1000
0100
0000
,  // measure 10
0010
1000
0010
0000
0100
0001
0100
0000
,  // measure 11
0010
0100
0010
0000
0001
1000
0001
0000
,  // measure 12
1001
0000
0010
0000
0100
0000
0000
0000
0010
0000
0100
0000
0000
0010
0000
0100
,  // measure 13
0000
0000
1000
0000
0001
0000
0000
0000
1000
0000
0001
0000
0000
0000
1000
0001
,  // measure 14
0000
0000
0100
0000
0001
0000
0000
0000
0100
0000
0001
0000
0000
0100
0000
0001
,  // measure 15
0010
0000
0001
0000
0010
0000
0100
0000
1000
0100
0010
0002
0000
0000
0103
0000
,  // measure 16
0010
0000
0000
0010
0000
0000
0100
0000
0001
0000
0000
0001
0000
0000
0010
0000
,  // measure 17
0100
0000
0000
0100
0000
0000
1000
0000
0010
0000
0000
0010
0000
0000
0100
0000
,  // measure 18
0010
0000
0000
0010
0000
0000
1000
0000
0200
0000
0000
0000
0310
0000
0000
0000
,  // measure 19
0001
0010
0100
0000
1000
0010
0100
0010
,  // measure 20
1000
0000
0000
1000
0000
0000
0010
0000
0100
0000
0000
0100
0000
0000
0001
0000
,  // measure 21
0010
0000
0000
0010
0000
0000
0100
0000
1000
0000
0000
1000
0000
0000
0010
0000
,  // measure 22
0100
0000
0000
0100
0000
0000
0001
0000
0020
0000
0000
0000
0031
0000
0000
0000
,  // measure 23
1000
0100
0010
0000
0001
0100
0010
0100
,  // measure 24
0001
0000
0000
0001
0000
0000
0010
0000
0001
0000
0000
0001
0000
0000
0100
0000
,  // measure 25
0010
0000
0000
0010
0000
0000
0100
0000
0010
0000
0000
0010
0000
0000
1000
0000
,  // measure 26
0100
0000
0000
0100
0000
0000
1000
0000
0020
0000
0000
0000
0130
0000
0000
0000
,  // measure 27
0010
0100
0001
0000
0001
0010
0100
0010
,  // measure 28
0100
0000
0000
0100
0000
0000
0010
0000
0001
0000
0000
0001
0000
0000
1000
0000
,  // measure 29
0100
0000
0000
0100
0000
0000
1000
0000
0010
0000
0000
0010
0000
0000
0100
0000
,  // measure 30
0001
0000
1000
0000
0100
0000
0000
0000
1000
0000
0100
0000
0000
1000
0000
0100
,  // measure 31
0000
0010
0001
0000
0100
0000
0000
0010
0100
0000
0000
0001
0000
0000
0001
0000
,  // measure 32
2000
3010
0000
0010
,  // measure 33
0200
0310
0020
1030
,  // measure 34
0002
1003
0200
1300
,  // measure 35
0020
0031
0200
0301
,  // measure 36
2001
3100
0000
0100
,  // measure 37
0200
0301
0020
0031
,  // measure 38
1000
0010
0100
0001
0010
0100
1000
0001
,  // measure 39
1001
0000
0000
1010
0000
0000
0101
0000
2002
0000
0000
0000
3003
0000
0100
1000
,  // measure 40
0001
0000
0000
0001
0100
0000
0100
0001
1000
0000
0000
1000
0010
0000
0010
0100
,  // measure 41
0001
0000
0000
0001
0010
0000
0100
0000
2000
0000
0000
0000
3010
0000
0010
0100
,  // measure 42
0001
0000
0000
0001
0010
0000
0100
0000
1000
0000
0000
1000
0010
0000
0100
0000
,  // measure 43
0001
0000
0000
0001
0100
0000
0010
0000
2000
0000
0000
0000
3100
0000
0010
0100
,  // measure 44
1000
0000
0000
1000
0100
0000
0100
0010
0001
0000
0000
0001
0100
0000
0010
0000
,  // measure 45
0100
0000
0000
0100
0001
0000
0010
0000
0200
0000
0000
0000
0310
0000
0010
0100
,  // measure 46
1000
0000
0000
1000
0001
0000
1000
0000
0010
0000
0000
0010
0100
0000
0010
0000
,  // measure 47
1000
0000
0000
1000
0100
0000
0010
0000
0001
0000
0010
0000
0100
0000
1000
0001
,  // measure 48
0100
0000
0000
0100
0010
0000
0100
0010
1000
0000
0000
1000
0001
0000
0001
0010
,  // measure 49
0100
0000
0000
0100
1000
0000
0100
0000
0020
0000
0000
0000
0031
0000
0001
0010
,  // measure 50
0100
0000
0000
0100
0010
0000
0100
0000
1000
0000
0000
1000
0010
0000
0100
0000
,  // measure 51
0010
0000
0000
1000
0100
0000
0010
0000
0002
0000
0000
0000
1003
0000
1000
0001
,  // measure 52
0010
0000
0000
0100
0010
0000
0100
0000
1000
0000
0000
1000
0010
0000
0100
0000
,  // measure 53
0001
0000
0000
0001
0010
0000
0100
0000
2000
0000
0000
0000
3020
0000
0000
0000
,  // measure 54
1030
0000
0000
0100
0010
0000
0001
0000
1000
0000
0000
0010
0100
0000
0001
0000
,  // measure 55
1000
0100
1000
0000
0001
0100
0001
0000
1000
0010
1000
0000
0001
0010
0001
0000
,  // measure 56
2000
0000
0000
0000
0020
0000
3030
0100
,  // measure 57
1001
0000
0000
0001
0000
0000
1000
0000
0100
0000
0000
0010
0000
0000
0100
0000
,  // measure 58
0110
0000
0110
0000
0000
0000
0100
0000
1000
0000
0000
0100
0000
0000
0010
0000
,  // measure 59
1001
1001
1001
1000
0200
0000
0310
0000
,  // measure 60
2002
0000
3003
0000
0220
0000
0330
0010
,  // measure 61
1010
0000
0000
1000
0000
0000
0100
0000
0010
0000
0000
0001
0000
0000
0010
0000
,  // measure 62
0011
0000
0011
0000
0000
0000
0001
0000
0100
0000
0000
0010
0000
0000
0100
0000
,  // measure 63
0110
0110
0110
0010
2000
0000
3001
0000
,  // measure 64
2002
0000
3003
0000
0220
0000
0330
0100
,  // measure 65
0001
0000
0000
0010
0000
0000
0100
0000
1000
0000
0000
0010
0000
0000
0100
0000
,  // measure 66
0001
0000
0000
0010
0000
0000
0001
0000
0100
0000
0000
0010
0000
0000
1000
0000
,  // measure 67
0100
0000
0000
1000
0000
0000
0010
0000
0200
0000
0000
0000
0301
0000
0000
0000
,  // measure 68
0001
0010
0100
0000
1000
0010
0100
0010
,  // measure 69
1000
0000
0000
0010
0000
0000
0001
0000
0010
0000
0000
1000
0000
0000
0100
0000
,  // measure 70
0001
0000
0000
0100
0000
0000
1000
0000
0001
0000
0000
0010
0000
0000
0010
0000
,  // measure 71
0001
0000
0010
0000
0100
0000
0000
0000
0010
0000
0100
0000
0000
0000
0100
0010
,  // measure 72
0001
0000
1000
0000
0100
0000
0000
0000
1000
0001
0100
0020
0000
0000
0130
0000
,  // measure 73
0110
0110
0000
0100
0002
0000
1003
0000
,  // measure 74
1001
0000
0000
0000
0011
0000
0000
0000
0110
0000
0000
0100
1000
0000
0100
0000
,  // measure 75
1000
0100
0001
0100
0010
0100
1000
0100
,  // measure 76
0010
0001
0100
1000
0100
0001
0010
0100
,  // measure 77
1000
0010
0100
0010
1000
0100
0010
0001
,  // measure 78
1001
0000
0000
0000
;

//---------------dance-single - ----------------
#NOTES:
     dance-single:
     :
     Beginner:
     2:
     0.157446,0.286552,0.106130,0.106130,0.000000,109.000000,13.000000,13.000000,0.000000,0.000000,0.000000,0.157446,0.286552,0.106130,0.106130,0.000000,109.000000,13.000000,13.000000,0.000000,0.000000,0.000000:
0000
0000
0000
0000
,
0000
0000
0000
0000
,
0000
0000
0000
0000
,
0000
0000
0000
0000
,
0000
1000
0000
1000
,
0000
0100
0000
0100
,
0000
0010
0000
0010
,
0000
0001
0000
0001
,
0001
0000
0010
0000
,
0001
0000
0100
0000
,
0001
0000
1000
0000
,
0001
0000
0010
0000
,
1000
0000
0100
0000
,
1000
0000
0010
0000
,
1000
0000
0001
0000
,
2000
0000
0000
3000
,
1000
0000
0000
0000
,
0100
0000
0000
0000
,
0010
0000
0000
0000
,
0001
0000
0100
0000
,
0001
0000
0000
0000
,
0010
0000
0000
0000
,
0100
0000
0000
0000
,
1000
0000
0010
0000
,
0100
0000
0000
0000
,
0010
0000
0000
0000
,
1000
0000
0000
0000
,
0001
0000
1000
0000
,
0010
0000
0000
0000
,
0100
0000
0000
0000
,
0001
0000
0000
0000
,
1000
0000
0010
0000
,
0200
0000
0300
0000
,
0020
0000
0030
0000
,
0002
0000
0003
0000
,
2000
0000
3000
0000
,
0020
0000
0030
0000
,
0200
0000
0300
0000
,
0002
0000
0003
0000
,
2002
0000
0000
3003
,
1001
0000
0001
0000
,
1000
0000
0000
0000
,
0100
0000
0100
0000
,
0010
0000
0000
0000
,
1000
0000
1000
0000
,
0001
0000
0000
0000
,
0010
0000
0010
0000
,
0100
0000
0100
0000
,
0110
0000
0010
0000
,
1000
0000
0000
0000
,
0001
0000
0001
0000
,
0100
0000
0000
0000
,
1000
0000
1000
0000
,
0100
0000
0000
0000
,
0001
0000
0001
0000
,
0010
0000
0000
0000
,
0200
0000
0000
0300
,
0110
0000
0000
0000
,
0110
0000
0000
0000
,
0110
0110
0000
0000
,
1000
0000
0001
0000
,
1001
0000
0000
0000
,
1001
0000
0000
0000
,
1001
1001
0000
0000
,
0010
0000
0100
0000
,
1000
0000
0000
0000
,
0001
0000
0000
0000
,
0100
0000
0000
0000
,
0010
0000
0000
0000
,
0001
0000
0000
0000
,
0010
0000
0000
0000
,
0100
0000
0100
0000
,
1000
0000
1000
0000
,
2002
0000
0000
3003
,
1000
1000
1000
1000
,
1000
0000
0000
0000
,
0001
0000
0000
0000
,
0010
0000
0100
0000
,
1001
0000
0000
0000
;

//---------------dance-single - ----------------
#NOTES:
     dance-single:
     :
     Easy:
     5:
     0.304396,0.413908,0.114294,0.163277,0.000000,227.000000,14.000000,20.000000,0.000000,0.000000,0.000000,0.304396,0.413908,0.114294,0.163277,0.000000,227.000000,14.000000,20.000000,0.000000,0.000000,0.000000:
0000
0000
0000
0000
,
0000
0000
0000
0000
,
0000
0000
0000
0000
,
0000
0000
0000
0000
,
0000
1000
0000
0010
,
0000
0100
0000
0001
,
1000
0100
0010
0001
,
1000
0010
0100
0001
,
1001
0010
0001
0000
,
0100
1000
0100
0000
,
1000
0010
1000
0000
,
0100
0001
0100
0000
,
0001
0010
0100
0000
,
1000
0010
0100
0000
,
1000
0001
0100
0000
,
0020
0000
0200
0330
,
0010
0100
0010
0100
,
1000
0001
1000
0001
,
0100
0010
0200
0000
,
0010
0000
0310
0000
,
0001
1000
0001
0100
,
0001
0010
0001
0100
,
0001
1000
0002
0000
,
0100
0000
0103
0000
,
1000
0100
1000
0100
,
0010
0001
0010
0001
,
0100
0010
0200
0000
,
0001
0000
0301
0001
,
0010
0001
0010
0001
,
1000
0100
1000
0100
,
0010
0100
1000
0000
,
0001
0010
0100
0000
,
2000
3000
0000
0000
,
0002
0003
0020
0030
,
0200
0300
2000
3000
,
0020
0030
0200
0300
,
1001
0010
0000
0010
,
0000
0100
0000
0100
,
0001
1000
0001
1000
,
0010
0100
0220
0330
,
1000
1000
0010
0010
,
1000
1000
0100
0000
,
0001
0001
0010
0010
,
0001
0001
0100
0000
,
0010
0010
0100
0100
,
0010
0010
1000
0000
,
0100
0100
0010
0010
,
0100
0100
0001
0000
,
1000
0010
1000
0010
,
0100
0001
0100
0000
,
0001
0010
0001
0010
,
0100
1000
0100
0000
,
0010
1000
0010
1000
,
0100
0001
0100
0000
,
0001
0010
0100
1000
,
2002
0000
0000
3003
,
0220
0000
0000
0330
,
0001
0000
0000
0000
,
0001
1000
0000
0000
0000
0000
0000
0000
,
0001
1000
0001
0000
0000
0000
0000
0000
,
1001
0000
1001
0000
,
0010
0000
0000
0000
,
0010
0100
0000
0000
0000
0000
0000
0000
,
0010
0100
0010
0000
0000
0000
0000
0000
,
0110
0000
0110
0000
,
1000
0100
1000
0010
,
0100
0001
0010
0001
,
0100
0010
2000
0000
,
0001
0000
3001
0010
,
0001
0100
0010
1000
,
0100
0010
0001
0100
,
0010
0001
0100
0000
,
0010
1000
0100
0000
,
1000
0002
0000
0000
0000
0000
1003
0000
,
1100
1010
0101
0011
,
1000
0010
1000
0010
,
0100
0001
0100
0001
,
1000
0100
0010
0001
,
1001
0000
0000
0000
;

//---------------dance-single - ----------------
#NOTES:
     dance-single:
     :
     Medium:
     9:
     0.474670,0.573103,0.220424,0.383702,0.216342,333.000000,27.000000,47.000000,0.000000,0.000000,0.000000,0.474670,0.573103,0.220424,0.383702,0.216342,333.000000,27.000000,47.000000,0.000000,0.000000,0.000000:
0000
0000
0000
0000
,
0000
0000
0000
0000
,
0000
0000
0000
0000
,
0000
0000
0000
0000
,
1001
0001
0000
1000
,
0000
0010
0000
0100
,
0001
0010
0001
0000
1000
0100
1000
0000
,
0010
0100
0010
0000
1000
0001
1000
0000
,
1001
0000
0010
0000
0001
0010
0001
0000
,
0010
0000
0100
0000
1000
0010
1000
0000
,
0001
0000
1000
0000
0010
0100
0010
0000
,
1000
0000
0001
0000
0100
0010
0100
0000
,
0110
0000
0010
0000
1000
0100
1000
0000
,
0010
0000
0100
0000
0001
0100
0001
0000
,
0010
0000
0001
0000
0100
1000
0100
0000
,
0002
0000
0000
0000
0000
0000
0000
0000
0010
0000
0000
0010
0003
0000
0001
0000
,
1000
0000
0000
1000
0000
0000
0000
0000
0100
0000
0000
0100
0000
0000
0000
0000
,
0010
0000
0000
0010
0000
0000
0000
0000
0001
0000
0000
0001
0000
0000
0000
0000
,
0010
0000
0000
0010
0000
0000
0000
0000
0200
0000
0000
0000
0310
0000
0000
0000
,
2000
3001
0002
1003
,
0010
0000
0000
0010
0000
0000
0000
0000
0100
0000
0000
0100
0000
0000
0000
0000
,
1000
0000
0000
1000
0000
0000
0000
0000
0001
0000
0000
0001
0000
0000
0000
0000
,
0100
0000
0000
0100
0000
0000
0000
0000
0020
0000
0000
0000
0130
0000
0000
0000
,
0002
0013
2000
3010
,
0001
0000
0000
0100
0000
0000
0000
0000
0100
0000
0000
0001
0000
0000
0000
0000
,
0010
0000
0000
1000
0000
0000
0000
0000
1000
0000
0000
0010
0000
0000
0000
0000
,
0100
0000
0000
0010
0000
0000
0000
0000
0020
0000
0000
0000
0130
0000
0000
0000
,
2000
0000
3010
0000
0200
0000
0301
0010
,
0001
0000
0000
1000
0000
0000
0000
0000
1000
0000
0000
0001
0000
0000
0000
0000
,
0010
0000
0000
0100
0000
0000
0000
0000
0100
0000
0000
0010
0000
0000
0000
0000
,
1000
0000
0100
0000
0001
0010
0001
0000
,
1000
0000
0010
0000
0100
0001
0010
0001
,
0200
0310
0000
0010
,
2000
3100
2000
3010
,
0002
0013
0002
0103
,
0002
1003
0002
0103
,
0020
0130
0000
0100
,
2000
3010
2000
3001
,
0001
0010
0100
1000
0001
0010
0100
1000
,
0001
0000
0000
0100
0000
0000
0010
0000
2002
0000
0000
0000
3003
0000
0001
0000
,
1000
0000
0000
1000
0000
0000
0100
0000
0010
0000
0000
0010
0000
0000
0001
0000
,
0100
0000
0000
0100
0000
0000
0010
0000
2000
0000
0000
0000
3010
0000
1000
0000
,
0001
0000
0000
0001
0000
0000
0100
0000
0010
0000
0000
0010
0000
0000
0100
0000
,
0001
0000
0000
0001
0000
0000
1000
0000
0020
0000
0000
0000
0130
0000
0010
0000
,
1000
0000
0000
1000
0000
0000
0010
0000
0100
0000
0000
0100
0000
0000
0001
0000
,
0010
0000
0000
0010
0000
0000
0100
0000
2000
0000
0000
0000
3010
0000
1000
0000
,
0010
0000
0000
0010
0000
0000
0100
0000
1000
0000
0000
1000
0000
0000
0010
0000
,
0100
0000
0000
0100
0000
0000
0001
0000
0020
0000
0000
0000
0031
0000
0010
0000
,
0001
0000
0000
0001
0000
0000
0100
0000
0010
0000
0000
0010
0000
0000
1000
0000
,
0100
0000
0000
0100
0000
0000
0010
0000
0002
0000
0000
0000
0103
0000
0001
0000
,
0100
0000
0000
0100
0000
0000
0010
0000
1000
0000
0000
1000
0000
0000
0010
0000
,
0100
0000
0000
0100
0000
0000
0001
0000
0020
0000
0000
0000
0031
0000
0010
0000
,
0001
0000
0000
0001
0000
0000
0100
0000
0010
0000
0000
0010
0000
0000
1000
0000
,
0100
0000
0000
0100
0000
0000
0010
0000
0001
0000
0000
0000
0010
0000
0000
0000
,
0001
0000
0000
0001
0000
0000
1000
0000
0010
0000
0000
0010
0000
0000
0100
0000
,
0020
0130
2000
3001
,
0020
0000
0200
0330
,
0110
0000
0000
0000
,
1001
1001
0000
0000
0000
0000
0000
0000
,
0110
0110
0110
0000
0000
0000
0000
0000
,
2020
3030
0202
0303
,
0011
0000
0000
0000
,
0101
0101
0000
0000
0000
0000
0000
0000
,
1001
1001
2002
0000
0000
0000
3003
0000
,
0022
0000
0033
0000
2200
0000
3300
1000
,
0010
0000
0000
0100
0000
0000
0000
0000
0100
0000
0000
0001
0000
0000
0000
0000
,
0001
0000
0000
0010
0000
0000
0000
0000
0010
0000
0000
0100
0000
0000
0000
0000
,
0100
0000
0000
1000
0000
0000
0000
0000
0020
0000
0000
0000
0130
0000
0000
0000
,
0002
0000
0013
0000
2000
0000
3100
1000
,
0010
0000
0000
1000
0000
0000
0000
0000
0100
0000
0000
1000
0000
0000
0000
0000
,
0001
0000
0000
1000
0000
0000
0000
0000
0100
0000
0000
1000
0000
0000
0000
0000
,
0001
0000
0010
0000
0001
0100
0001
0000
,
1000
0000
0010
0000
1000
0100
1000
0000
,
0110
0220
0000
0000
0000
0000
0330
0000
,
0011
0101
1010
1100
,
1000
0010
0100
0000
0001
0010
0100
0000
,
1000
0001
0100
0000
0001
1000
0010
0000
,
1000
0100
0010
0001
1000
0010
0100
0001
,
1001
0000
0000
0000
;
