#VERSION:0.81;
#TITLE:bloomin' feeling;
#SUBTITLE:;
#ARTIST:Ryu☆;
#TITLETRANSLIT:;
#SUBTITLETRANSLIT:;
#ARTISTTRANSLIT:;
#GENRE:Happy Hardcore;
#ORIGIN:;
#CREDIT:;
#BANNER:bloomin' feeling.png;
#BACKGROUND:bloomin' feeling-bg.png;
#PREVIEWVID:;
#JACKET:bloomin' feeling-jacket.png;
#CDIMAGE:;
#DISCIMAGE:;
#LYRICSPATH:;
#CDTITLE:;
#MUSIC:bloomin' feeling.mp3;
#OFFSET:-0.360;
#SAMPLESTART:12.300;
#SAMPLELENGTH:15.000;
#SELECTABLE:YES;
#BPMS:0.000=181.000;
#STOPS:;
#DELAYS:;
#WARPS:;
#TIMESIGNATURES:0.000=4=4;
#TICKCOUNTS:0.000=4;
#COMBOS:0.000=1;
#SPEEDS:0.000=1.000=0.000=0;
#SCROLLS:0.000=1.000;
#FAKES:;
#LABELS:0.000=Song Start;
#BGCHANGES:;
#KEYSOUNDS:;
#ATTACKS:
;

//---------------dance-single - ----------------
#NOTEDATA:;
#CHARTNAME:;
#STEPSTYPE:dance-single;
#DESCRIPTION:;
#CHARTSTYLE:;
#DIFFICULTY:Hard;
#METER:12;
#RADARVALUES:0.631,0.631,0.307,0.182,0.010,409.000,32.000,19.000,0.000,0.000,0.000,0.000,0.000,0.631,0.631,0.307,0.182,0.010,409.000,32.000,19.000,0.000,0.000,0.000,0.000,0.000;
#CREDIT:;
#NOTES:
// measure 0
0000
0000
0000
0000
,  // measure 1
0000
0000
0000
0000
,  // measure 2
0000
0000
0000
0000
,  // measure 3
0000
0000
0000
0000
,  // measure 4
0000
0000
0000
0000
,  // measure 5
1000
0000
0010
0000
1000
0100
0010
0001
,  // measure 6
0010
0100
0020
0030
,  // measure 7
0001
0000
0100
0000
0001
0010
0100
1000
,  // measure 8
0100
0010
0100
0010
0002
1000
1003
0000
,  // measure 9
1001
0000
0110
0000
1000
0010
0100
0001
,  // measure 10
0010
0000
0100
0000
1000
0010
0100
0001
,  // measure 11
0100
0000
0010
0000
1000
0100
0010
0001
,  // measure 12
0100
0001
0010
0100
1000
0000
0001
1000
,  // measure 13
1010
0000
0101
0000
0001
0010
0100
0010
,  // measure 14
0001
0001
0100
0000
0010
0000
1000
0001
,  // measure 15
0100
0000
0010
0000
1000
0001
0100
0001
,  // measure 16
1000
0100
0010
0001
0200
0010
0310
0000
,  // measure 17
1100
0000
0011
0000
0001
0100
1000
0100
,  // measure 18
0001
0000
0010
0000
0100
0010
0001
0010
,  // measure 19
0100
0000
1000
0000
0010
0100
0001
0100
,  // measure 20
0010
0100
1000
0100
0001
0000
0010
0000
,  // measure 21
0011
0000
1100
0000
1000
0010
0100
0001
,  // measure 22
0010
0010
0100
0000
1000
0001
0010
0100
,  // measure 23
0010
0000
0100
0000
1000
0010
0100
0010
,  // measure 24
0001
0010
0100
0001
0200
0000
0300
0000
,  // measure 25
1000
0100
1000
0000
0010
0001
0010
0000
,  // measure 26
0100
0001
0100
0000
0010
1000
0010
0000
,  // measure 27
0100
0001
0010
0000
1000
0010
0100
0000
,  // measure 28
1000
0001
0100
0000
0001
1000
0100
0000
,  // measure 29
0010
0001
0010
0000
0100
1000
0100
0000
,  // measure 30
0010
1000
0010
0000
0100
0001
0100
0000
,  // measure 31
1000
0100
0010
0000
0001
0010
0100
0000
,  // measure 32
1001
0000
2000
3002
0023
0100
0130
0000
,  // measure 33
1000
0100
0010
0001
0100
0010
1000
0001
,  // measure 34
0010
0100
1000
0010
0100
0001
0100
0000
,  // measure 35
0010
1000
0100
0010
0100
1000
0001
1000
,  // measure 36
0010
0100
0001
0100
0010
1000
0100
0010
,  // measure 37
0001
1000
0000
0100
0000
1000
0000
0010
,  // measure 38
0000
0100
0000
0001
0000
0010
0000
0001
,  // measure 39
0100
0000
0010
0000
0100
0000
0010
0000
1000
0010
1000
0000
0100
0001
0100
0000
,  // measure 40
2002
0000
0000
0000
0003
3001
1000
0000
,  // measure 41
0200
0000
0301
0100
0000
0100
1100
0000
,  // measure 42
0010
0000
0100
0001
0000
0001
0021
0000
,  // measure 43
0130
0000
0010
0100
0000
0100
0101
0000
,  // measure 44
1001
0000
0100
0010
0000
0010
1010
1000
,  // measure 45
1001
0000
0100
0010
0000
0010
0110
0000
,  // measure 46
0011
0000
0010
0100
0000
0100
1100
0000
,  // measure 47
1010
0000
1000
0100
0000
0100
0101
0000
,  // measure 48
2000
3010
0200
0002
0303
1001
1001
0000
,  // measure 49
1000
0000
0010
0000
0100
0001
0010
0100
,  // measure 50
1000
0000
0010
0000
0200
0000
0000
0300
,  // measure 51
0001
0000
0010
0000
0100
1000
0001
0100
,  // measure 52
1000
0100
0001
0100
0020
0000
0030
0000
,  // measure 53
1000
0010
0001
0010
0100
0010
0001
0010
,  // measure 54
1000
0100
0010
0100
1000
0100
0001
0100
,  // measure 55
0010
0001
0100
0010
1000
0001
0010
0100
,  // measure 56
2000
0000
0000
0000
0000
0001
3001
0000
,  // measure 57
1010
0000
0101
0000
0001
0010
0100
1000
,  // measure 58
0010
0000
0100
0000
0001
0100
0010
1000
,  // measure 59
0100
0000
1000
0000
0100
1000
0010
1000
,  // measure 60
0100
0010
0001
0010
0100
0000
0010
0001
,  // measure 61
0011
0000
1100
0000
1000
0010
0001
0010
,  // measure 62
0100
0100
0010
0000
0001
0100
0010
0001
,  // measure 63
0010
0000
0100
0000
0001
0010
1000
0010
,  // measure 64
0001
0100
1000
0100
0002
1000
1003
0000
,  // measure 65
1001
0000
0110
0000
1000
0100
0001
0100
,  // measure 66
1000
0010
0001
0100
,  // measure 67
1000
0000
0001
0000
0010
0100
1000
0100
,  // measure 68
1000
0010
0100
1000
0100
0000
0010
0100
,  // measure 69
0110
0000
1001
0000
1000
0100
0010
0001
,  // measure 70
0100
0100
0001
0000
0010
0000
1000
0000
,  // measure 71
0100
0000
1000
0000
0010
0100
0010
1000
,  // measure 72
0001
0010
0100
1000
0020
0100
0130
0000
,  // measure 73
1001
0000
0000
0000
;

//---------------dance-single - ----------------
#NOTEDATA:;
#CHARTNAME:;
#STEPSTYPE:dance-single;
#DESCRIPTION:;
#CHARTSTYLE:;
#DIFFICULTY:Medium;
#METER:10;
#RADARVALUES:0.517,0.491,0.048,0.211,0.000,350.000,5.000,22.000,0.000,0.000,0.000,0.000,0.000,0.517,0.491,0.048,0.211,0.000,350.000,5.000,22.000,0.000,0.000,0.000,0.000,0.000;
#CREDIT:;
#NOTES:
// measure 0
0000
0000
0000
0000
,  // measure 1
0000
0000
0000
0000
,  // measure 2
0000
0000
0000
0000
,  // measure 3
0000
0000
0000
0000
,  // measure 4
0000
0000
0000
0000
,  // measure 5
1000
0000
0001
0000
0100
0010
0100
0010
,  // measure 6
1000
0100
0020
0030
,  // measure 7
0001
0000
1000
0000
0010
0100
0010
0100
,  // measure 8
0002
0000
0000
0000
0000
1000
1003
0000
,  // measure 9
0001
0000
1000
0000
0001
0100
0001
0100
,  // measure 10
0010
1000
0020
0130
,  // measure 11
1000
0000
0001
0000
1000
0100
1000
0100
,  // measure 12
0010
0001
0010
0001
0200
0000
0310
0000
,  // measure 13
1000
0000
0010
0000
0100
0001
0100
0001
,  // measure 14
0010
0001
0010
0000
0002
0000
1003
0000
,  // measure 15
0001
0000
0010
0000
0100
1000
0100
1000
,  // measure 16
0001
0010
0001
0010
0002
0000
0003
0000
,  // measure 17
0100
0000
0010
0000
1000
0001
1000
0001
,  // measure 18
0100
0010
0200
0301
,  // measure 19
0010
0000
0100
0000
1000
0001
1000
0001
,  // measure 20
0100
0001
0100
0001
0020
0000
0031
0000
,  // measure 21
1000
0000
0100
0000
0010
0001
0010
0001
,  // measure 22
0100
0001
0100
0000
0002
0000
1003
0000
,  // measure 23
0001
0000
0100
0000
0010
1000
0010
1000
,  // measure 24
0001
0100
0001
0100
0002
0000
0003
0000
,  // measure 25
1001
1000
0010
0100
,  // measure 26
0001
0000
0010
0100
0000
0100
0010
0000
,  // measure 27
0001
1000
0010
0100
,  // measure 28
0001
0000
1000
0010
0000
0010
1000
0000
,  // measure 29
0001
0100
0010
0100
,  // measure 30
0001
0000
1000
0010
0000
0010
1000
0000
,  // measure 31
0001
0010
0001
0100
,  // measure 32
0110
0000
1000
0001
1000
0010
0100
0000
,  // measure 33
0001
0010
0001
0000
0100
0001
0100
0000
,  // measure 34
0010
1000
0010
0000
1000
0100
1000
0000
,  // measure 35
0001
1000
0001
0000
0100
0010
0100
0000
,  // measure 36
1000
0001
1000
0000
0010
0100
0010
0000
,  // measure 37
2000
0001
0000
0001
,  // measure 38
0000
0001
0000
3001
,  // measure 39
0001
0100
0001
0100
0010
1000
0010
1000
,  // measure 40
0200
0000
0000
0000
0000
0010
0310
0000
,  // measure 41
0001
0000
1000
0010
0000
1000
0010
0000
,  // measure 42
0100
0000
0001
0010
0000
0001
0010
0000
,  // measure 43
1000
0000
0010
0100
0000
0010
0100
0000
,  // measure 44
0001
0000
0010
0100
0000
0010
0100
0000
,  // measure 45
0001
0000
1000
0100
0000
1000
0100
0000
,  // measure 46
1000
0000
0001
0100
0000
0001
0100
0000
,  // measure 47
0010
0000
1000
0001
0000
1000
0001
0000
,  // measure 48
2000
0000
0002
3003
0000
0001
1000
0000
,  // measure 49
0010
0000
1000
0100
0000
1000
0010
0000
,  // measure 50
0100
0000
0001
0100
0000
0001
0010
0000
,  // measure 51
0100
0000
0010
0001
0000
0001
1000
0000
,  // measure 52
0100
0000
0010
1000
0000
1000
0001
0000
,  // measure 53
1000
0000
0010
0000
0100
0001
0100
0001
,  // measure 54
0010
0100
2000
3000
,  // measure 55
0010
0000
0100
0000
0001
0010
0100
1000
,  // measure 56
0002
0000
0000
0000
0000
1000
1003
0000
,  // measure 57
1001
0000
0010
0000
0100
0001
0100
0001
,  // measure 58
0010
0100
0020
0031
,  // measure 59
1000
0000
0010
0000
0100
0010
0100
0010
,  // measure 60
1000
0001
1000
0001
0020
0000
0031
0000
,  // measure 61
0110
0000
1000
0000
0001
0010
0001
0010
,  // measure 62
0001
0100
0001
0000
0020
0000
0130
0000
,  // measure 63
1000
0000
0001
0000
1000
0010
1000
0010
,  // measure 64
0100
0001
0100
0001
0020
0000
0030
0000
,  // measure 65
0001
0000
1000
0000
0001
0010
0100
1000
,  // measure 66
0001
0100
0010
1000
,  // measure 67
0001
0000
1000
0000
0001
0010
0001
0010
,  // measure 68
0100
1000
0100
1000
0200
0000
0310
0000
,  // measure 69
0001
0000
1000
0000
0001
0100
0010
1000
,  // measure 70
0100
1000
0100
0000
0010
0000
0001
0000
,  // measure 71
0100
0000
0010
0000
1000
0010
1000
0010
,  // measure 72
0100
0001
0100
0001
0200
0000
0310
0000
,  // measure 73
1001
0000
0000
0000
;

//---------------dance-single - ----------------
#NOTEDATA:;
#CHARTNAME:;
#STEPSTYPE:dance-single;
#DESCRIPTION:;
#CHARTSTYLE:;
#DIFFICULTY:Beginner;
#METER:3;
#RADARVALUES:0.204,0.210,0.019,0.096,0.000,137.000,2.000,10.000,0.000,0.000,0.000,0.000,0.000,0.204,0.210,0.019,0.096,0.000,137.000,2.000,10.000,0.000,0.000,0.000,0.000,0.000;
#CREDIT:;
#NOTES:
// measure 0
0000
0000
0000
0000
,  // measure 1
0000
0000
0000
0000
,  // measure 2
0000
0000
0000
0000
,  // measure 3
0000
0000
0000
0000
,  // measure 4
0000
0000
0000
0000
,  // measure 5
1000
0000
0100
0000
,  // measure 6
0010
0000
0001
0000
,  // measure 7
1000
0000
0001
0000
,  // measure 8
2000
0000
3000
0000
,  // measure 9
0100
0100
0100
0000
,  // measure 10
0010
0000
0010
0000
,  // measure 11
0001
0001
0001
0000
,  // measure 12
1000
0000
1000
0000
,  // measure 13
0010
0010
0010
0000
,  // measure 14
0100
0100
0100
0000
,  // measure 15
0001
0000
0001
0000
,  // measure 16
2000
0000
0000
3000
,  // measure 17
1000
1000
1000
0000
,  // measure 18
0001
0000
0001
0000
,  // measure 19
0010
0010
0010
0000
,  // measure 20
0100
0000
0100
0000
,  // measure 21
1000
1000
1000
0000
,  // measure 22
0001
0001
0001
0000
,  // measure 23
0100
0000
0100
0000
,  // measure 24
0020
0000
0000
0030
,  // measure 25
0010
0000
0100
0000
,  // measure 26
0010
0000
1000
0000
,  // measure 27
0010
0000
0100
0000
,  // measure 28
0010
0000
0001
0000
,  // measure 29
1000
0000
0100
0000
,  // measure 30
0010
0000
0001
0000
,  // measure 31
0010
0000
0100
0000
,  // measure 32
2000
0000
0000
3000
,  // measure 33
1000
0000
0010
0000
,  // measure 34
1000
0000
0001
0000
,  // measure 35
1000
0000
0100
0000
,  // measure 36
1000
0000
0010
0000
,  // measure 37
0100
0000
0000
0000
,  // measure 38
0000
0000
0000
0000
,  // measure 39
0001
0000
1000
0000
,  // measure 40
2002
0000
3003
0000
,  // measure 41
0010
0000
0100
0000
,  // measure 42
1000
0000
0000
0000
,  // measure 43
0001
0000
0010
0000
,  // measure 44
0100
0000
0000
0000
,  // measure 45
1000
0000
0010
0000
,  // measure 46
0100
0000
0000
0000
,  // measure 47
0001
0000
0100
0000
,  // measure 48
0020
0000
0030
0000
,  // measure 49
1000
0000
0100
0000
,  // measure 50
0010
0000
0001
0000
,  // measure 51
1000
0000
0010
0000
,  // measure 52
0100
0000
0001
0000
,  // measure 53
0010
0000
0100
0000
,  // measure 54
0001
0000
1000
0000
,  // measure 55
0100
0000
0010
0000
,  // measure 56
0002
0000
0000
0003
,  // measure 57
0001
0001
0001
0000
,  // measure 58
1000
0000
1000
0000
,  // measure 59
0010
0010
0010
0000
,  // measure 60
0100
0000
0100
0000
,  // measure 61
0010
0010
0010
0000
,  // measure 62
1000
1000
1000
0000
,  // measure 63
0001
0000
0001
0000
,  // measure 64
0200
0000
0000
0300
,  // measure 65
0010
0010
0010
0000
,  // measure 66
1000
0000
1000
0000
,  // measure 67
0001
0000
0001
0000
,  // measure 68
0100
0100
0100
0000
,  // measure 69
0010
0010
0010
0000
,  // measure 70
0001
0000
0001
0000
,  // measure 71
1000
0000
1000
0000
,  // measure 72
0020
0000
0030
0000
,  // measure 73
1001
0000
0000
0000
;

//---------------dance-single - ----------------
#NOTEDATA:;
#CHARTNAME:;
#STEPSTYPE:dance-single;
#DESCRIPTION:;
#CHARTSTYLE:;
#DIFFICULTY:Easy;
#METER:6;
#RADARVALUES:0.359,0.280,0.010,0.202,0.000,240.000,1.000,21.000,0.000,0.000,0.000,0.000,0.000,0.359,0.280,0.010,0.202,0.000,240.000,1.000,21.000,0.000,0.000,0.000,0.000,0.000;
#CREDIT:;
#NOTES:
// measure 0
0000
0000
0000
0000
,  // measure 1
0000
0000
0000
0000
,  // measure 2
0000
0000
0000
0000
,  // measure 3
0000
0000
0000
0000
,  // measure 4
0000
0000
0000
0000
,  // measure 5
1000
0100
1000
0100
,  // measure 6
0010
0001
0010
0001
,  // measure 7
0100
0001
0100
0001
,  // measure 8
2000
0000
0000
0000
3000
0001
1000
0000
,  // measure 9
0010
0010
1000
0100
,  // measure 10
0010
0010
0002
0003
,  // measure 11
0100
0100
0001
0010
,  // measure 12
0100
0100
2000
3000
,  // measure 13
0001
0001
1000
0100
,  // measure 14
0010
0010
0002
0003
,  // measure 15
1000
1000
0001
0010
,  // measure 16
0200
0000
0000
0000
0300
0010
0100
0000
,  // measure 17
1000
1000
0010
0100
,  // measure 18
0001
0010
0200
0300
,  // measure 19
0001
0001
0100
0010
,  // measure 20
1000
0100
0020
0030
,  // measure 21
0100
0100
0001
0010
,  // measure 22
0100
1000
0020
0030
,  // measure 23
0100
0100
1000
0010
,  // measure 24
0100
0001
0020
0030
,  // measure 25
0001
1000
0001
0100
,  // measure 26
0001
0010
0001
0100
,  // measure 27
0010
1000
0010
0100
,  // measure 28
0010
0001
0010
0100
,  // measure 29
1000
0010
1000
0001
,  // measure 30
1000
0100
1000
0001
,  // measure 31
0100
0010
0100
0001
,  // measure 32
0020
0000
0000
0000
0030
0100
0010
0000
,  // measure 33
0001
0100
0010
0100
,  // measure 34
0001
1000
0100
1000
,  // measure 35
0001
0010
0100
0010
,  // measure 36
0001
1000
0010
1000
,  // measure 37
0002
0000
0000
0000
,  // measure 38
0000
0000
0000
0003
,  // measure 39
1000
0100
0010
0001
,  // measure 40
2000
0000
0000
0000
3000
0001
1000
0000
,  // measure 41
0010
0000
0000
0100
0000
0000
0010
0000
,  // measure 42
1000
0000
0000
0001
0000
0000
1000
0000
,  // measure 43
0001
0000
0000
0010
0000
0000
0001
0000
,  // measure 44
1000
0000
0000
0100
0000
0000
1000
0000
,  // measure 45
0100
0000
0000
0010
0000
0000
0100
0000
,  // measure 46
0001
0000
0000
1000
0000
0000
0001
0000
,  // measure 47
1000
0000
0000
0010
0000
0000
1000
0000
,  // measure 48
0002
0000
0000
0000
0003
1000
0001
0000
,  // measure 49
0010
0010
1000
0100
,  // measure 50
0010
0010
0002
0003
,  // measure 51
0100
0100
0001
0010
,  // measure 52
0100
0100
2000
3000
,  // measure 53
0001
0100
1000
0100
,  // measure 54
0001
0010
1000
0010
,  // measure 55
0001
0010
0100
1000
,  // measure 56
0002
0000
0000
0000
0003
1000
0001
0000
,  // measure 57
1000
0010
0100
0010
,  // measure 58
0001
0010
0200
0300
,  // measure 59
0001
0100
0010
0100
,  // measure 60
1000
0100
0020
0030
,  // measure 61
0001
0010
0100
1000
,  // measure 62
0001
0001
0200
0300
,  // measure 63
1000
0010
0100
0001
,  // measure 64
1000
1000
0020
0030
,  // measure 65
0001
0010
0001
0100
,  // measure 66
0010
0010
1000
1000
,  // measure 67
0001
0001
0100
0010
,  // measure 68
1000
0010
0200
0300
,  // measure 69
1000
0100
1000
0010
,  // measure 70
0100
0100
0001
0001
,  // measure 71
0010
0010
0001
0100
,  // measure 72
0010
0000
1000
0000
0001
1000
0001
0000
,  // measure 73
1001
0000
0000
0000
;
