#TITLE:Yo! Ho! and A Bottle of Bass;
#SUBTITLE:;
#ARTIST:Omnitica;
#TITLETRANSLIT:;
#SUBTITLETRANSLIT:;
#ARTISTTRANSLIT:;
#GENRE:Dubstep;
#CREDIT:;
#BANNER:Yo! Ho! and A Bottle of Bass.png;
#BACKGROUND:Yo! Ho! and A Bottle of Bass-bg.png;
#LYRICSPATH:;
#CDTITLE:;
#MUSIC:Yo! Ho! And a Bottle of Bass.mp3;
#OFFSET:-0.480;
#SAMPLESTART:33.560;
#SAMPLELENGTH:15.000;
#SELECTABLE:YES;
#BPMS:0.000=145.000
,143.000=143.000
,144.000=108.750
,156.000=217.501
,210.000=145.000
,214.000=144.000
,218.000=145.000
;
#STOPS:96.000=0.414,
111.000=0.414,
142.000=0.414,
143.000=0.414
;
#BGCHANGES:;
#KEYSOUNDS:;
#ATTACKS:;

//---------------dance-single - ----------------
#NOTES:
     dance-single:
     :
     Hard:
     13:
     0.551,0.653,0.141,0.330,0.697,359.000,15.000,35.000,0.000,0.000,0.000,0.551,0.653,0.141,0.330,0.697,359.000,15.000,35.000,0.000,0.000,0.000: // measure 0
0000
0000
0000
0000
,  // measure 1
0000
0000
0000
0000
,  // measure 2
0000
0000
0000
0000
,  // measure 3
0000
0000
0000
0000
,  // measure 4
2000
0000
3200
0000
,  // measure 5
0320
0000
0032
0000
,  // measure 6
0203
0000
0320
0000
,  // measure 7
2030
0000
3002
0000
,  // measure 8
2003
0000
3010
0000
,  // measure 9
0002
0000
0013
0000
,  // measure 10
2000
0000
3100
0000
,  // measure 11
0002
0000
0103
0000
,  // measure 12
2000
0000
3001
0000
,  // measure 13
0002
0000
1003
0000
,  // measure 14
0200
0000
0310
0000
,  // measure 15
0020
0000
0130
0000
,  // measure 16
2002
0000
0000
3000
,  // measure 17
1003
0000
0000
0001
0000
0001
0100
0010
0100
0010
0000
0000
,  // measure 18
2000
0000
0000
3100
0000
0000
0001
0010
0100
0010
0100
2000
,  // measure 19
0002
0000
0000
3003
,  // measure 20
1000
0010
1000
0010
0100
0010
0100
0000
0100
0001
0000
0001
,  // measure 21
0010
0000
0010
0100
0000
0100
1000
0100
1000
0001
0010
0001
,  // measure 22
1000
0010
1000
0010
0000
0010
0100
0000
0100
0001
0100
0010
,  // measure 23
1000
0000
1000
0100
0000
0100
0010
0100
1000
0001
0010
0100
,  // measure 24
1000
0000
0000
0100
0000
0100
1000
0000
1000
0001
0010
0001
,  // measure 25
0010
0100
1000
0010
0000
1000
0100
0010
0100
1000
0000
0010
,  // measure 26
0100
0000
0001
1000
0100
0010
0001
0000
1000
1100
0000
0110
,  // measure 27
0000
0011
0000
1000
0100
0010
0001
0100
0010
1000
0000
0000
,  // measure 28
1001
0000
0101
0000
1010
0000
0100
0000
0010
0001
1000
0100
,  // measure 29
0010
0000
0010
0000
0010
0000
0210
0000
1000
0000
1000
0000
,  // measure 30
1300
0100
1000
0010
1000
0001
2001
0000
0001
0000
3001
0000
,  // measure 31
1000
0100
0010
0100
0010
0001
1000
0000
0010
0010
0100
0010
,  // measure 32
1000
0000
1000
0100
0010
0100
1000
0010
0100
0001
0000
1000
,  // measure 33
0010
0000
0100
0010
0000
0100
0001
0100
0001
2000
0000
0000
,  // measure 34
3010
0000
0010
0100
0000
0100
0001
0000
0001
0000
0100
0010
,  // measure 35
1000
0000
0100
0000
1000
0000
0001
0000
1000
0000
0010
0000
2020
0000
0000
3030
0000
0000
0202
0000
0000
0303
0000
0000
,  // measure 36
1000
0000
0000
0010
0000
1000
0000
1000
0000
0001
1000
0000
0010
0000
0000
0100
,  // measure 37
0000
0010
0000
0010
0000
1000
0010
0000
0001
0000
0000
0100
0000
0001
0000
0001
,  // measure 38
0000
0010
0001
0000
1000
0000
0000
0010
0000
1000
0000
1000
0000
0001
1000
0000
,  // measure 39
1000
0010
1000
0001
0000
0100
0000
0100
,  // measure 40
0000
0010
1000
0000
0001
0010
0001
0100
,  // measure 41
0000
0010
0000
0010
0000
1000
0001
0000
,  // measure 42
1000
0100
1000
0010
0000
0100
0000
0100
,  // measure 43
0000
0001
0010
0000
0001
0010
0001
0100
,  // measure 44
0000
0010
0000
0010
0000
1000
0001
0000
,  // measure 45
0100
0010
0100
0001
0000
1000
0000
1000
,  // measure 46
0000
0001
0100
0000
1000
0100
0010
0001
,  // measure 47
0000
0100
0000
0100
0000
0001
0010
0000
,  // measure 48
0100
0010
0001
1000
0000
0010
0000
0010
,  // measure 49
0000
0100
0001
0000
1000
0100
1000
0010
,  // measure 50
0000
0100
0000
0100
0000
0001
0010
0000
,  // measure 51
0001
0010
0100
1000
0000
0010
0000
0010
,  // measure 52
0000
0000
0000
0100
0000
0000
0001
0000
0000
0000
0000
0000
2002
0000
0000
0000
0003
0000
0002
0000
0000
0000
0003
0000
,  // measure 53
0002
0000
0003
0002
3003
0000
0220
0000
0000
0000
0000
0000
,  // measure 54
0000
0000
0000
0330
0000
0000
1001
0000
0000
1000
0000
0010
,  // measure 55
0100
0001
0100
0001
0000
0000
1000
0000
0000
0001
0000
0100
,  // measure 56
0001
0010
0001
0010
0100
0010
0100
0000
0100
1000
0000
1000
,  // measure 57
0010
0100
0010
0100
0000
0100
0001
0000
0001
0100
0010
0100
,  // measure 58
0010
1000
0010
1000
0010
0100
0001
0000
0000
0010
0000
0010
,  // measure 59
0100
1000
0100
0010
0000
0000
1000
0000
0000
0100
0000
0100
,  // measure 60
0010
0001
0010
0001
1000
0001
1000
0000
1000
0010
0000
0010
,  // measure 61
0100
0001
0100
0001
0000
0001
0010
0000
0010
0100
1000
0100
,  // measure 62
1000
0010
1000
0001
0100
0001
1000
0000
0000
0000
0000
0000
,  // measure 63
1001
0000
0000
0000
;

//---------------dance-single - ----------------
#NOTES:
     dance-single:
     :
     Beginner:
     3:
     0.166,0.267,0.104,0.132,0.000,98.000,11.000,14.000,0.000,0.000,0.000,0.166,0.267,0.104,0.132,0.000,98.000,11.000,14.000,0.000,0.000,0.000:
0000
0000
0000
0000
,
0000
0000
0000
0000
,
0000
0000
0000
0000
,
0000
0000
0000
0000
,
1000
0000
0000
0000
,
0001
0000
0000
0000
,
0100
0000
0000
0000
,
0010
0000
0000
0000
,
2000
0000
3000
0000
,
0002
0000
0003
0000
,
0200
0000
0300
0000
,
0020
0000
0030
0000
,
2000
0000
3000
0000
,
0200
0000
0300
0000
,
0020
0000
0030
0000
,
0002
0000
0003
0000
,
2002
0000
0000
0000
,
0000
0000
0000
0000
,
0000
0000
0000
0000
,
0000
0000
0000
3003
,
1001
0000
0100
0000
,
1000
0000
0100
0000
,
0010
0000
0001
0000
,
0010
0000
0001
0000
,
0100
0100
0000
0010
,
0000
0100
0000
1000
,
0000
0001
0000
1000
,
0000
0001
0000
0010
,
0010
0000
0100
0000
,
0100
0000
0001
0000
,
0001
0000
1000
0000
,
1000
0000
0010
0000
,
1000
0000
0010
0000
,
1000
0000
0100
0000
,
0001
0000
0100
0000
,
0001
0000
1001
1001
,
1001
0000
0000
0100
,
0000
0000
0010
0000
,
0000
0100
0000
0000
,
0010
0000
1000
0000
,
0010
0000
0100
0000
,
0001
0000
0100
0000
,
1000
0000
0100
0000
,
1000
0000
0001
0000
,
0010
0000
0001
0000
,
0110
0000
0100
0000
,
0001
0000
0100
0000
,
0010
0000
1000
0000
,
0010
0000
0100
0000
,
0001
0000
1001
0000
,
1000
0000
0010
0000
,
0100
0000
0001
0000
,
0100
0000
2002
0000
,
3003
0000
0220
0000
,
0330
0000
1001
0000
,
0100
0000
1000
0000
,
0010
0000
1000
0000
,
0001
0000
1000
0000
,
0010
0000
0001
0000
,
0100
0000
0001
0000
,
1000
0000
0001
0000
,
0010
0000
0001
0000
,
1000
0000
0001
0000
,
1001
0000
0000
0000
;

//---------------dance-single - ----------------
#NOTES:
     dance-single:
     :
     Easy:
     5:
     0.314,0.356,0.141,0.179,0.028,199.000,15.000,19.000,0.000,0.000,0.000,0.314,0.356,0.141,0.179,0.028,199.000,15.000,19.000,0.000,0.000,0.000: // measure 0
0000
0000
0000
0000
,  // measure 1
0000
0000
0000
0000
,  // measure 2
0000
0000
0000
0000
,  // measure 3
0000
0000
0000
0000
,  // measure 4
1000
0000
0001
0000
,  // measure 5
1000
0000
0001
0000
,  // measure 6
0100
0000
0010
0000
,  // measure 7
0100
0000
0010
0000
,  // measure 8
2000
0000
3100
0000
,  // measure 9
0002
0000
0103
0000
,  // measure 10
2000
0000
3010
0000
,  // measure 11
0002
0000
0013
0000
,  // measure 12
0200
0000
0310
0000
,  // measure 13
0020
0000
0130
0000
,  // measure 14
2000
0000
3001
0000
,  // measure 15
0002
0000
1003
0000
,  // measure 16
2002
0000
0000
0003
,  // measure 17
0001
0000
0001
0000
,  // measure 18
0001
0000
0001
0001
,  // measure 19
0001
0001
0002
3003
,  // measure 20
1001
0001
0100
0100
,  // measure 21
0010
0010
1000
1000
,  // measure 22
0001
0001
0100
0010
,  // measure 23
0100
0100
0010
0010
,  // measure 24
0110
1000
1000
0001
,  // measure 25
0010
0001
0010
0100
,  // measure 26
0100
0000
0000
0010
0000
0000
0010
0000
0000
1000
0000
1000
,  // measure 27
0000
1000
0000
0001
0000
0001
0000
0001
0000
1001
0000
0000
,  // measure 28
0110
0010
1000
0100
,  // measure 29
0010
0001
2000
0100
,  // measure 30
3010
0010
0002
0010
,  // measure 31
0103
0100
0220
0330
,  // measure 32
1001
0010
0001
0001
,  // measure 33
0100
0010
1000
0002
,  // measure 34
1003
0010
0100
0100
,  // measure 35
0001
0000
0001
0000
0001
0000
1001
0000
0000
1001
0000
0000
,  // measure 36
1001
0000
0100
1000
0100
0000
0010
0000
,  // measure 37
0001
0100
0001
0000
1000
0000
0010
0100
,  // measure 38
0010
0000
1000
0000
0100
0010
0100
0000
,  // measure 39
1001
0000
0000
0100
0000
0010
0000
0100
,  // measure 40
0000
0000
1000
0000
1000
0000
0000
0001
,  // measure 41
0000
0100
0000
0001
0000
0000
1000
0000
,  // measure 42
1000
0000
0000
0001
0000
0010
0000
0001
,  // measure 43
0000
0000
1000
0000
1000
0000
0000
0010
,  // measure 44
0000
1000
0000
0010
0000
0000
1000
0000
,  // measure 45
0001
0000
0000
0100
0000
0010
0000
0100
,  // measure 46
0000
0000
0001
0000
0001
0000
0000
1000
,  // measure 47
0000
0010
0000
1000
0000
0000
0001
0000
,  // measure 48
0001
0000
0000
1000
0000
0100
0000
1000
,  // measure 49
0000
0000
0001
0000
1000
0000
0000
0010
,  // measure 50
0000
0001
0000
0010
0000
0000
1000
0000
,  // measure 51
1000
0000
0000
0100
0000
0001
0000
0100
,  // measure 52
0000
1000
2001
0001
,  // measure 53
0001
3001
0220
0000
,  // measure 54
0000
0330
1001
0100
,  // measure 55
1000
1000
0010
0100
,  // measure 56
0001
0001
0010
0100
,  // measure 57
1000
1000
0010
1000
,  // measure 58
0010
0001
0010
0100
,  // measure 59
1000
1000
0001
0010
,  // measure 60
0100
0100
0010
1000
,  // measure 61
0100
0010
0001
0001
,  // measure 62
0100
0010
0100
0000
,  // measure 63
1001
0000
0000
0000
;

//---------------dance-single - ----------------
#NOTES:
     dance-single:
     :
     Medium:
     9:
     0.443,0.475,0.123,0.283,0.344,286.000,13.000,30.000,0.000,0.000,0.000,0.443,0.475,0.123,0.283,0.344,286.000,13.000,30.000,0.000,0.000,0.000: // measure 0
0000
0000
0000
0000
,  // measure 1
0000
0000
0000
0000
,  // measure 2
0000
0000
0000
0000
,  // measure 3
0000
0000
0000
0000
,  // measure 4
2000
0000
3200
0000
,  // measure 5
0320
0000
0032
0000
,  // measure 6
0203
0000
0320
0000
,  // measure 7
2030
0000
3002
0000
,  // measure 8
2003
0000
3100
0000
,  // measure 9
0002
0000
0103
0000
,  // measure 10
2000
0000
3010
0000
,  // measure 11
0002
0000
0013
0000
,  // measure 12
2000
0000
3001
0000
,  // measure 13
0002
0000
1003
0000
,  // measure 14
0200
0000
0310
0000
,  // measure 15
0020
0000
0130
0000
,  // measure 16
2002
0000
0000
0003
,  // measure 17
3001
0100
0010
0010
,  // measure 18
2000
0000
0000
3001
0000
0000
0010
0000
0010
1000
0000
2000
,  // measure 19
0002
0000
0000
3003
,  // measure 20
1001
0000
0000
0010
0000
0010
1000
0000
1000
0010
0000
0000
,  // measure 21
0100
0000
0000
0001
0000
0001
0010
0000
0010
0001
0000
0000
,  // measure 22
1000
0000
0000
0010
0000
0010
0100
0000
0100
0010
0000
0000
,  // measure 23
1000
0000
0000
0100
0000
0000
0010
0000
0010
0001
0000
0001
,  // measure 24
1000
0000
0000
0002
0000
0000
0023
0000
0000
0130
0000
0100
,  // measure 25
1000
0000
1000
0010
0000
0010
0100
0000
0000
0001
0000
0001
,  // measure 26
0010
0000
0010
0100
0000
0100
1000
0000
1000
0001
0000
0010
,  // measure 27
0000
0100
0000
1000
0000
0010
0000
0100
0000
0110
0000
0000
,  // measure 28
1001
0000
1000
0000
0001
0000
1000
0000
1000
0010
0000
0010
,  // measure 29
0100
0001
2001
0001
,  // measure 30
3010
0000
0010
0100
0000
0100
0002
0000
0000
1000
0000
0000
,  // measure 31
0013
0000
0010
0100
0000
0100
0002
0000
0000
1003
0000
0000
,  // measure 32
0010
0000
0000
1000
0000
1000
0001
0000
0001
0010
0000
0010
,  // measure 33
0100
0010
0001
2000
,  // measure 34
3010
0000
0000
0100
0000
0000
0001
0000
0001
0010
0000
0010
,  // measure 35
0100
0000
1000
0000
0010
0000
1010
0000
0000
0101
0000
0000
,  // measure 36
1001
0000
0000
1000
0000
0010
0000
0010
0000
0000
0100
0000
0001
0000
0000
0010
,  // measure 37
0000
0010
0000
0001
0000
0000
1000
0000
0010
0000
0000
0100
0000
0100
0000
0001
,  // measure 38
0000
0000
1000
0000
0100
0000
0000
0010
0000
0010
0000
0001
0000
0000
1000
0000
,  // measure 39
0001
0000
1000
0010
1000
0000
0001
0100
,  // measure 40
0000
0100
0001
0000
1000
0000
0001
0010
,  // measure 41
0001
0000
1000
0100
0000
0100
1000
0000
,  // measure 42
0001
0000
0010
0100
0010
0000
0001
1000
,  // measure 43
0000
1000
0001
0000
1000
0000
0010
0100
,  // measure 44
0010
0000
1000
0001
0000
0001
1000
0000
,  // measure 45
1001
0000
0001
0100
0001
0000
1000
0010
,  // measure 46
0000
0010
1000
0000
0001
0000
1000
0100
,  // measure 47
1000
0000
0001
0100
0000
0100
0001
0000
,  // measure 48
1000
0000
0010
0100
0010
0000
1000
0100
,  // measure 49
0000
0100
1000
0000
0001
0000
0010
0100
,  // measure 50
0010
0000
0001
0100
0000
0100
0001
0000
,  // measure 51
0010
0000
0001
1000
0001
0000
0100
0010
,  // measure 52
0000
0010
0100
0000
2001
0000
0001
0000
,  // measure 53
0001
3001
0220
0000
,  // measure 54
0000
0000
0000
0330
0000
0000
1001
0000
0000
1000
0000
1000
,  // measure 55
0010
0000
0010
0100
0000
0000
0001
0000
0000
0010
0000
0010
,  // measure 56
0100
0000
0100
1000
0000
1000
0010
0000
0010
0100
0000
0100
,  // measure 57
0001
0000
0001
0010
0000
0010
0001
0000
0001
0100
0000
0100
,  // measure 58
0010
0000
0010
1000
0000
0000
0001
0000
0000
1000
0000
1000
,  // measure 59
0100
0000
0100
1000
0000
0000
0001
0000
0000
1000
0000
1000
,  // measure 60
0010
0000
0010
1000
0000
1000
0100
0000
0100
0010
0000
0010
,  // measure 61
0001
0000
0001
0100
0000
0100
0010
0000
0010
0100
0000
0100
,  // measure 62
0001
0000
0001
1000
0000
1000
0001
0000
0000
0000
0000
0000
,  // measure 63
1001
0000
0000
0000
;
