#VERSION:0.82;
#TITLE:Stand Alone Beat Masta;
#SUBTITLE:;
#ARTIST:GUHROOVY;
#TITLETRANSLIT:;
#SUBTITLETRANSLIT:;
#ARTISTTRANSLIT:;
#GENRE:;
#ORIGIN:;
#CREDIT:;
#BANNER:Stand Alone Beat Masta.png;
#BACKGROUND:Stand Alone Beat Masta-bg.png;
#PREVIEWVID:;
#JACKET:Stand Alone Beat Masta-jacket.png;
#CDIMAGE:;
#DISCIMAGE:;
#LYRICSPATH:;
#CDTITLE:;
#MUSIC:Stand Alone Beat Masta.mp3;
#OFFSET:-0.780000;
#SAMPLESTART:39.183559;
#SAMPLELENGTH:15.000004;
#SELECTABLE:YES;
#BPMS:0.000=100.000,
16.000=200.000,
48.000=400.000,
232.000=200.000,
236.000=400.000,
292.000=200.000,
296.000=100.000,
312.000=200.000,
372.000=100.000,
374.000=400.000,
430.000=200.000,
432.000=100.000,
433.000=400.000,
489.000=200.000,
490.000=100.000;
#STOPS:295.500=1.200,
489.000=0.900;
#DELAYS:;
#WARPS:;
#TIMESIGNATURES:0.000=4=4;
#TICKCOUNTS:0.000=4;
#COMBOS:0.000=1;
#SPEEDS:0.000=1.000=0.000=0;
#SCROLLS:0.000=1.000;
#FAKES:;
#LABELS:0.000=Song Start;
#BGCHANGES:;
#KEYSOUNDS:;
#ATTACKS:
;

//---------------dance-single - ----------------
#NOTEDATA:;
#CHARTNAME:;
#STEPSTYPE:dance-single;
#DESCRIPTION:;
#CHARTSTYLE:;
#DIFFICULTY:Hard;
#METER:16;
#RADARVALUES:0.849746,1.000000,0.113764,0.463181,0.178772,661.000000,14.000000,57.000000,0.000000,0.000000,0.000000,0.000000,0.000000,0.849746,1.000000,0.113764,0.463181,0.178772,661.000000,14.000000,57.000000,0.000000,0.000000,0.000000,0.000000,0.000000;
#CREDIT:;
#NOTES:
// measure 0
0000
0000
0000
0000
,  // measure 1
0000
0000
0000
0000
,  // measure 2
0000
0000
0000
0000
,  // measure 3
0000
0000
0000
0000
,  // measure 4
1000
0000
0100
0000
1000
0000
0000
0000
0001
0100
0001
0000
0010
0000
0001
0000
,  // measure 5
1000
0000
0010
0000
1000
0000
0000
0000
0001
0010
0002
0000
0000
0000
1003
0000
,  // measure 6
0001
0000
0100
0000
0001
0000
0000
0000
1000
0100
1000
0000
0010
0000
1000
0000
,  // measure 7
0001
0000
0010
0000
0001
1000
0020
0000
0000
0000
1030
0000
0001
1000
0001
0000
,  // measure 8
1001
0000
0001
0100
0110
0000
0010
1000
,  // measure 9
1001
0000
1000
0100
0110
0000
0010
0001
,  // measure 10
1000
0000
0010
0000
0100
0000
0001
0000
1000
0100
1000
0100
0010
0001
0010
0001
,  // measure 11
0100
0000
0000
0000
0000
0000
0010
0100
0001
0000
1000
0000
0000
0000
0001
0000
,  // measure 12
1000
0010
0100
0010
,  // measure 13
1000
0100
1000
0000
0001
0000
0010
0000
,  // measure 14
0001
0100
0010
1000
,  // measure 15
0100
0010
0100
0000
0010
0000
0001
1000
,  // measure 16
0001
1000
0010
1000
,  // measure 17
0100
0010
0100
0000
1000
0000
0001
0000
,  // measure 18
0010
0000
0001
0000
1000
0010
1000
0000
,  // measure 19
0001
0000
0010
0000
0100
0000
1000
0100
,  // measure 20
1000
0001
0010
0100
,  // measure 21
1000
0010
1000
0000
0001
0000
0010
0000
,  // measure 22
0100
0010
0001
1000
,  // measure 23
0010
0100
0010
0000
1000
0000
0100
0010
,  // measure 24
0100
1000
0001
0010
,  // measure 25
0001
0000
0100
0001
0010
0000
0100
1000
,  // measure 26
0010
0100
0010
0100
0010
0100
0010
0100
,  // measure 27
0010
0100
0010
0100
0020
0000
0000
0000
,  // measure 28
2030
3010
0100
0020
,  // measure 29
0130
0002
0013
0100
,  // measure 30
0010
0001
0100
0010
,  // measure 31
1000
0000
0100
0000
0010
0000
0001
1000
,  // measure 32
0002
0103
0010
2000
,  // measure 33
3100
0020
0031
1000
,  // measure 34
0010
0100
0010
1000
,  // measure 35
0001
0000
0010
0000
0100
1000
0100
1000
,  // measure 36
0020
0130
0001
2000
,  // measure 37
3010
0200
0301
1000
,  // measure 38
0010
0100
0010
1000
,  // measure 39
0001
0000
0010
0000
0100
0000
1000
0001
,  // measure 40
2000
0000
3001
0010
0001
0000
1000
0010
,  // measure 41
1000
0100
0010
0001
1000
0010
0100
0001
,  // measure 42
2000
0000
0000
0000
,  // measure 43
0000
0000
0000
0000
,  // measure 44
3001
0010
0001
0100
,  // measure 45
0010
1000
0100
0010
,  // measure 46
0100
1000
0002
0013
,  // measure 47
0200
0000
1300
0000
0002
0000
1003
0001
,  // measure 48
1000
0010
0100
0001
,  // measure 49
1000
0001
0010
0001
,  // measure 50
1000
0010
0200
0301
,  // measure 51
0020
0000
0130
0000
2000
0000
3010
0100
,  // measure 52
0010
1000
0001
0010
,  // measure 53
0001
0100
0010
1000
,  // measure 54
0001
0010
0002
0013
,  // measure 55
0200
0000
0310
0000
0002
0000
1003
0001
,  // measure 56
1000
0010
0100
0001
,  // measure 57
1000
0000
0100
0010
0001
0000
0100
0010
,  // measure 58
1000
1000
0020
0000
0230
0000
0302
0000
,  // measure 59
1003
0001
0010
0100
,  // measure 60
0010
0001
1000
0010
,  // measure 61
1000
0001
0020
0031
,  // measure 62
0200
0000
0310
0000
2000
0000
3100
1000
,  // measure 63
0001
0010
0100
0010
,  // measure 64
0001
1000
0010
1000
,  // measure 65
0001
0100
0020
1030
,  // measure 66
0200
0000
0310
0001
0020
0000
0031
0100
,  // measure 67
0001
1000
0010
0100
,  // measure 68
0001
0010
0100
0010
,  // measure 69
0001
1000
0020
0130
,  // measure 70
0002
0000
0013
0000
0100
1000
0100
1000
,  // measure 71
0010
0100
0001
0010
,  // measure 72
0100
1000
0010
0100
0001
0010
0100
1000
,  // measure 73
0002
0000
0000
0000
0000
0000
0000
0003
,  // measure 74
1001
0000
1000
0010
0000
0010
0100
0000
0001
0000
0001
0010
0000
0010
0100
0000
,  // measure 75
1000
0000
1000
0010
0000
0010
0100
0000
0001
0000
0001
0010
0000
0010
0100
0000
,  // measure 76
1000
0000
1000
0001
0000
0001
0010
0000
0001
0000
0001
1000
0000
1000
0010
0000
,  // measure 77
1000
0000
1000
0001
0000
0001
0100
0000
0001
0000
0001
1000
0000
1000
0100
0000
,  // measure 78
0110
0000
0020
0000
0031
0000
0000
0002
,  // measure 79
0000
0203
0000
0320
0000
2030
0000
0000
,  // measure 80
3001
0000
2000
0000
3010
0000
0000
2000
,  // measure 81
0000
3200
0000
0320
0000
0000
0000
0000
,  // measure 82
0031
0000
2000
0000
3010
1000
0000
0002
,  // measure 83
0000
0203
0000
0320
0000
1030
0010
0000
,  // measure 84
1001
0000
0001
0010
0000
0000
0000
0000
,  // measure 85
1001
0000
1000
0010
0000
0000
0000
0000
,  // measure 86
1001
0000
0000
1000
0000
0000
1000
0000
0001
0000
0000
0001
0000
0000
0001
0000
,  // measure 87
0100
0000
0000
0100
0000
0000
0100
0000
0010
0000
0000
0010
0000
0000
0010
0000
,  // measure 88
1000
0000
0000
1000
0000
0000
1000
0000
0001
0000
0000
0001
0000
0000
0001
0000
,  // measure 89
0010
0000
0000
0010
0000
0000
0010
0000
0100
0000
0000
0100
0000
0000
0100
0000
,  // measure 90
1000
0000
0000
0010
0000
0000
1000
0000
0001
0000
0000
0010
0000
0000
0001
0000
,  // measure 91
1000
0000
0000
0100
0000
0000
1000
0000
0001
0000
0000
0100
0000
0000
0001
0000
,  // measure 92
1000
0000
0000
1000
0000
0000
1000
0000
0001
0000
0000
0001
0000
0000
0001
0000
,  // measure 93
2000
0000
0000
0000
0000
0000
0000
0000
0000
0000
3001
0010
0100
0000
1000
0010
0100
0000
0000
0000
0000
0000
0000
0000
0001
0000
0000
0000
0010
0000
0000
0000
,  // measure 94
0001
0000
0100
0000
0010
0000
1000
0100
,  // measure 95
1000
0000
0010
0000
0100
0000
0001
1000
,  // measure 96
0001
0000
0010
0000
0100
0000
1000
0001
,  // measure 97
1000
0000
0010
0100
0010
0000
1000
0100
,  // measure 98
1000
0000
0001
0000
0010
0000
0001
0100
,  // measure 99
0001
0000
1000
0000
0010
0000
0100
0010
,  // measure 100
0100
0000
0001
0000
0010
0000
0100
1000
,  // measure 101
0010
0000
0100
0001
0010
0000
0001
1000
,  // measure 102
0010
0000
1000
0000
0001
0000
0010
0001
,  // measure 103
0100
0000
0010
0000
1000
0000
0100
0010
,  // measure 104
0001
0000
1000
0000
0001
0000
0100
0010
,  // measure 105
1000
0100
1000
0100
0010
0000
0001
0100
,  // measure 106
0010
0000
1000
0000
0100
0010
0001
1000
,  // measure 107
0010
0100
0001
1000
0002
0000
0000
0000
,  // measure 108
2000
3003
1000
0010
0100
0010
1000
0000
,  // measure 109
0100
0000
0001
0010
0100
0010
0001
0000
,  // measure 110
1000
0010
0100
0001
1000
0000
0001
0000
,  // measure 111
0010
0000
0001
1000
0010
1000
0001
0000
,  // measure 112
1000
0001
0010
0100
0010
0001
1000
0000
,  // measure 113
0001
0000
0100
0010
1000
0010
0100
0000
,  // measure 114
0001
0010
0100
0010
0001
0000
1000
0000
,  // measure 115
0010
0000
1000
0100
1000
0000
0001
0010
,  // measure 116
0100
1000
0001
0100
0010
0100
0001
0000
,  // measure 117
0010
0000
0001
1000
0100
1000
0001
0000
,  // measure 118
1000
0010
0100
0001
0010
0000
0100
0000
,  // measure 119
1000
0000
0001
1000
0010
1000
0001
0100
,  // measure 120
0010
1000
0001
0010
0001
0000
0010
1000
,  // measure 121
0001
0010
0001
1000
0010
1000
0001
0100
,  // measure 122
0010
1000
0001
0000
2001
0010
0100
0010
,  // measure 123
0001
0010
0100
3010
1002
0010
0100
0010
,  // measure 124
1000
0010
0100
0013
2100
0001
0010
0001
,  // measure 125
0100
0001
0010
3001
0102
0010
1000
0010
,  // measure 126
0100
0010
1000
0013
2002
0000
0000
0000
,  // measure 127
0000
3003
0000
0000
;

//---------------dance-single - ----------------
#NOTEDATA:;
#CHARTNAME:;
#STEPSTYPE:dance-single;
#DESCRIPTION:;
#CHARTSTYLE:;
#DIFFICULTY:Challenge;
#METER:18;
#RADARVALUES:1.000000,1.000000,0.292535,0.398173,0.255969,797.000000,36.000000,49.000000,0.000000,0.000000,0.000000,0.000000,0.000000,1.000000,1.000000,0.292535,0.398173,0.255969,797.000000,36.000000,49.000000,0.000000,0.000000,0.000000,0.000000,0.000000;
#CREDIT:;
#NOTES:
// measure 0
0000
0000
0000
0000
,  // measure 1
0000
0000
0000
0000
,  // measure 2
0000
0000
0000
0000
,  // measure 3
0000
0000
0000
0000
,  // measure 4
1000
0000
0100
0000
0010
0000
0100
0000
1000
0010
1000
0000
0100
0000
0010
0000
,  // measure 5
0001
0000
0100
0000
0010
0000
0100
0000
0001
0010
0200
0000
0000
0000
0310
0000
,  // measure 6
0001
0000
1000
0000
0010
0000
1000
0000
0001
0010
0001
0000
1000
0000
0100
0000
,  // measure 7
1000
0000
0010
0000
0100
0001
0020
0000
0000
0000
0031
0000
1000
0010
0100
0001
,  // measure 8
1001
1000
0100
0010
0110
0100
0010
0001
,  // measure 9
1001
1000
0010
0100
0110
0010
0100
0001
,  // measure 10
1000
0000
0010
0000
0100
0000
0001
0000
1000
0100
0010
0100
0010
0001
1000
0010
,  // measure 11
0100
0000
0000
0000
0000
0000
0100
0010
1000
0000
0100
0000
0000
0000
0010
0000
,  // measure 12
0001
1000
0010
1000
,  // measure 13
0100
0010
0100
1000
0001
0000
0100
0001
,  // measure 14
0100
0010
1000
0001
,  // measure 15
0010
0001
0100
0010
1000
0000
0001
1000
,  // measure 16
0001
1000
0010
0100
,  // measure 17
0001
1000
0010
0100
0010
0000
1000
0100
,  // measure 18
0010
0000
0001
0000
0100
0010
0100
0000
,  // measure 19
0001
0000
1000
0000
0100
0010
0001
0010
,  // measure 20
0001
1000
0010
0001
,  // measure 21
0010
1000
0100
1000
0010
0000
0100
0001
,  // measure 22
1000
0100
0001
0100
,  // measure 23
1000
0010
0100
0001
0010
0000
0001
1000
,  // measure 24
0010
0100
0001
0010
,  // measure 25
1000
0100
0010
0100
1000
0001
0010
0001
,  // measure 26
0100
0010
0100
0010
0100
0010
0100
0010
,  // measure 27
0100
0010
0100
0010
0200
0000
0300
0000
,  // measure 28
1001
1000
0010
0110
,  // measure 29
0100
0000
0101
0000
0001
0000
0100
0001
,  // measure 30
0100
0000
0100
0010
0100
0000
0100
0001
,  // measure 31
1000
0000
1000
0100
1000
0000
1000
0010
,  // measure 32
1010
1000
0100
0110
,  // measure 33
0010
0000
0011
0000
0001
0000
0010
0100
,  // measure 34
0010
0000
0010
0001
0010
0000
0010
0100
,  // measure 35
1000
0000
1000
0001
1000
0010
0100
0001
,  // measure 36
1001
0001
0010
0110
,  // measure 37
0100
0000
1100
0000
1000
0000
0100
0010
,  // measure 38
0100
0000
0100
1000
0100
0000
0100
0010
,  // measure 39
0001
0000
0001
0010
0001
0000
0001
0100
,  // measure 40
0101
0000
1000
0010
0100
0000
0001
0010
,  // measure 41
0100
1000
0001
0100
0010
1000
0001
0100
,  // measure 42
0010
0000
1000
0100
1000
0100
1000
0100
,  // measure 43
1000
0100
0010
0000
0001
0100
0001
0100
,  // measure 44
0010
0000
1000
0000
0100
1000
0100
0000
,  // measure 45
0010
0000
0001
0000
0100
0010
0100
0000
,  // measure 46
0001
0010
0001
0000
2000
0000
3010
0000
,  // measure 47
0002
0000
0013
0000
2000
0000
3010
1000
,  // measure 48
0001
0000
0100
0000
0010
1000
0010
0000
,  // measure 49
0100
0000
0001
0000
0010
0001
0010
0000
,  // measure 50
0001
0100
0010
0000
2000
0000
3100
0000
,  // measure 51
0002
0000
0103
0000
2000
0000
3100
1000
,  // measure 52
0010
0000
0100
0000
0001
0010
0001
0000
,  // measure 53
1000
0000
0010
0000
1000
0100
1000
0000
,  // measure 54
0001
0100
0010
0000
2000
0000
3100
0000
,  // measure 55
0002
0000
0103
0000
2000
0000
3010
0100
,  // measure 56
0010
0000
1000
0000
0100
0010
0100
0000
,  // measure 57
0001
1000
0010
1000
0100
0010
0100
1000
,  // measure 58
0001
0010
0001
0000
2000
0000
0000
0000
3020
0000
0000
0000
0230
0000
0000
0000
,  // measure 59
0301
0000
1000
0000
0010
0100
0010
0000
,  // measure 60
1000
0000
0100
0000
0010
0001
0010
0000
,  // measure 61
1000
0010
1000
0000
0200
0000
0310
0000
,  // measure 62
0002
0000
0013
0000
0200
0000
0310
0001
,  // measure 63
1000
0000
0010
0000
0100
0001
0100
0000
,  // measure 64
0010
0000
1000
0000
0100
1000
0100
0000
,  // measure 65
0010
0001
0010
0000
0200
0000
1300
0000
,  // measure 66
0020
0000
0130
0010
2000
0000
3100
0010
,  // measure 67
0001
0000
1000
0000
0010
0100
0010
0000
,  // measure 68
1000
0000
0100
0000
0010
0001
0010
0000
,  // measure 69
0001
0100
0001
0000
2000
0000
3010
0000
,  // measure 70
0002
0000
0013
0000
1000
0100
1000
0100
,  // measure 71
0010
0000
0001
0000
0100
0010
0100
0001
,  // measure 72
1000
0100
1000
0010
0100
0001
0010
0100
,  // measure 73
2000
0000
0000
0000
0000
0000
0000
0000
0000
0000
0000
0000
0000
0000
0000
0000
0000
0000
0000
0000
0000
0000
0000
0000
0000
0000
0000
0000
0000
0000
0000
0000
0000
0000
0000
0000
0000
0000
0000
0000
0000
0000
0000
0000
0000
0000
0000
0000
0000
0000
0000
0000
0000
0000
0000
0000
0000
0000
0000
0000
0000
0000
0000
0000
0000
0000
0000
0000
0000
0000
0000
0000
0000
0000
0000
0000
0000
0000
0000
0000
0000
0000
0000
0000
0000
0000
0000
0000
0000
0000
0000
0000
0000
0000
0000
0000
0000
0000
0000
0000
0000
0000
0000
0000
0000
0000
0000
0000
0000
0000
0000
0000
0000
0000
0000
0000
0000
0000
0000
0000
0000
0000
0000
0000
0000
0000
0000
0000
0000
0000
0000
0000
0000
0000
0000
0000
0000
0000
0000
0000
0000
0000
0000
0000
0000
0000
0000
0000
0000
0000
0000
0000
0000
0000
0000
0000
0000
0000
0000
0000
0000
0000
0000
0000
0000
0000
0000
0000
0000
3000
0000
0000
0000
0000
0000
0000
0000
0000
0000
0000
0000
0000
0000
0000
0000
0000
0000
0000
0000
0000
0000
0000
,  // measure 74
1001
0000
1000
0100
0000
0001
0100
0000
1000
0000
1000
0010
0000
0001
0010
0000
,  // measure 75
1000
0000
0010
0001
0000
0010
1000
0000
0001
0000
0100
1000
0000
0100
0001
0000
,  // measure 76
1000
0000
0100
0010
0000
0100
1000
0000
0001
0000
0100
0010
0000
0100
0001
0000
,  // measure 77
1000
0000
0010
0001
0000
0010
1000
0000
0001
0000
0010
1000
0000
0010
0001
0000
,  // measure 78
1000
0000
0000
1000
0100
0000
1000
0000
0001
0000
0100
0001
0010
0000
0001
0000
,  // measure 79
1000
0000
0000
1000
0010
0000
1000
0000
0001
0000
0010
0001
0100
0000
0001
0000
,  // measure 80
1000
0000
0000
1000
0100
0000
1000
0000
0001
0000
1000
0001
0100
0000
0001
0000
,  // measure 81
1000
0000
0000
1000
0001
0000
1000
0000
0001
0000
1000
0001
0010
0000
0001
0000
,  // measure 82
0100
0000
0000
0100
0001
0000
0100
0000
0010
0000
1000
0010
0100
0000
0010
0000
,  // measure 83
0100
0000
0000
0100
0001
0000
0100
0000
0010
0000
0100
0010
1000
0000
0010
0000
,  // measure 84
1001
0000
0000
1000
0010
0000
1010
0000
0001
0000
0000
0001
0000
0000
0001
0000
,  // measure 85
1001
0000
0000
0001
0010
0000
0011
0000
1000
0000
0000
1000
0000
0000
0010
0000
,  // measure 86
0110
0000
0000
0100
0002
0000
0103
0000
0012
0000
0003
0010
0000
0000
0210
0000
,  // measure 87
1300
0000
0020
1000
0030
0000
1200
0000
0310
0000
0002
0010
0003
0000
0010
0000
,  // measure 88
0001
0000
0000
0001
0200
0000
0301
0000
2010
0000
3000
0010
0000
0000
0210
0000
,  // measure 89
0301
0000
0020
0001
0030
0000
2001
0000
0010
0000
0000
0010
0000
0000
3010
0000
,  // measure 90
1000
0000
0000
1000
0200
0000
1300
0000
0011
0000
0002
0010
0003
0000
0210
0000
,  // measure 91
1300
0000
0020
1000
0030
0000
1002
0000
0013
0000
0001
0010
0001
0000
0000
0000
,  // measure 92
1001
0000
0000
1000
0100
0000
1100
0000
0001
0000
0000
0001
0000
0000
0001
0000
,  // measure 93
0200
0000
0000
0000
0010
0000
0010
0000
0000
0000
0301
0010
0100
0000
1000
0010
0100
0000
0000
0000
0000
0000
0000
0000
0001
0000
0000
0000
0010
0000
0000
0000
,  // measure 94
0100
0000
0010
0000
0001
0000
1000
0010
,  // measure 95
0100
0000
0010
1000
0100
0000
0010
0001
,  // measure 96
1000
0000
0001
0000
0100
0000
0010
1000
,  // measure 97
0001
0000
0010
0001
1000
0000
0100
1000
,  // measure 98
0010
0000
0100
0000
0001
0000
0010
0100
,  // measure 99
1000
0000
0001
0000
0100
0000
0001
0010
,  // measure 100
0100
0000
0010
0000
0001
0000
1000
0010
,  // measure 101
0100
0001
0010
0100
1000
0000
0100
1000
,  // measure 102
0010
0000
0100
0000
0001
0000
0010
0001
,  // measure 103
0100
0000
0010
1000
0100
0000
1000
0001
,  // measure 104
0010
0000
0001
0000
1000
0000
0010
0100
,  // measure 105
0001
0010
0100
1000
0001
0000
1000
0010
,  // measure 106
0100
0000
0001
0010
0001
0100
0010
1000
,  // measure 107
0100
1000
0010
0100
0002
0000
0000
0000
,  // measure 108
2000
3003
1000
0010
0100
0010
1000
0001
,  // measure 109
0010
0000
0001
1000
0010
0100
0001
0000
,  // measure 110
1000
0010
0100
0001
0100
0010
1000
0100
,  // measure 111
0010
0000
0001
0100
0010
1000
0100
0010
,  // measure 112
0100
0010
0001
1000
0010
1000
0100
0010
,  // measure 113
0001
0000
1000
0010
0100
0001
1000
0000
,  // measure 114
0010
0001
1000
0010
0100
0010
1000
0100
,  // measure 115
0010
0000
0001
1000
0010
1000
0001
0010
,  // measure 116
0100
1000
0001
1000
0010
0100
0010
1000
,  // measure 117
0100
0000
1000
0010
0100
0001
0010
0000
,  // measure 118
0001
0100
0010
0100
0001
0010
0001
1000
,  // measure 119
0010
0000
1000
0010
0100
0001
0010
0001
,  // measure 120
0010
0100
1000
0001
0100
0010
0100
0001
,  // measure 121
0010
0100
0010
0001
1000
0010
0100
0001
,  // measure 122
1000
0010
0100
0000
2001
0100
0010
0001
,  // measure 123
0010
0100
0010
3001
1002
0010
0100
1000
,  // measure 124
0100
0010
0100
1003
0201
0010
1000
0010
,  // measure 125
0001
0010
1000
0310
1020
0100
0001
0100
,  // measure 126
1000
0100
0001
0130
2002
0000
0000
0000
,  // measure 127
0000
3003
0000
0000
;

//---------------dance-single - ----------------
#NOTEDATA:;
#CHARTNAME:;
#STEPSTYPE:dance-single;
#DESCRIPTION:;
#CHARTSTYLE:;
#DIFFICULTY:Beginner;
#METER:6;
#RADARVALUES:0.236814,0.413613,0.097512,0.162520,0.000000,172.000000,12.000000,20.000000,0.000000,0.000000,0.000000,0.000000,0.000000,0.236814,0.413613,0.097512,0.162520,0.000000,172.000000,12.000000,20.000000,0.000000,0.000000,0.000000,0.000000,0.000000;
#CREDIT:;
#NOTES:
// measure 0
0000
0000
0000
0000
,  // measure 1
0000
0000
0000
0000
,  // measure 2
0000
0000
0000
0000
,  // measure 3
0000
0000
0000
0000
,  // measure 4
1001
0000
0000
0000
,  // measure 5
0000
0000
0000
0000
,  // measure 6
0000
0000
0000
0000
,  // measure 7
0000
0000
0000
0000
,  // measure 8
1000
0000
1000
0000
,  // measure 9
0001
0000
0001
0000
,  // measure 10
0100
0000
0100
0000
,  // measure 11
0110
0000
0000
0000
,  // measure 12
1000
0000
0000
0000
,  // measure 13
1000
0000
0000
0000
,  // measure 14
0001
0000
0000
0000
,  // measure 15
0001
0000
0000
0000
,  // measure 16
0100
0000
0000
0000
,  // measure 17
0100
0000
0000
0000
,  // measure 18
0010
0000
0000
0000
,  // measure 19
0010
0000
0000
0000
,  // measure 20
1000
0000
0000
0000
,  // measure 21
1000
0000
0000
0000
,  // measure 22
0100
0000
0000
0000
,  // measure 23
0100
0000
0000
0000
,  // measure 24
0010
0000
0000
0000
,  // measure 25
0010
0000
0000
0000
,  // measure 26
0002
0000
0000
0000
,  // measure 27
0000
0000
0003
0000
,  // measure 28
0001
0000
0000
0001
,  // measure 29
0000
0001
0000
0000
,  // measure 30
0010
0000
0000
0000
,  // measure 31
0010
0000
0000
0000
,  // measure 32
1000
0000
0000
1000
,  // measure 33
0000
1000
0000
0000
,  // measure 34
0100
0000
0000
0000
,  // measure 35
0100
0000
0000
0000
,  // measure 36
0010
0000
0000
0010
,  // measure 37
0000
0010
0000
0000
,  // measure 38
0001
0000
0000
0000
,  // measure 39
0001
0000
0000
0000
,  // measure 40
0100
0000
0000
0100
,  // measure 41
0000
0100
0000
0000
,  // measure 42
2000
0000
0000
0000
,  // measure 43
0000
0000
3000
0000
,  // measure 44
1000
0000
1000
0000
,  // measure 45
1000
0000
0000
0000
,  // measure 46
0010
0000
0000
0000
,  // measure 47
0010
0000
0000
0000
,  // measure 48
0100
0000
0100
0000
,  // measure 49
0100
0000
0000
0000
,  // measure 50
0001
0000
0000
0000
,  // measure 51
0001
0000
0000
0000
,  // measure 52
1000
0000
1000
0000
,  // measure 53
1000
0000
0000
0000
,  // measure 54
0100
0000
0000
0000
,  // measure 55
0100
0000
0000
0000
,  // measure 56
0010
0000
0000
0000
,  // measure 57
0001
0000
0001
0000
,  // measure 58
0002
0000
0003
0000
,  // measure 59
0001
0000
0001
0000
,  // measure 60
0001
0000
0000
0000
,  // measure 61
2000
0000
3000
0000
,  // measure 62
1000
0000
0000
0000
,  // measure 63
0010
0000
0010
0000
,  // measure 64
0010
0000
0000
0000
,  // measure 65
0200
0000
0300
0000
,  // measure 66
0100
0000
0000
0000
,  // measure 67
0001
0000
0001
0000
,  // measure 68
0001
0000
0000
0000
,  // measure 69
0020
0000
0030
0000
,  // measure 70
0010
0000
0000
0000
,  // measure 71
0100
0000
0000
0000
,  // measure 72
1000
0000
0000
0000
,  // measure 73
1001
0000
0000
0000
,  // measure 74
0002
0003
0001
0000
,  // measure 75
2000
3000
1000
0000
,  // measure 76
0020
0030
0010
0000
,  // measure 77
0200
0300
0100
0000
,  // measure 78
1001
0000
1000
0000
,  // measure 79
0010
0000
0010
0000
,  // measure 80
0001
0000
0001
0000
,  // measure 81
0010
0000
0010
0000
,  // measure 82
1000
0000
1000
0000
,  // measure 83
0100
0000
0100
0000
,  // measure 84
1001
0000
0000
0000
,  // measure 85
0110
0000
0000
0000
,  // measure 86
1001
0000
0001
0000
,  // measure 87
0100
0000
0100
0000
,  // measure 88
1000
0000
1000
0000
,  // measure 89
0010
0000
0010
0000
,  // measure 90
0001
0000
0001
0000
,  // measure 91
1000
0000
1000
0000
,  // measure 92
1001
0000
0000
0000
,  // measure 93
0110
0000
1000
0000
,  // measure 94
1000
0000
0100
0000
,  // measure 95
0000
0000
0001
0000
,  // measure 96
0001
0000
0100
0000
,  // measure 97
0000
0000
1000
0000
,  // measure 98
1000
0000
0010
0000
,  // measure 99
0000
0000
0001
0000
,  // measure 100
0001
0000
0010
0000
,  // measure 101
0000
0000
1000
0000
,  // measure 102
0100
0000
1000
0000
,  // measure 103
0000
0000
0001
0000
,  // measure 104
0100
0000
0001
0000
,  // measure 105
0000
0000
1000
0000
,  // measure 106
1000
0000
0001
0000
,  // measure 107
0001
0000
2002
0000
,  // measure 108
3003
1000
0000
0100
,  // measure 109
0000
1000
0000
0100
,  // measure 110
0000
0010
0000
0001
,  // measure 111
0000
0010
0000
0001
,  // measure 112
0000
1000
0000
0010
,  // measure 113
0000
1000
0000
0010
,  // measure 114
0000
0100
0000
0001
,  // measure 115
0000
0100
0000
0002
,  // measure 116
0003
0001
0000
0010
,  // measure 117
0000
0100
0000
1000
,  // measure 118
0000
0001
0000
0100
,  // measure 119
0000
0020
0030
0010
,  // measure 120
0000
1000
0000
0100
,  // measure 121
0000
0010
0000
0001
,  // measure 122
0000
1001
2000
0000
,  // measure 123
3000
0000
0002
0000
,  // measure 124
0003
0000
0200
0000
,  // measure 125
0300
0000
0020
0000
,  // measure 126
0030
0000
2002
0000
,  // measure 127
0000
3003
0000
0000
;

//---------------dance-single - ----------------
#NOTEDATA:;
#CHARTNAME:;
#STEPSTYPE:dance-single;
#DESCRIPTION:;
#CHARTSTYLE:;
#DIFFICULTY:Easy;
#METER:10;
#RADARVALUES:0.522385,1.000000,0.268158,0.438803,0.032504,363.000000,33.000000,54.000000,0.000000,0.000000,0.000000,0.000000,0.000000,0.522385,1.000000,0.268158,0.438803,0.032504,363.000000,33.000000,54.000000,0.000000,0.000000,0.000000,0.000000,0.000000;
#CREDIT:;
#NOTES:
// measure 0
0000
0000
0000
0000
,  // measure 1
0000
0000
0000
0000
,  // measure 2
0000
0000
0000
0000
,  // measure 3
0000
0000
0000
0000
,  // measure 4
1000
0100
1000
0000
,  // measure 5
0001
0100
0001
0000
,  // measure 6
1000
0010
1000
0000
,  // measure 7
0001
0010
0001
0001
,  // measure 8
1001
0000
0011
0000
,  // measure 9
1100
0000
1001
0000
,  // measure 10
1000
0010
0100
0001
,  // measure 11
1001
0000
0000
0000
0001
1000
0000
0001
,  // measure 12
1000
0100
1000
0100
,  // measure 13
0010
0000
0010
0000
,  // measure 14
0001
0100
0001
0100
,  // measure 15
0010
0000
0010
1000
,  // measure 16
0100
0010
0100
0010
,  // measure 17
0001
0000
0001
0000
,  // measure 18
0100
0010
0100
0010
,  // measure 19
1000
0000
1000
0000
,  // measure 20
0100
1000
0100
1000
,  // measure 21
0010
0000
0010
0000
,  // measure 22
0100
0001
0100
0001
,  // measure 23
0010
0000
0010
0001
,  // measure 24
1000
0010
1000
0000
,  // measure 25
0001
0010
0100
1000
,  // measure 26
0002
0000
0000
0000
,  // measure 27
0000
0000
0003
0000
,  // measure 28
1001
0000
0000
0011
,  // measure 29
0000
1100
0000
1000
,  // measure 30
0002
0003
0020
0030
,  // measure 31
0100
2000
0000
3000
,  // measure 32
1001
0000
0000
1010
,  // measure 33
0000
0101
0000
1000
,  // measure 34
0020
0030
0100
0002
,  // measure 35
0000
0000
0000
0003
,  // measure 36
1001
0000
0000
0011
,  // measure 37
0000
1100
0000
1000
,  // measure 38
0010
0100
0002
0003
,  // measure 39
1000
0020
0000
0030
,  // measure 40
1001
0000
0000
0101
,  // measure 41
0000
1010
0000
1000
,  // measure 42
0002
0000
0000
0000
,  // measure 43
0000
0000
0003
0000
,  // measure 44
0001
0000
0010
0000
,  // measure 45
0001
0100
0010
2000
,  // measure 46
0000
0000
0001
0000
,  // measure 47
0010
0000
3001
0000
,  // measure 48
1000
0000
0010
0000
,  // measure 49
1000
0100
0010
0002
,  // measure 50
0000
0000
1000
0000
,  // measure 51
0100
0000
1003
0000
,  // measure 52
0001
0000
0100
0000
,  // measure 53
0001
0010
0100
2000
,  // measure 54
0000
0000
0001
0000
,  // measure 55
0100
0000
3001
1000
,  // measure 56
1001
0000
0000
0000
,  // measure 57
0011
0000
1100
0000
,  // measure 58
2002
0000
0000
3003
,  // measure 59
1000
0010
0100
0000
,  // measure 60
1000
0100
0010
0002
,  // measure 61
0000
0000
1000
0000
,  // measure 62
0010
0000
0103
0000
,  // measure 63
0001
0010
0100
0000
,  // measure 64
0001
0100
0010
2000
,  // measure 65
0000
0000
0001
0000
,  // measure 66
0010
0000
3100
0000
,  // measure 67
1000
0010
0100
0000
,  // measure 68
1000
0100
0010
0002
,  // measure 69
0000
0000
1000
0000
,  // measure 70
0010
0000
0103
0001
,  // measure 71
0101
0000
0000
0000
,  // measure 72
1010
0000
0110
0000
,  // measure 73
2002
0000
0000
3003
,  // measure 74
1001
0000
0000
1000
0000
0000
1000
0000
0010
0000
0000
0010
0000
0000
0010
0000
,  // measure 75
0100
0000
0000
0100
0000
0000
0100
0000
0001
0000
0000
0001
0000
0000
0001
0000
,  // measure 76
1000
0000
0000
1000
0000
0000
1000
0000
0100
0000
0000
0100
0000
0000
0100
0000
,  // measure 77
0010
0000
0000
0010
0000
0000
0010
0000
0001
0000
0000
0001
0000
0000
0001
0000
,  // measure 78
1001
0000
2000
0000
3010
0000
0000
2000
,  // measure 79
0000
3200
0000
0320
0000
0032
0000
0000
,  // measure 80
0003
0000
2000
0000
3100
0000
0000
2000
,  // measure 81
0000
3020
0000
0230
0000
0000
0000
0000
,  // measure 82
0300
0000
0002
0000
0013
0001
0000
2000
,  // measure 83
0000
3020
0000
0230
0000
0301
0100
0000
,  // measure 84
1001
0000
0001
0010
0000
0000
0000
0000
,  // measure 85
1001
0000
1000
0010
0000
0000
0000
0000
,  // measure 86
1001
0000
2000
0000
3001
0000
0000
2000
,  // measure 87
0000
3020
0000
0230
0000
0302
0000
0000
,  // measure 88
0003
0000
2000
0000
3001
0000
0000
2000
,  // measure 89
0000
3200
0000
0320
0000
0000
0000
0000
,  // measure 90
0030
0000
0002
0000
1003
0001
0000
2000
,  // measure 91
0000
3002
0000
0023
0000
0130
0010
0000
,  // measure 92
0110
0000
0001
1000
0000
0000
0000
0000
,  // measure 93
0220
0000
0000
0330
1000
0000
0000
0100
,  // measure 94
0000
0000
1000
0000
0001
0000
0000
0100
,  // measure 95
0000
0000
0001
0000
1000
0000
0000
0010
,  // measure 96
0000
0000
1000
0000
0001
0000
0000
0010
,  // measure 97
0000
0000
0001
0000
1000
0000
0000
0001
,  // measure 98
0000
0000
1000
0000
0010
0000
0000
0100
,  // measure 99
0000
0000
0010
0000
1000
0000
0000
0001
,  // measure 100
0000
0000
1000
0000
0100
0000
0000
0010
,  // measure 101
0000
0000
0100
0000
1000
0000
0000
0010
,  // measure 102
0000
0000
0100
0000
0001
0000
0000
0010
,  // measure 103
0000
0000
0100
0000
1000
0000
0000
0100
,  // measure 104
0000
0000
0010
0000
0001
0000
0000
0100
,  // measure 105
0000
0000
0010
0000
1000
0000
0000
0001
,  // measure 106
0000
0000
0010
0000
0100
0000
0000
1000
,  // measure 107
0000
0001
2000
0000
,  // measure 108
0002
3003
1000
0000
0010
0000
1000
0000
,  // measure 109
0100
0010
0000
0010
,  // measure 110
0000
0001
0010
0001
,  // measure 111
0100
0010
0000
0010
,  // measure 112
0000
1000
0100
0010
,  // measure 113
0001
0010
0000
0010
,  // measure 114
0000
0001
0100
0010
,  // measure 115
1000
0010
0000
0020
,  // measure 116
0000
1030
0100
0010
,  // measure 117
0100
1000
0000
1000
,  // measure 118
0000
0001
0100
0010
,  // measure 119
0100
0002
0000
2003
,  // measure 120
0000
3001
0010
0100
,  // measure 121
1000
0001
0100
0010
,  // measure 122
1000
0000
0001
0000
1000
0100
0010
0001
,  // measure 123
1000
0100
0010
0001
1000
0010
0100
0001
,  // measure 124
1000
0010
0100
0001
1000
0100
0010
0001
,  // measure 125
1000
0100
0010
0001
1000
0010
0100
0001
,  // measure 126
1000
0010
0100
0001
2002
0000
0000
0000
,  // measure 127
0000
3003
0000
0000
;

//---------------dance-single - ----------------
#NOTEDATA:;
#CHARTNAME:;
#STEPSTYPE:dance-single;
#DESCRIPTION:;
#CHARTSTYLE:;
#DIFFICULTY:Medium;
#METER:13;
#RADARVALUES:0.689548,1.000000,0.113764,0.503811,0.081260,518.000000,14.000000,62.000000,0.000000,0.000000,0.000000,0.000000,0.000000,0.689548,1.000000,0.113764,0.503811,0.081260,518.000000,14.000000,62.000000,0.000000,0.000000,0.000000,0.000000,0.000000;
#CREDIT:;
#NOTES:
// measure 0
0000
0000
0000
0000
,  // measure 1
0000
0000
0000
0000
,  // measure 2
0000
0000
0000
0000
,  // measure 3
0000
0000
0000
0000
,  // measure 4
1000
0100
1000
0000
0001
0100
0010
0100
,  // measure 5
0001
0010
0001
0000
1000
0020
0000
1030
,  // measure 6
0001
0010
0001
0000
1000
0010
0100
0010
,  // measure 7
1000
0100
1000
0020
0000
0130
0002
0003
,  // measure 8
1001
1000
1010
0010
,  // measure 9
0110
0100
0101
0001
,  // measure 10
1000
0010
0100
0001
1000
0100
0010
0001
,  // measure 11
2000
0000
0000
0000
3001
1000
0000
0001
,  // measure 12
1000
0100
1000
0100
,  // measure 13
0010
0001
0010
0001
,  // measure 14
1000
0010
1000
0010
,  // measure 15
0100
0000
0001
0000
0100
0000
0001
1000
,  // measure 16
0001
0010
0001
0010
,  // measure 17
0100
1000
0100
1000
,  // measure 18
0001
0100
0001
0100
,  // measure 19
0010
0000
1000
0000
0010
0000
1000
0001
,  // measure 20
1000
0001
0010
0001
,  // measure 21
1000
0010
0100
0010
,  // measure 22
1000
0001
0100
0001
,  // measure 23
1000
0000
0100
0000
0010
0000
0100
0010
,  // measure 24
0100
1000
0100
1000
,  // measure 25
0001
0100
0001
0100
,  // measure 26
0020
0000
0000
0000
,  // measure 27
0000
0000
0030
0000
,  // measure 28
2000
3010
0100
0002
,  // measure 29
0000
2003
0000
3001
,  // measure 30
0010
0100
0010
0001
,  // measure 31
0100
0010
0100
0001
,  // measure 32
2000
3100
0010
0002
,  // measure 33
0000
2003
0000
3010
,  // measure 34
0100
0010
1000
0100
,  // measure 35
0010
0000
0001
0000
1000
0001
1000
0001
,  // measure 36
2000
3010
0100
0002
,  // measure 37
0000
2003
0000
3001
,  // measure 38
0010
0100
1000
0001
,  // measure 39
0100
0010
1000
0001
,  // measure 40
2000
3100
0010
0002
,  // measure 41
0000
2003
0000
3010
,  // measure 42
0220
0000
0000
0000
,  // measure 43
0000
0000
0000
0330
,  // measure 44
1000
0100
1000
0010
,  // measure 45
0100
0001
0010
0001
,  // measure 46
1000
0010
0200
0000
,  // measure 47
0302
0000
2003
0000
,  // measure 48
3001
0010
0100
0010
,  // measure 49
0001
0100
0010
0100
,  // measure 50
0001
1000
0020
0000
,  // measure 51
2030
0000
3002
0000
,  // measure 52
1003
0100
0010
0100
,  // measure 53
1000
0001
0010
0001
,  // measure 54
1000
0010
0200
0000
,  // measure 55
0302
0000
2003
0000
,  // measure 56
3001
0010
0100
1000
,  // measure 57
0001
0100
0010
1000
,  // measure 58
0002
0023
0230
2300
,  // measure 59
3001
1000
0010
0100
,  // measure 60
0010
1000
0100
0010
,  // measure 61
0001
0100
0020
0000
,  // measure 62
2030
0000
3002
0000
,  // measure 63
1003
0100
0010
0100
,  // measure 64
1000
0010
0100
0001
,  // measure 65
0100
0010
0200
0000
,  // measure 66
0302
0000
2003
0000
,  // measure 67
3100
0010
0100
1000
,  // measure 68
0001
0100
0010
0100
,  // measure 69
0001
0010
0200
0000
,  // measure 70
2300
0000
3002
0000
,  // measure 71
1003
0010
0100
0001
,  // measure 72
1000
0100
0010
0001
,  // measure 73
2002
0000
0000
0000
0000
0000
0000
3003
,  // measure 74
1001
0000
0000
0100
0000
0000
0010
0000
0001
0000
0000
0100
0000
0000
0010
0000
,  // measure 75
1000
0000
0000
0100
0000
0000
0010
0000
0001
0000
0000
0100
0000
0000
0010
0000
,  // measure 76
1000
0000
0000
0100
0000
0000
1000
0000
0001
0000
0000
0100
0000
0000
0001
0000
,  // measure 77
1000
0000
0000
0010
0000
0000
1000
0000
0001
0000
0000
0010
0000
0000
0001
0000
,  // measure 78
1001
0000
2000
0000
3010
0000
0000
2000
,  // measure 79
0000
3200
0000
0320
0000
0032
0000
0000
,  // measure 80
1003
0000
0002
0000
0013
0000
0000
0002
,  // measure 81
0000
0203
0000
0320
0000
0000
0000
0000
,  // measure 82
1030
0000
0200
0000
0310
0100
0000
2000
,  // measure 83
0000
3020
0000
0230
0000
0301
1000
0000
,  // measure 84
1001
0000
0001
0010
0000
0000
0000
0000
,  // measure 85
1001
0000
1000
0010
0000
0000
0000
0000
,  // measure 86
1001
0000
0000
1000
0000
0000
0000
0000
0001
0000
0000
0001
0000
0000
0000
0000
,  // measure 87
0100
0000
0000
0100
0000
0000
0000
0000
0010
0000
0000
0010
0000
0000
0000
0000
,  // measure 88
1000
0000
0000
1000
0000
0000
0000
0000
0001
0000
0000
0001
0000
0000
0000
0000
,  // measure 89
0010
0000
0000
0010
0000
0000
0000
0000
0100
0000
0000
0100
0000
0000
0000
0000
,  // measure 90
1000
0000
0000
1000
0000
0000
1000
0000
0001
0000
0000
0001
0000
0000
0001
0000
,  // measure 91
0100
0000
0000
0100
0000
0000
0100
0000
0010
0000
0000
0010
0000
0000
0010
0000
,  // measure 92
0110
0000
1000
0001
0000
0000
0000
0000
,  // measure 93
0220
0000
0000
0330
1000
0000
0100
0000
,  // measure 94
0010
0001
1000
0010
,  // measure 95
0100
0010
1000
0001
,  // measure 96
0010
0001
0100
0010
,  // measure 97
1000
0000
0100
0010
0100
0000
1000
0000
,  // measure 98
0001
0010
0100
0010
,  // measure 99
0001
0100
0001
0010
,  // measure 100
0100
0000
1000
0000
0010
0000
0100
0010
,  // measure 101
0100
0000
0010
0100
0010
0000
1000
0000
,  // measure 102
0100
0010
0100
1000
,  // measure 103
0001
0010
0001
0100
,  // measure 104
0010
1000
0100
0010
,  // measure 105
0001
0010
0001
0010
0001
0000
1000
0000
,  // measure 106
0010
0000
1000
0000
0100
0010
0100
0000
,  // measure 107
0010
0100
0010
0000
0002
0000
0000
0000
,  // measure 108
2000
3003
1000
0001
1000
0000
0010
0000
,  // measure 109
0100
0010
1000
0100
,  // measure 110
0010
0001
0010
0001
0010
0000
0001
0000
,  // measure 111
1000
0000
0010
0000
0100
0010
0100
0000
,  // measure 112
0010
1000
0010
1000
0010
0000
1000
0000
,  // measure 113
0100
0010
0001
0100
,  // measure 114
0001
0010
0001
0010
0001
0000
1000
0000
,  // measure 115
0010
0000
1000
0100
1000
0000
0001
0100
,  // measure 116
0001
0000
1000
0010
1000
0000
0100
0000
,  // measure 117
0010
0001
0100
0010
,  // measure 118
1000
0100
1000
0100
1000
0000
0001
0000
,  // measure 119
0100
0000
0010
1000
0010
1000
0010
1000
,  // measure 120
0010
1000
0010
0100
0010
0000
1000
0100
,  // measure 121
1000
0000
0001
1000
0001
1000
0001
1000
,  // measure 122
0001
1000
0001
0000
1000
0010
0100
0010
,  // measure 123
1000
0010
0100
0010
1000
0100
0010
0100
,  // measure 124
1000
0100
0010
0010
0001
0100
0010
0100
,  // measure 125
0001
0100
0010
0100
0001
0010
0100
0010
,  // measure 126
0001
0010
0100
0010
2002
0000
0000
0000
,  // measure 127
0000
3003
0000
0000
;
