#TITLE:Regretroid;
#SUBTITLE:;
#ARTIST:Starbomb;
#TITLETRANSLIT:;
#SUBTITLETRANSLIT:;
#ARTISTTRANSLIT:;
#GENRE:;
#CREDIT:;
#BANNER:Regretroid.png;
#BACKGROUND:Regretroid-bg.png;
#LYRICSPATH:;
#CDTITLE:;
#MUSIC:Regretroid.mp3;
#OFFSET:-0.160000;
#SAMPLESTART:28.763481;
#SAMPLELENGTH:14.999995;
#SELECTABLE:YES;
#BPMS:0.000000=150.000000
;
#STOPS:
;
#BGCHANGES:;
#KEYSOUNDS:;
#ATTACKS:;

//---------------dance-single - ----------------
#NOTES:
     dance-single:
     :
     Hard:
     12:
     0.625455,0.615682,0.222765,0.265604,0.192777,454.000000,26.000000,31.000000,0.000000,0.000000,0.000000,0.625455,0.615682,0.222765,0.265604,0.192777,454.000000,26.000000,31.000000,0.000000,0.000000,0.000000:
// measure 0
0000
0000
0000
0000
,  // measure 1
0000
0000
0000
0000
,  // measure 2
0001
0000
0010
0000
0001
0000
0000
0100
0000
0100
0010
0000
1000
0000
0010
0000
,  // measure 3
2000
0000
0000
0000
3100
0000
0000
0010
0000
0010
0100
0000
1000
0000
0001
1000
,  // measure 4
0001
0000
0100
0000
0001
0000
0000
0010
0000
0010
0100
0000
1000
0000
0010
0000
,  // measure 5
0100
0010
1000
1001
0000
0001
0010
0100
,  // measure 6
1000
0000
1000
0000
0001
0000
0001
0000
1000
0000
0010
0000
0100
0001
0000
0020
,  // measure 7
0000
0000
0031
0000
0100
0000
0000
0000
0010
0000
1000
0000
0010
0100
0000
0002
,  // measure 8
0000
1003
0001
0000
1000
0010
0100
0001
,  // measure 9
0011
1010
0101
1100
,  // measure 10
1001
0000
1000
0000
0010
0000
0000
0100
0000
0100
0010
0000
1000
0000
0001
0000
,  // measure 11
0010
0000
0001
0000
0100
0000
0000
0010
0000
0010
0100
0000
0001
0000
1000
0001
,  // measure 12
1000
0000
0100
0000
0010
0000
0000
0100
0000
0100
0010
0000
0001
0000
0100
0000
,  // measure 13
0001
0001
0010
0100
1000
0001
1001
0000
,  // measure 14
1000
0000
1000
0000
0010
0000
0000
0100
0010
0000
0010
0000
1000
0001
0000
2000
,  // measure 15
0000
0000
3001
0000
0010
0000
0000
0010
0001
0000
0001
0000
0100
0010
0000
0200
,  // measure 16
0000
0000
0301
0000
1000
0000
0000
0100
1000
0000
1000
0000
0001
0000
0001
0000
,  // measure 17
0100
0000
0010
0000
0100
0000
0010
0000
1000
0100
1000
0100
0010
0001
0010
0000
,  // measure 18
0001
1000
0001
0100
0010
1000
0010
0100
,  // measure 19
0001
0010
0000
0011
0000
0010
0100
1000
,  // measure 20
0002
0000
1003
0010
1000
0100
0010
0001
,  // measure 21
1000
0000
0001
0000
0000
0000
1001
0000
0000
0000
1000
0000
0010
0000
0100
0001
,  // measure 22
0100
0010
1000
0200
0000
1300
0010
0000
,  // measure 23
0100
0001
0000
0101
0000
1100
0000
0002
,  // measure 24
0000
0013
0001
1000
0000
1000
0010
1000
,  // measure 25
0100
0000
0100
0000
0010
0000
0110
0000
0000
0000
1001
0000
0000
0000
1000
0001
,  // measure 26
0010
0001
2000
0010
3000
1000
0002
0010
,  // measure 27
0003
0001
2000
0100
3000
0100
0010
0002
,  // measure 28
0000
1003
0001
0200
0000
0310
0100
0001
,  // measure 29
0000
0000
0011
0000
0000
0000
1010
0000
0000
0000
1000
0000
0001
0000
0010
0100
,  // measure 30
0010
0001
0100
0001
0000
1000
0010
0000
,  // measure 31
1000
0100
1000
0010
0000
0100
0001
0000
,  // measure 32
0010
0001
1000
0010
,  // measure 33
0100
0001
1000
2002
0000
3003
1000
1000
,  // measure 34
0001
0010
0001
0010
0100
0100
0010
0001
,  // measure 35
0001
1000
0010
1000
0100
0010
0100
1000
,  // measure 36
0001
0100
0010
0010
0100
0001
0010
0010
,  // measure 37
0001
1000
0010
1000
0001
0010
0100
0010
,  // measure 38
0001
0001
1000
0010
1000
0100
0100
1000
,  // measure 39
0010
0100
0100
0001
0001
0010
0001
0100
,  // measure 40
0100
0001
0010
0100
1000
1000
0001
1000
,  // measure 41
0010
0000
0100
0000
0010
0000
0100
0000
0002
0000
0000
0000
1003
0000
0001
1000
,  // measure 42
0010
0000
0010
0000
0100
0000
0000
0010
0000
0010
0100
0000
0010
0000
0100
0010
,  // measure 43
1000
0000
1000
0000
0001
0000
0000
1000
0000
1000
0001
0000
1000
0000
1000
0000
,  // measure 44
0001
0000
0001
0000
0010
0000
0000
0001
0000
0001
0010
0000
0001
0000
0001
0000
,  // measure 45
0200
0320
2030
3002
,  // measure 46
1003
0100
0010
0011
0000
0001
0100
0010
,  // measure 47
1000
0001
0010
0110
0000
0100
1000
0010
,  // measure 48
0100
0001
1000
0100
1000
0001
0010
0001
,  // measure 49
1000
0000
1000
0000
0001
0000
0001
0000
1000
0010
1000
0010
0100
0001
0100
0001
,  // measure 50
1000
0100
0010
0001
0000
0001
0100
0001
,  // measure 51
0010
0100
0000
0110
0000
0100
1000
0002
,  // measure 52
0000
1003
0010
1000
0001
0010
0001
1000
,  // measure 53
0100
0000
0010
0000
0000
0000
0110
0000
0000
0000
0100
0000
1000
0000
0001
1000
,  // measure 54
0001
0010
0001
0000
1000
0100
1000
0010
,  // measure 55
0100
0001
0000
1000
0000
0100
0010
0100
,  // measure 56
1000
0001
0000
0010
0001
0100
0010
0200
,  // measure 57
0000
0301
1000
0200
0000
1300
0010
0010
,  // measure 58
2000
0000
3002
0010
0003
0001
2000
0010
,  // measure 59
3000
1000
0002
0100
0003
0001
2000
3200
,  // measure 60
0000
0310
0001
1000
0001
0100
0010
0100
,  // measure 61
0001
0000
0010
0000
0000
0000
0110
0000
0000
0000
0100
0000
1000
0000
0001
1000
,  // measure 62
0001
0100
0010
0100
0000
1001
0000
0001
,  // measure 63
1000
0010
0100
0001
0000
0001
1000
0200
,  // measure 64
0000
0310
0100
0010
0100
1000
0001
0010
,  // measure 65
0011
0000
1010
0000
0101
0000
1001
0020
,  // measure 66
0000
0000
0000
0000
,  // measure 67
0000
0000
0000
0000
,  // measure 68
0000
0000
0000
0000
0000
0000
0000
0030
0000
0000
0000
0000
0000
0000
0000
0000
;

//---------------dance-single - ----------------
#NOTES:
     dance-single:
     :
     Beginner:
     2:
     0.175030,0.225335,0.000000,0.094247,0.000000,132.000000,0.000000,11.000000,0.000000,0.000000,0.000000,0.175030,0.225335,0.000000,0.094247,0.000000,132.000000,0.000000,11.000000,0.000000,0.000000,0.000000:
0000
0000
0000
0000
,
0000
0000
0000
0000
,
1000
0000
1000
0000
,
0001
0000
0001
0000
,
0100
0000
0100
0000
,
0010
0000
0010
0000
,
1000
0000
1000
0000
,
0100
0000
0100
0000
,
0010
0000
0010
0000
,
0001
0000
0001
0000
,
2000
3000
1000
0000
,
0002
0003
0001
0000
,
0200
0300
0100
0000
,
0020
0030
0010
0000
,
0200
0300
0100
0000
,
0002
0003
0001
0000
,
2000
3000
1000
0000
,
0010
0010
0010
0010
,
0010
0000
0100
0000
,
0010
0000
0100
0000
,
0001
0000
1000
0000
,
0001
0000
1000
0000
,
0100
0000
0010
0000
,
0100
0000
0010
0000
,
1000
0000
0001
0000
,
1000
0000
0001
0000
,
0010
0000
0001
0000
,
0010
0000
0001
0000
,
1000
0000
0010
0000
,
1000
0000
0010
0000
,
0100
0000
0100
0000
,
0010
0000
0010
0000
,
1000
0000
1000
0000
,
0001
0001
0001
0001
,
0001
0000
0001
0000
,
0010
0000
0010
0000
,
0100
0000
0100
0000
,
1000
0000
1000
0000
,
0001
0000
0001
0000
,
0100
0000
0100
0000
,
0010
0000
0010
0000
,
1000
0000
1000
0000
,
0002
0000
0003
0000
,
2000
0000
3000
0000
,
0020
0000
0030
0000
,
0200
0000
0300
0000
,
0001
0000
0010
0000
,
0100
0000
1000
0000
,
0001
0000
0100
0000
,
0010
0010
0010
0010
,
0010
0000
1000
0000
,
0010
0000
1000
0000
,
0001
0000
0010
0000
,
0001
0000
0010
0000
,
1000
0000
0100
0000
,
1000
0000
0100
0000
,
0001
0000
0100
0000
,
0001
0000
0100
0000
,
0010
0000
1000
0000
,
0010
0000
0001
0000
,
0100
0000
1000
0000
,
0100
0000
0001
0000
,
1000
0000
1000
0000
,
0001
0000
0001
0000
,
0100
0000
0100
0000
,
0010
0010
0010
0010
;

//---------------dance-single - ----------------
#NOTES:
     dance-single:
     :
     Easy:
     5:
     0.321907,0.366170,0.017136,0.068543,0.000000,253.000000,2.000000,8.000000,0.000000,0.000000,0.000000,0.321907,0.366170,0.017136,0.068543,0.000000,253.000000,2.000000,8.000000,0.000000,0.000000,0.000000:
0000
0000
0000
0000
,
0000
0000
0000
0000
,
1000
0100
1000
1000
,
0001
0100
0001
0001
,
1000
0010
1000
1000
,
0001
0010
0001
0001
,
1000
1000
0100
1000
,
0001
0001
0100
0001
,
1000
1000
0010
1000
,
0001
0001
0010
0001
,
1000
0010
0100
0100
,
0001
0010
0100
0100
,
1000
0001
0010
0010
,
0001
1000
0010
0110
,
0001
0010
0100
0010
,
0001
0100
0010
0100
,
0001
1000
0010
1000
,
0001
0001
1000
1000
,
0010
0100
0010
0100
,
0001
0001
1000
1000
,
0100
0010
0100
0010
,
0001
0001
1000
1000
,
0001
0010
0001
0100
,
0001
1000
0010
1000
,
0100
1000
0100
0010
,
0001
0100
0010
1000
,
0001
1000
0001
1000
,
0010
0010
0100
0100
,
0001
1000
0001
1000
,
0100
0100
0010
0010
,
1000
0100
0010
0001
,
1000
0010
0100
0001
,
1000
1000
0001
0001
,
0010
0100
0020
0130
,
1000
1000
0010
0010
,
0100
0100
0001
0001
,
1000
1000
0100
0100
,
0010
0010
0001
0001
,
1000
0010
1000
0010
,
0100
0001
0100
0001
,
0010
0001
0010
0001
,
1000
0010
1000
0010
,
2000
3100
0000
0100
,
0002
0103
0000
0100
,
2000
3010
0000
0010
,
0002
0013
0200
1300
,
0002
0013
0100
0100
,
2000
3010
0100
0100
,
0001
0010
0100
1000
,
0001
0100
0010
1000
,
0001
0010
0001
0010
,
0100
1000
0100
1000
,
0001
0100
0001
0100
,
0010
1000
0010
1000
,
0100
0100
0010
0010
,
0100
0010
0100
0010
,
0001
0001
1000
1000
,
0001
1000
0001
1000
,
0100
0010
0001
0010
,
0100
1000
0010
0100
,
0010
1000
0001
0010
,
0001
1000
0010
1000
,
0100
0010
0100
1000
,
0001
0010
0001
1000
,
0010
0010
0100
0100
,
0001
0001
1000
1001
;

//---------------dance-single - ----------------
#NOTES:
     dance-single:
     :
     Medium:
     8:
     0.456546,0.469091,0.025704,0.128518,0.000000,355.000000,3.000000,15.000000,0.000000,0.000000,0.000000,0.456546,0.469091,0.025704,0.128518,0.000000,355.000000,3.000000,15.000000,0.000000,0.000000,0.000000:
0000
0000
0000
0000
,
0000
0000
0000
0000
,
1000
0100
1000
0100
1000
0000
1000
0000
,
0001
0100
0000
0001
0000
0100
0001
0000
,
1000
0010
1000
0010
1000
0000
1000
0000
,
0001
0010
0000
0001
0000
0010
0001
0000
,
1000
1000
0001
0001
1000
0001
1000
0000
,
0010
0100
0000
0010
0000
0100
0010
0000
,
1000
0001
1000
0001
1000
0000
0001
0000
,
0010
0100
0010
0100
0000
0100
0010
0000
,
0001
0010
0001
0010
0000
0010
0100
0000
,
1000
0010
1000
0010
0000
0010
0100
0000
,
0001
0010
0001
0010
0100
0000
0100
0000
,
1000
0010
1000
0010
0100
0000
0110
0000
,
0001
0000
0010
0000
0001
0010
0001
0010
,
0100
0000
1000
0000
0100
1000
0100
1000
,
0100
0000
0010
0000
0001
0100
0001
0100
,
0010
0100
0010
0100
0010
1000
0010
0000
,
1000
0100
1000
0010
1000
0000
0001
1000
,
0001
0010
0000
0001
0000
0001
1000
0010
,
0200
0000
0310
1000
0010
0000
1000
0010
,
1000
0100
0000
0010
0000
0001
0010
0001
,
0100
0000
0100
0010
0000
0010
0100
0001
,
1000
0100
0000
1000
0000
0001
0000
0010
,
0000
0010
0001
0000
0001
0100
0010
0000
,
0010
1000
0100
0010
0000
0110
0000
0002
,
0000
0103
0001
0000
1000
0010
1000
0000
,
0001
0010
0100
1000
0000
1000
0010
0100
,
0000
0100
0010
0100
0000
0100
0001
0010
,
0000
0001
0000
1000
0000
0001
0010
0001
,
0100
0000
0100
0010
0000
0010
1000
0000
,
0100
1000
0100
2000
0000
0000
3001
0000
,
1000
0100
0010
0001
,
1000
0001
1000
0002
0000
0000
0003
0000
,
1000
0010
1000
0010
1000
0000
1000
0000
,
0001
0010
0001
0010
0001
0000
0001
0000
,
1000
0100
1000
0100
1000
0000
1000
0000
,
0001
0100
0001
0100
0001
0000
0001
0000
,
1000
0100
0010
0100
1000
0000
1000
0000
,
0001
0100
0010
0100
0001
0000
0001
0000
,
1000
0010
0100
0010
1000
0000
1000
0000
,
0001
0010
0100
0010
0001
0000
0001
0000
,
2000
0100
0000
3100
,
0002
0100
0000
0103
,
2000
0010
0000
3010
,
0002
0010
0000
0013
,
0001
0010
0001
0010
0000
0010
0001
0000
,
1000
0010
1000
0010
0000
0010
1000
0000
,
0001
0100
0001
0000
1000
0100
1000
0000
,
0001
0010
0100
1000
0002
0000
1003
0000
,
0001
0010
0001
0000
1000
0010
1000
0000
,
0001
0100
0001
0000
1000
0100
1000
0000
,
0001
0010
0100
0000
1000
0010
0100
0000
,
0001
0100
0010
0000
1000
0100
0010
0000
,
0002
0000
0103
0000
0001
0100
0001
0000
,
2000
0000
3100
0000
1000
0100
1000
0000
,
0002
0000
0013
0000
0001
0010
0001
0000
,
2000
0000
3010
0000
1000
0010
1000
0100
,
0010
0000
0001
0010
0001
0000
1000
0010
,
0100
0010
0000
1000
0000
0001
0000
0020
,
0000
0031
0010
0000
0010
0001
0100
0010
,
0100
0001
0000
1000
0000
1000
0001
0000
,
0010
0001
0100
0010
0000
0110
0000
0100
,
0001
0000
0001
1000
0000
1000
0100
0010
,
0000
0010
0001
0000
1000
0000
0001
0000
,
1000
0000
0100
0000
0010
0000
0001
2000
,
0000
0000
0000
0000
,
0000
0000
0000
0000
,
0000
0000
0000
0000
0000
0000
0000
3000
0000
0000
0000
0000
0000
0000
0000
0000
;
