#VERSION:0.82;
#TITLE:リカーシブ・ファンクション;
#SUBTITLE:;
#ARTIST:OSTER project;
#TITLETRANSLIT:Recursive function;
#SUBTITLETRANSLIT:;
#ARTISTTRANSLIT:;
#GENRE:;
#ORIGIN:;
#CREDIT:;
#BANNER:Recursive function.png;
#BACKGROUND:Recursive function-bg.png;
#PREVIEWVID:;
#JACKET:Recursive function-jacket.png;
#CDIMAGE:;
#DISCIMAGE:;
#LYRICSPATH:;
#CDTITLE:;
#MUSIC:Recursive function.mp3;
#OFFSET:0.300000;
#SAMPLESTART:53.695942;
#SAMPLELENGTH:15.000008;
#SELECTABLE:YES;
#BPMS:0.000=145.000;
#STOPS:;
#DELAYS:;
#WARPS:;
#TIMESIGNATURES:0.000=4=4;
#TICKCOUNTS:0.000=4;
#COMBOS:0.000=1;
#SPEEDS:0.000=1.000=0.000=0;
#SCROLLS:0.000=1.000;
#FAKES:;
#LABELS:0.000=Song Start;
#BGCHANGES:;
#KEYSOUNDS:;
#ATTACKS:
;

//---------------dance-single - ----------------
#NOTEDATA:;
#CHARTNAME:;
#STEPSTYPE:dance-single;
#DESCRIPTION:;
#CHARTSTYLE:;
#DIFFICULTY:Hard;
#METER:14;
#RADARVALUES:0.716449,0.784325,0.408104,0.263000,1.000000,479.000000,45.000000,29.000000,0.000000,0.000000,0.000000,0.000000,0.000000,0.716449,0.784325,0.408104,0.263000,1.000000,479.000000,45.000000,29.000000,0.000000,0.000000,0.000000,0.000000,0.000000;
#CREDIT:;
#NOTES:
// measure 0
0000
0000
0000
0000
,  // measure 1
0000
0000
0000
0000
,  // measure 2
0000
0000
0000
0000
,  // measure 3
0000
0000
0000
0000
,  // measure 4
0000
0000
0000
0000
0000
0000
0000
0000
1000
0000
0100
1000
0000
0000
0100
0000
,  // measure 5
0010
0000
0100
0000
1000
0001
1000
0000
0010
1000
0000
0000
0010
0000
0100
0000
,  // measure 6
0001
0000
1000
0001
1000
0000
0001
0010
0000
0000
0100
0000
1000
0000
0010
0000
,  // measure 7
0100
0000
0000
0010
0000
0000
0000
0000
0000
0000
0001
0000
0000
0000
1000
0000
0000
0000
1001
0000
0000
0000
0000
0000
0000
0000
0000
0000
0000
0000
2000
0000
0000
0000
0000
0000
0000
0000
0000
0000
0000
0000
0000
0000
0000
0000
0000
0000
,  // measure 8
0000
0000
3001
0000
0010
0001
0000
0100
0000
0001
0000
1000
0000
0010
0100
0010
,  // measure 9
1000
0000
0001
0000
0010
0100
0000
1000
0000
0010
0000
1000
0000
0001
0010
0100
,  // measure 10
1000
0000
0001
0000
0100
0010
0000
0001
0000
0010
0000
0100
0000
0001
0100
0010
,  // measure 11
0100
0000
0001
1000
0000
0010
0000
1000
0000
0001
0200
0000
0000
0000
0320
0000
,  // measure 12
0000
0000
1030
0000
0100
0010
0000
0001
0000
0100
0000
0001
0000
0010
0100
1000
,  // measure 13
0010
0000
1000
0000
0001
0010
0000
0001
0000
0100
0000
0010
0000
1000
0100
0010
,  // measure 14
0001
0000
1000
0000
0010
0100
0000
1000
0000
0100
0000
0010
0000
1000
0100
1000
,  // measure 15
0010
0000
0210
0000
0000
0301
0000
0000
2001
0000
0000
3010
0000
0000
0120
0000
,  // measure 16
0000
1030
0000
0000
2100
0000
0000
3010
0000
0000
2002
0000
0000
0000
3000
0000
,  // measure 17
0000
0000
0010
0000
0000
0000
0103
0000
0000
0000
0001
0000
0000
0010
0000
0000
,  // measure 18
0100
0000
1002
0000
0000
0000
0103
0000
0001
0000
0010
0000
0000
0010
0000
0000
,  // measure 19
0100
0000
1000
0000
0000
1000
0000
0000
0010
0000
0100
0000
0001
0000
0021
0000
,  // measure 20
0000
0000
0130
0000
0010
0000
0001
0000
0000
0001
0000
0000
0100
0000
0010
0000
,  // measure 21
0000
0010
0100
0000
0000
2010
0000
3000
,  // measure 22
1000
0000
0100
0000
0000
0100
0000
0000
0010
0000
0001
0000
0000
0000
0001
0000
,  // measure 23
0010
0000
0100
0000
1000
0000
0001
0000
0001
0000
0100
0000
0000
0010
0000
0010
,  // measure 24
0100
0000
0010
0000
0100
0010
1000
0000
0000
1100
0000
0000
0101
0000
0001
0000
,  // measure 25
1000
0000
1001
0000
0000
1001
0000
0000
0001
0010
0100
0000
0000
0100
0000
0000
,  // measure 26
0100
0000
0010
0000
0000
0001
0000
0000
0100
0000
0010
0000
0100
0000
0110
0000
,  // measure 27
0000
0110
0000
0000
0010
1000
0100
0000
0010
0000
0001
0000
1000
0000
0001
0000
,  // measure 28
0000
0001
0010
0000
0001
0000
0100
0000
0010
0000
1010
0000
1000
0010
0100
0000
,  // measure 29
0101
0000
0001
0010
0100
0000
1100
0000
1000
0100
0010
0000
0011
0000
0001
0100
,  // measure 30
0010
0000
0210
0000
0000
0000
0301
0000
0000
0000
1001
0000
0000
1000
0001
0000
,  // measure 31
0000
0001
0010
0000
0000
0010
0100
0000
0000
0100
1000
0010
1000
0010
0000
0010
,  // measure 32
0000
0100
0000
0000
0220
0000
0000
0000
0330
0000
1000
0000
0100
1000
0000
0010
,  // measure 33
0000
1010
0000
1000
0100
0000
0010
0001
0100
0001
0010
0000
0001
0100
0000
0010
,  // measure 34
0000
0110
0000
0100
0000
0010
0000
1000
0100
1000
0001
0000
0010
0001
0000
0100
,  // measure 35
0001
0000
1000
0000
0000
0010
0000
0000
0100
0000
0001
0000
1000
0010
0000
1000
,  // measure 36
0000
0002
0000
0000
1003
0000
0001
0000
0100
0000
0001
0000
0010
0001
0000
0100
,  // measure 37
0000
0110
0000
0010
1000
0000
0100
1000
0010
0100
0001
0000
1000
0010
0000
0100
,  // measure 38
0000
0101
0000
0001
0000
0010
0000
0001
0100
0010
0000
1000
0100
0010
0000
0001
,  // measure 39
1000
0010
0000
0000
2020
0000
0000
0000
3030
0000
1000
0001
0000
0000
0000
0000
,  // measure 40
0000
0000
0000
0000
0000
0000
0000
0000
0100
0010
0000
0000
0000
0000
0000
0000
,  // measure 41
0000
0000
0000
0000
0000
0000
0011
0000
0000
1010
0000
0000
0101
0000
0000
1100
,  // measure 42
0000
0000
0001
0000
1000
0000
0010
0100
0010
0100
0000
0001
0000
0001
0000
1000
,  // measure 43
0010
1000
0100
0010
0001
0100
0001
0100
0000
0010
0000
0010
0000
1000
0100
0010
,  // measure 44
0001
0000
0000
0100
0000
0000
0020
0000
0000
0000
0000
0000
0000
0000
0000
0000
0000
0000
1030
0000
0000
0000
0100
0000
0000
0000
0010
0000
0000
0000
0002
0000
0000
0000
0000
0000
0000
0000
0000
0000
0000
0000
1003
0000
0000
0000
0010
0000
,  // measure 45
0000
0100
0000
0002
0000
0000
0000
0000
0000
1003
0000
0010
0000
0010
0000
0002
0000
0000
0000
0000
0000
1003
0000
0100
,  // measure 46
0000
0100
0000
0002
0000
0000
0000
0000
0000
0000
0000
0000
0000
0000
0000
1000
0000
0000
0000
0000
0000
0013
0000
0000
,  // measure 47
0000
0000
0001
1000
0001
1000
0000
0001
0000
1000
0000
0001
0010
0100
1000
0010
,  // measure 48
0100
0001
0000
0000
0000
0000
0000
0000
0000
0000
1001
0000
0000
0000
0000
0000
,  // measure 49
0000
0000
0000
0000
1010
0000
0000
0101
0000
0000
0001
0000
0010
0100
0000
0010
,  // measure 50
0000
0110
0000
0110
0000
0010
0001
1000
0010
0000
1000
0000
0001
0010
0000
0001
,  // measure 51
1000
0010
1000
0000
0000
0100
0000
0000
0010
0000
0001
0000
1000
0010
0000
1000
,  // measure 52
0000
0002
0000
0000
0013
0000
0100
0000
1000
0000
0001
0000
0010
0001
0000
0100
,  // measure 53
0000
0101
0000
0001
1000
0000
0010
1000
0100
1000
0001
0000
0010
0001
0000
0100
,  // measure 54
0000
0110
0000
0010
0000
1000
0000
0100
1000
0010
0000
0100
0001
0010
0001
0100
,  // measure 55
0010
1000
0000
0000
0001
0000
0010
0000
0100
0000
1000
0000
0001
1000
0000
0010
,  // measure 56
0000
0110
0000
0100
0001
0000
0001
0100
0010
1000
0001
0000
0010
0001
0000
1000
,  // measure 57
0000
1010
0000
0010
0000
0100
0000
0001
0010
0100
1000
0000
0001
0010
0000
0001
,  // measure 58
0100
0010
1000
0000
0000
0001
0000
0000
1000
0000
0010
0000
0100
0001
0000
0010
,  // measure 59
0000
0002
0000
0000
1003
0000
0010
0000
0100
0000
0001
0000
1000
0100
0000
0010
,  // measure 60
0000
0110
0000
0100
1000
0000
0010
0100
0001
0100
0010
0000
0100
0001
0000
0010
,  // measure 61
0000
0011
0000
0001
0000
1000
0000
0010
1000
0001
0000
1000
0001
0010
0001
1000
,  // measure 62
0010
1000
0000
0000
2002
0000
0000
0000
3003
0000
1000
0100
1000
0001
0100
0001
,  // measure 63
1000
0100
0000
0000
0000
0000
0110
0000
0000
2002
0000
0000
0000
0000
0000
0000
,  // measure 64
0000
3003
0000
0000
0000
0000
0000
0000
0000
0000
0000
0000
0000
0000
0000
0000
;

//---------------dance-single - ----------------
#NOTEDATA:;
#CHARTNAME:;
#STEPSTYPE:dance-single;
#DESCRIPTION:;
#CHARTSTYLE:;
#DIFFICULTY:Beginner;
#METER:4;
#RADARVALUES:0.181380,0.229899,0.136035,0.063483,0.000000,118.000000,15.000000,7.000000,0.000000,0.000000,0.000000,0.000000,0.000000,0.181380,0.229899,0.136035,0.063483,0.000000,118.000000,15.000000,7.000000,0.000000,0.000000,0.000000,0.000000,0.000000;
#CREDIT:;
#NOTES:
// measure 0
0000
0000
0000
0000
,  // measure 1
0000
0000
0000
0000
,  // measure 2
0000
0000
0000
0000
,  // measure 3
0000
0000
0000
0000
,  // measure 4
0000
0000
1000
0000
,  // measure 5
0000
0000
0000
0001
0000
0000
0000
0000
,  // measure 6
0000
0100
0000
0000
,  // measure 7
0000
0010
0000
0000
0000
0002
0000
0003
,  // measure 8
0000
0001
0000
0000
0000
1000
0000
0000
,  // measure 9
0000
0001
0000
0000
0000
0010
0000
0000
,  // measure 10
0000
0001
0000
0000
0000
0100
0000
0000
,  // measure 11
0000
0001
0000
0000
0000
1000
0000
1000
,  // measure 12
0000
1000
0000
0000
0000
0010
0000
0000
,  // measure 13
0000
1000
0000
0000
0000
0001
0000
0000
,  // measure 14
0000
1000
0000
0000
0000
0100
0000
0000
,  // measure 15
0000
1001
0000
0000
0000
0000
0000
1001
,  // measure 16
0000
0000
0000
0000
0000
1001
0000
0000
,  // measure 17
0000
0000
0000
0000
0000
0001
0000
0000
,  // measure 18
0000
1001
0000
0000
0000
0010
0000
0010
,  // measure 19
0000
0010
0000
0000
0000
0000
0000
0110
,  // measure 20
0000
0000
0000
0100
0000
0100
0000
0100
,  // measure 21
0000
0000
0000
0000
0000
1001
0000
0000
,  // measure 22
0000
1000
0000
0000
0000
0001
0000
0001
,  // measure 23
0000
0001
0000
0001
0000
0000
0000
1000
,  // measure 24
0000
0000
0000
0001
0000
0001
0000
0000
,  // measure 25
0000
0110
0000
0000
0000
0000
0000
0000
,  // measure 26
0000
0010
0000
0000
0000
0000
0000
1001
,  // measure 27
0000
0000
0000
0000
0000
0000
0000
1000
,  // measure 28
0000
0000
0000
0000
0000
0001
0000
0000
,  // measure 29
0001
0000
0000
1000
0000
0000
1000
0000
,  // measure 30
0000
0001
0000
0001
0000
0002
0000
0000
,  // measure 31
0000
0000
0000
0003
0000
1001
0000
0000
,  // measure 32
0000
0000
0000
0000
0000
0010
0000
0000
,  // measure 33
0000
0100
0000
0000
0000
0010
0000
0000
,  // measure 34
0000
1000
0000
0000
0000
0100
0000
0000
,  // measure 35
0000
0010
0000
0000
0000
0001
0000
0001
,  // measure 36
0000
0002
0000
0003
0000
0001
0000
0000
,  // measure 37
0000
1000
0000
0000
0000
0010
0000
0000
,  // measure 38
0000
1000
0000
0000
0000
0100
0000
0100
,  // measure 39
0000
0100
0000
0000
0000
0110
0000
0000
,  // measure 40
0000
0000
1001
0000
,  // measure 41
0000
0000
0000
0010
0000
0000
0010
0000
,  // measure 42
0000
0000
0000
0110
0000
0000
0000
0000
,  // measure 43
0000
1001
0000
0000
,  // measure 44
0000
1000
0000
0000
0000
0100
0000
0000
,  // measure 45
0000
0010
0000
0000
0000
0001
0000
0000
,  // measure 46
0000
0020
0000
0000
0000
0000
0000
0030
,  // measure 47
0000
0010
0000
0000
0000
0100
0000
0100
,  // measure 48
0000
0000
0000
0000
0000
1001
0000
0000
,  // measure 49
0000
0000
0000
0000
0000
0001
0000
0001
,  // measure 50
0000
0001
0000
0001
0000
0001
0000
0000
,  // measure 51
0000
1000
0000
0000
0000
0010
0000
0010
,  // measure 52
0000
0020
0000
0030
0000
0010
0000
0000
,  // measure 53
0000
1000
0000
0000
0000
0100
0000
0000
,  // measure 54
0000
0010
0000
0000
0000
0100
0000
0100
,  // measure 55
0000
0000
0000
0001
0000
0001
0000
0000
,  // measure 56
0000
1000
0000
0000
0000
0010
0000
0000
,  // measure 57
0000
1000
0000
0000
0000
0001
0000
0000
,  // measure 58
0000
0100
0000
0000
0000
0010
0000
0010
,  // measure 59
0000
0020
0000
0030
0000
0010
0000
0000
,  // measure 60
0000
1000
0000
0000
0000
0100
0000
0000
,  // measure 61
0000
0010
0000
0000
0000
0001
0000
0001
,  // measure 62
0000
0000
0000
1000
0000
2000
0000
3000
,  // measure 63
0000
0000
0000
1001
0000
0000
0000
0000
;

//---------------dance-single - ----------------
#NOTEDATA:;
#CHARTNAME:;
#STEPSTYPE:dance-single;
#DESCRIPTION:;
#CHARTSTYLE:;
#DIFFICULTY:Easy;
#METER:7;
#RADARVALUES:0.400331,0.464785,0.154173,0.290207,0.140569,260.000000,17.000000,32.000000,0.000000,0.000000,0.000000,0.000000,0.000000,0.400331,0.464785,0.154173,0.290207,0.140569,260.000000,17.000000,32.000000,0.000000,0.000000,0.000000,0.000000,0.000000;
#CREDIT:;
#NOTES:
// measure 0
0000
0000
0000
0000
,  // measure 1
0000
0000
0000
0000
,  // measure 2
0000
0000
0000
0000
,  // measure 3
0000
0000
0000
0000
,  // measure 4
0000
0000
1000
0100
,  // measure 5
1000
0000
0001
1000
0000
0010
0000
1000
,  // measure 6
0000
0001
1000
0000
0100
0000
1000
0000
,  // measure 7
0001
0000
0000
0000
0000
1000
0000
0001
0000
1000
0000
0000
0000
0000
0000
0002
0000
0000
0000
0000
0000
0000
0000
0000
,  // measure 8
0000
1003
0100
1000
0000
0010
0000
0010
,  // measure 9
0000
1000
0010
1000
0000
0100
0000
0100
,  // measure 10
0000
1000
0001
1000
0000
0001
0000
0001
,  // measure 11
0000
1000
0100
1000
0000
0002
0000
2003
,  // measure 12
0000
3001
0010
0001
0000
0100
0000
0100
,  // measure 13
0000
0001
0100
0001
0000
0010
0000
0010
,  // measure 14
0000
0001
1000
0001
0000
1000
0000
1000
,  // measure 15
0000
0000
0001
0000
0000
0001
0000
0000
1000
0000
0000
1000
0000
0000
0010
0000
,  // measure 16
0000
0010
0000
0000
0100
0000
0000
0100
0000
0000
0220
0000
0000
0000
0000
0000
,  // measure 17
0000
0000
0000
0000
0000
0000
0330
0000
0000
0000
0001
0000
0000
0010
0000
0000
,  // measure 18
0100
0000
2000
0000
0000
0000
3000
0000
0000
0000
0001
0000
0000
0001
0000
0000
,  // measure 19
0000
0000
1000
0000
0000
1000
0000
0000
0000
0000
0001
0000
0010
0000
0200
0000
,  // measure 20
0000
0000
0300
0000
0000
0000
1000
0000
0000
1000
0000
0000
0000
0000
0001
0000
,  // measure 21
0000
0001
0010
0000
0000
0002
0000
0003
,  // measure 22
1000
0000
0001
0000
0000
0001
0000
0000
0000
0000
0100
0000
0000
0100
0000
0000
,  // measure 23
0000
0010
0100
0210
0000
0000
0000
0302
,  // measure 24
0000
0000
2003
0000
0000
0000
3010
0000
0000
0010
0000
0000
0010
0000
0100
0000
,  // measure 25
0000
0000
0002
0000
0000
1003
0000
0000
0000
0000
0000
0000
0000
0000
0000
0000
,  // measure 26
0000
2000
0000
0000
3002
0000
0000
0203
,  // measure 27
0000
0310
0000
0000
0000
0000
0000
0000
0000
0000
0000
0000
0000
0000
0002
0000
,  // measure 28
0000
0000
1003
0000
0000
1001
0000
0000
,  // measure 29
0110
0000
0000
1001
0000
0000
0110
0000
,  // measure 30
0000
1000
0000
0001
0000
2000
0000
0000
,  // measure 31
0000
0000
0000
0000
0000
0000
0000
0000
3000
0000
0001
0000
1000
0000
0000
0001
,  // measure 32
0000
1000
0000
0000
2002
0000
0000
0000
3003
0000
0001
0000
0010
0000
0001
0000
,  // measure 33
0100
0010
0000
0010
0000
1000
0010
1000
,  // measure 34
0100
0010
0000
0010
0000
0001
1000
0001
,  // measure 35
0000
0000
1000
0000
0000
1000
0000
0000
0000
0000
0001
0000
0010
0000
0001
0000
,  // measure 36
0100
0020
0000
0130
0000
0001
0010
0100
,  // measure 37
1000
0100
0000
0100
0000
1000
0010
0100
,  // measure 38
0001
0010
0000
0010
0000
0001
1000
0001
,  // measure 39
1000
0000
1001
0000
0000
0110
0000
0000
,  // measure 40
0000
0000
1001
0000
,  // measure 41
0000
0000
0000
0000
0000
0000
1000
0000
0000
1000
0000
0000
0100
0000
0000
0100
,  // measure 42
0000
0010
0000
1001
0000
0000
0000
0000
,  // measure 43
0000
0110
0000
0000
,  // measure 44
0000
2000
0000
3100
0000
2000
0000
3010
,  // measure 45
0000
2000
0000
3100
0000
2000
0000
3001
,  // measure 46
0000
2002
0000
0000
0000
0000
0000
3003
,  // measure 47
0000
0000
0001
0000
1000
0000
0000
0001
0000
1000
0000
0002
0000
0000
0000
0000
,  // measure 48
0000
0003
0000
0000
0000
0000
0000
0000
0000
0000
1001
0000
0000
0000
0000
0000
,  // measure 49
0000
0000
0000
0000
1000
0000
0000
1000
0000
0000
0001
0000
0000
1000
0000
0000
,  // measure 50
0000
0010
0000
0010
0000
0020
0000
0000
0130
0000
0001
0000
0010
0000
0001
0000
,  // measure 51
1000
0000
0010
0000
0000
0010
0000
0000
0000
0000
1000
0000
0100
0000
1000
0000
,  // measure 52
0001
0020
0000
0031
0000
1000
0100
0010
,  // measure 53
0001
0010
0000
0010
0000
1000
0010
0100
,  // measure 54
0001
0010
0000
0010
0000
0001
1000
0001
,  // measure 55
1000
0000
1000
0100
0010
0001
0000
0010
,  // measure 56
0000
0001
0100
0010
1000
0001
0000
1000
,  // measure 57
0000
0001
0010
0100
1000
0001
0000
0100
,  // measure 58
0000
0000
0010
0000
0000
0010
0000
0000
0100
0000
0010
0000
1000
0000
0100
0000
,  // measure 59
1000
0020
0000
0130
0000
0001
1000
0010
,  // measure 60
1000
0001
0000
1000
0000
0001
1000
0100
,  // measure 61
1000
0001
0000
1000
0000
0001
0010
0100
,  // measure 62
1000
0000
1001
0000
0000
1000
0010
0100
,  // measure 63
0001
0000
0000
0000
0000
0000
1001
0000
0000
2002
0000
0000
0000
0000
0000
0000
,  // measure 64
0000
3003
0000
0000
0000
0000
0000
0000
0000
0000
0000
0000
0000
0000
0000
0000
;

//---------------dance-single - ----------------
#NOTEDATA:;
#CHARTNAME:;
#STEPSTYPE:dance-single;
#DESCRIPTION:;
#CHARTSTYLE:;
#DIFFICULTY:Medium;
#METER:11;
#RADARVALUES:0.529887,0.639080,0.117897,0.417173,0.403570,350.000000,13.000000,46.000000,0.000000,0.000000,0.000000,0.000000,0.000000,0.529887,0.639080,0.117897,0.417173,0.403570,350.000000,13.000000,46.000000,0.000000,0.000000,0.000000,0.000000,0.000000;
#CREDIT:;
#NOTES:
// measure 0
0000
0000
0000
0000
,  // measure 1
0000
0000
0000
0000
,  // measure 2
0000
0000
0000
0000
,  // measure 3
0000
0000
0000
0000
,  // measure 4
0000
0000
0000
0000
1000
0100
1000
0010
,  // measure 5
1000
0100
1000
0001
0010
0001
0100
0001
,  // measure 6
0010
0001
1000
0010
1000
0100
1000
0010
,  // measure 7
1000
0000
0000
0000
0000
0001
0000
1000
0000
0001
0000
0000
0000
0000
0000
2000
0000
0000
0000
0000
0000
0000
0000
0000
,  // measure 8
0000
0000
3001
0000
0010
0001
0000
1000
0000
0001
0000
0000
0000
0000
1000
0000
,  // measure 9
0010
0000
0100
0000
0001
0010
0000
0001
0000
0100
0000
0000
0000
0000
0001
0000
,  // measure 10
1000
0000
0100
0000
1000
0010
0000
1000
0000
0100
0000
0000
0000
0000
0010
0000
,  // measure 11
0001
0000
0100
0010
0000
0100
0000
0010
0000
0000
2000
0000
0000
0000
3002
0000
,  // measure 12
0000
0000
1003
0000
0100
0010
0000
0001
0000
0100
0000
0000
0000
0000
0001
0000
,  // measure 13
1000
0000
0001
0000
0100
0010
0000
1000
0000
0100
0000
0000
0000
0000
1000
0000
,  // measure 14
0001
0000
1000
0000
0010
0100
0000
0001
0000
1000
0000
0000
0000
0000
0001
0000
,  // measure 15
1000
0000
0010
0000
0000
0010
0000
0000
1000
0000
0000
1000
0000
0000
0001
0000
,  // measure 16
0000
0001
0000
0000
0100
0000
0000
0100
0000
0000
0002
0000
0000
0000
0000
0000
,  // measure 17
0000
0000
1003
0000
0000
0000
0001
0000
0000
0000
1000
0000
0000
0010
0000
0000
,  // measure 18
0100
0000
0002
0000
0000
0000
0003
0000
0000
0000
1000
0000
0000
1000
0000
0000
,  // measure 19
0100
0000
0010
0000
0000
0010
0000
0000
0001
0000
0100
0000
0001
0000
0200
0000
,  // measure 20
0000
0000
0300
0000
0000
0000
0010
0000
0000
0010
0000
0000
1000
0000
0100
0000
,  // measure 21
0000
0100
0010
0000
0000
0002
0000
0003
,  // measure 22
1000
0000
0001
0000
0000
0001
0000
0000
0100
0000
0010
0000
0000
0000
0010
0000
,  // measure 23
1000
0100
0010
0002
0000
0010
0000
2003
,  // measure 24
0000
0000
3020
0000
0000
0000
0230
0000
0000
0302
0000
0000
1003
0000
0100
0000
,  // measure 25
0010
0000
0002
0000
0000
1003
0000
0000
0000
0000
0010
0000
0000
0010
0000
0000
,  // measure 26
0010
0200
0000
0301
2000
0000
3000
0200
,  // measure 27
0000
0310
0000
0000
0000
0000
0001
0000
0010
0000
0100
0000
1000
0000
0002
0000
,  // measure 28
0000
1003
0020
0000
0030
0110
0000
0000
,  // measure 29
1010
0000
0000
0011
0000
0000
1001
0000
,  // measure 30
0000
0100
0000
0100
0000
0220
0000
0000
,  // measure 31
0000
0000
0000
0000
0000
0000
0330
0000
0000
0000
0010
0000
0100
0010
0000
0100
,  // measure 32
0000
0010
0000
0000
2002
0000
0000
0000
3003
0000
0001
0000
0010
0000
0100
0000
,  // measure 33
0010
0001
0100
0010
0100
0001
1000
0010
,  // measure 34
1000
0001
0010
0100
0010
0001
1000
0100
,  // measure 35
0010
0000
0100
0000
0000
0100
0000
0000
0100
0000
1000
0000
0001
1000
0000
0001
,  // measure 36
0000
0200
0000
0000
0310
0000
1000
0000
0001
0000
0010
0000
0001
0000
0100
0000
,  // measure 37
0010
0100
0001
1000
0100
1000
0010
0100
,  // measure 38
0001
0010
0100
0010
0001
1000
0100
0010
,  // measure 39
0001
0000
0000
0000
2002
0000
0000
0000
3003
0000
1000
0001
0000
0000
0000
0000
,  // measure 40
0000
0000
0000
0000
0000
0000
0000
0000
0100
0010
0000
0000
0000
0000
0000
0000
,  // measure 41
0000
0000
0000
0000
0000
0000
2000
0000
0000
3200
0000
0000
0320
0000
0000
0032
,  // measure 42
0000
0000
1003
0000
0001
0000
1000
0100
0000
0000
0000
0000
0000
0000
0000
0000
,  // measure 43
0000
0000
0000
0000
0001
0100
0000
0000
0000
0000
0000
0000
0000
0000
0000
0000
,  // measure 44
0000
0000
0000
0002
0000
0000
0000
0000
0000
1003
0000
0010
0000
0100
0000
0020
0000
0000
0000
0000
0000
1030
0000
0100
,  // measure 45
0000
0010
0000
0200
0000
0000
0000
0000
0000
1300
0000
0001
0000
0010
0000
0002
0000
0000
0000
0000
0000
1003
0000
0010
,  // measure 46
0000
0100
0000
0020
0000
0000
0000
0000
0000
0000
0000
0000
0000
0000
0000
0000
0000
0000
0000
0000
0000
0000
0000
0000
,  // measure 47
0000
0000
1030
0000
0001
0000
1000
0001
0000
1000
0000
0020
0000
0000
0000
0000
,  // measure 48
0000
0030
0000
0000
0000
0000
0000
0000
0000
0000
1001
0000
0000
0000
0000
0000
,  // measure 49
0000
0000
0000
0000
1010
0000
0000
0101
0000
0000
1000
0000
0001
1000
0000
0010
,  // measure 50
0000
0100
0000
0100
0000
0200
0000
0000
0310
0000
1000
0000
0001
0000
0010
0000
,  // measure 51
0001
0000
1000
0000
0000
1000
0000
0000
1000
0000
0001
0000
0010
0001
0000
0100
,  // measure 52
0000
0020
0000
0000
1030
0000
0010
0000
1000
0000
0100
0000
0010
0000
0001
0000
,  // measure 53
0100
0010
0100
0001
0010
0001
0100
0010
,  // measure 54
1000
0100
1000
0010
0100
0001
0010
0001
,  // measure 55
0010
0000
0000
0000
0001
0000
0100
0000
0010
0000
1000
0000
0100
1000
0000
0100
,  // measure 56
0000
2000
0000
0000
3100
0000
0010
0000
0001
0000
0100
0000
0001
0100
0000
0001
,  // measure 57
0000
0200
0000
0000
0301
0000
0010
0000
0100
0000
1000
0000
0010
0000
0100
0000
,  // measure 58
0001
0000
0010
0000
0000
0010
0000
0000
0010
0000
0001
0000
0100
0001
0000
0010
,  // measure 59
0000
0002
0000
0000
1003
0000
0010
0000
0100
0000
0001
0000
1000
0001
0000
1000
,  // measure 60
0000
0002
0000
0000
1003
0000
0010
0000
0100
0000
0001
0000
0010
0001
0000
0010
,  // measure 61
0000
0002
0000
0000
1003
0000
0010
0000
0100
0000
0001
0000
1000
0000
0001
0000
,  // measure 62
1000
0000
0000
0000
2002
0000
0000
0000
3003
0000
1000
0100
1000
0000
0001
0100
,  // measure 63
0001
0000
0000
0000
0000
0000
0110
0000
0000
2002
0000
0000
0000
0000
0000
0000
,  // measure 64
0000
3003
0000
0000
0000
0000
0000
0000
0000
0000
0000
0000
0000
0000
0000
0000
;
