#TITLE:RISE;
#SUBTITLE:;
#ARTIST:Dirty Androids;
#TITLETRANSLIT:;
#SUBTITLETRANSLIT:;
#ARTISTTRANSLIT:;
#GENRE:;
#CREDIT:;
#BANNER:RISE.png;
#BACKGROUND:RISE-bg.png;
#LYRICSPATH:;
#CDTITLE:;
#MUSIC:RISE.mp3;
#OFFSET:0.732;
#SAMPLESTART:53.339;
#SAMPLELENGTH:15.000;
#SELECTABLE:YES;
#BPMS:0.000=182.000
;
#STOPS:
;
#BGCHANGES:3.000=RISE.avi=1.000=0=0=1=====,
99999=-nosongbg-=1.000=0=0=0 // don't automatically add -songbackground-
;
#KEYSOUNDS:;
#ATTACKS:;

//---------------dance-single - ----------------
#NOTES:
     dance-single:
     :
     Hard:
     12:
     0.583,0.625,0.083,0.488,0.095,424.000,10.000,59.000,0.000,0.000,0.000,0.583,0.625,0.083,0.488,0.095,424.000,10.000,59.000,0.000,0.000,0.000: // measure 0
0000
0000
0000
0000
,  // measure 1
0000
0000
0000
0000
,  // measure 2
0000
0000
0000
0000
,  // measure 3
0000
0000
0000
0000
,  // measure 4
0000
0000
0000
0000
,  // measure 5
0000
0000
0000
0000
,  // measure 6
0000
0000
0000
0000
,  // measure 7
0000
0000
0000
0000
,  // measure 8
0000
0000
0000
0000
,  // measure 9
1001
0000
0100
1000
0000
1000
0001
0000
,  // measure 10
0010
0000
0001
0010
0000
0010
0001
0100
,  // measure 11
0010
0000
1000
0010
0000
0100
0001
0000
,  // measure 12
0010
0000
0001
0100
0000
0010
1000
0100
,  // measure 13
0010
0000
0001
0010
0000
0001
0100
0000
,  // measure 14
0010
0000
1000
0100
0000
0010
0001
0100
,  // measure 15
0001
0000
1000
0010
0000
0100
0010
0000
,  // measure 16
0001
0010
0010
0001
0002
0000
1003
0001
,  // measure 17
1001
0000
0010
0100
0000
0001
0100
0000
,  // measure 18
0010
0000
1000
0100
0000
1000
0100
0010
,  // measure 19
0001
0000
0100
0001
0000
0100
0010
0000
,  // measure 20
1000
0000
0100
1000
0000
0001
0010
0100
,  // measure 21
1000
0000
0010
0100
0000
0001
0010
0000
,  // measure 22
0100
0000
0010
0001
0000
0100
0010
1000
,  // measure 23
0001
0000
0100
0001
0000
0010
0001
0000
,  // measure 24
0011
0000
0000
0100
0000
0000
0110
0000
0000
0000
0100
0000
0010
0000
2000
0000
,  // measure 25
0000
0000
0000
0000
0000
3100
0010
0002
,  // measure 26
0000
0000
0000
0000
0000
0000
0000
0000
0000
0000
0000
0103
0000
0000
2000
0000
,  // measure 27
0000
0000
0000
0000
0000
3002
0000
0023
,  // measure 28
0000
0000
0000
0032
0000
0013
0100
1000
,  // measure 29
0020
0000
0000
0000
0000
0000
1030
0200
,  // measure 30
0000
0000
0000
0000
0000
0000
0000
0000
0000
0000
0000
0000
1300
0000
0000
0002
,  // measure 31
0000
0000
0000
0000
0000
1003
0010
0200
,  // measure 32
0000
0000
0000
0300
,  // measure 33
0100
0000
0001
0000
0000
0100
0001
0000
,  // measure 34
0100
0000
1000
0000
0000
0100
1000
0000
,  // measure 35
0010
0000
1000
0000
0000
0010
1000
0000
,  // measure 36
0010
0000
0001
0010
0000
0010
0001
0000
,  // measure 37
1000
0000
0100
0000
0000
1000
0100
0000
,  // measure 38
0001
0000
0100
0000
0000
0001
0100
0001
,  // measure 39
0010
0001
0010
0001
1000
0100
1000
0100
,  // measure 40
1000
0010
0100
0010
1000
0001
0010
0000
,  // measure 41
1001
0000
0010
1000
0000
1000
0100
0010
,  // measure 42
0001
0000
0100
0001
0000
0001
0010
0100
,  // measure 43
1000
0000
0010
1000
0000
0001
0010
0001
,  // measure 44
0100
0000
0000
0000
0010
0000
1000
0010
0000
0000
1000
0000
0010
0000
0100
0000
,  // measure 45
0001
0000
0010
0001
0000
0100
0001
0010
,  // measure 46
0100
0000
1000
0010
0000
0100
0001
0100
,  // measure 47
0010
0000
1000
0100
0000
1000
0001
0010
,  // measure 48
0100
0000
0000
0000
0010
0000
0100
1000
0000
0000
0010
0000
0100
0000
0001
0000
,  // measure 49
2001
0000
3010
0000
1000
0001
0100
0020
,  // measure 50
1000
0000
0130
0000
0001
0010
0100
2000
,  // measure 51
0001
0000
3010
0000
0100
0002
0000
0013
,  // measure 52
0001
0000
0000
0000
0100
0000
0010
0100
0000
0000
0010
0000
1000
0000
0001
0000
,  // measure 53
0200
0000
0301
0020
0000
0031
0100
0010
,  // measure 54
2000
0000
3001
0010
0001
0100
0010
1000
,  // measure 55
0002
0000
0103
0001
0000
0010
0001
1000
,  // measure 56
0010
0000
0000
0010
1000
0000
0001
0000
0000
0100
0001
0000
0010
0000
0001
0000
,  // measure 57
2000
0000
0000
0000
3001
0000
0000
0000
1000
0000
0010
0000
0100
0010
0100
0000
,  // measure 58
0010
0100
0020
0000
0130
0020
0000
0000
,  // measure 59
2030
0100
3002
2003
,  // measure 60
3001
0010
0100
2000
0000
0000
3020
0000
0000
0000
0000
0000
,  // measure 61
0230
0000
0010
0000
0301
1000
0002
0000
,  // measure 62
1003
0001
2000
0000
3010
0020
0000
0000
,  // measure 63
0130
0000
0001
0000
0010
0001
0100
0010
,  // measure 64
1000
0100
0010
0001
0000
2002
0000
3003
,  // measure 65
0020
0000
0000
0000
1030
0000
0000
0000
0001
0000
0010
0000
0100
0010
0100
0000
,  // measure 66
0010
0100
0020
0000
0130
0020
0000
0000
,  // measure 67
0031
0010
0001
1000
0010
1000
0002
0000
0000
0203
0000
0000
,  // measure 68
0310
0100
0000
0010
2000
0000
0001
0000
,  // measure 69
3020
0000
0130
0001
1000
0010
1000
0001
,  // measure 70
0010
0001
0100
0010
1000
0100
0010
0001
,  // measure 71
1000
0000
0100
1000
0000
0010
1000
0000
0001
0000
0000
0000
0010
0001
0000
0000
,  // measure 72
0100
0001
0010
0001
0100
0010
1000
0002
,  // measure 73
0000
0000
0000
0000
0000
1003
0100
0020
,  // measure 74
0000
0000
0000
0000
0000
0031
1000
0020
,  // measure 75
0000
0000
0000
0000
0000
2030
0000
3002
,  // measure 76
0000
0000
0000
2003
0000
3001
0100
0010
,  // measure 77
2000
0000
0000
0000
0000
0000
3001
0200
,  // measure 78
0000
0000
0000
0000
0000
0000
0000
0000
0000
0000
0000
0000
0301
0000
0000
0020
,  // measure 79
0000
0000
0000
0000
0000
0000
0031
1000
,  // measure 80
1001
0000
0000
1010
0000
0000
0011
0000
0000
0000
1000
0000
0001
0000
0100
0000
,  // measure 81
0020
0000
1030
0010
0000
0100
0001
0010
,  // measure 82
0200
0000
0310
0100
0000
1000
0010
0100
,  // measure 83
0002
0000
0013
0001
0000
1000
0001
1000
,  // measure 84
0020
0000
0130
0002
0000
0013
0100
1000
,  // measure 85
0200
0000
1300
0020
0000
0130
0001
0010
,  // measure 86
0200
0000
1300
0001
0010
0100
1000
0010
,  // measure 87
0200
0000
0301
0020
0000
0031
1000
0001
,  // measure 88
0100
0000
0000
0100
0010
0000
1000
0000
0000
0100
1000
0000
0001
0000
0010
0000
;

//---------------dance-single - ----------------
#NOTES:
     dance-single:
     :
     Beginner:
     1:
     0.156,0.257,0.075,0.066,0.000,115.000,9.000,8.000,0.000,0.000,0.000,0.156,0.257,0.075,0.066,0.000,115.000,9.000,8.000,0.000,0.000,0.000: // measure 0
0000
0000
0000
0000
,  // measure 1
0000
0000
0000
0000
,  // measure 2
0000
0000
0000
0000
,  // measure 3
0000
0000
0000
0000
,  // measure 4
0000
0000
0000
0000
,  // measure 5
0000
0000
0000
0000
,  // measure 6
0000
0000
0000
0000
,  // measure 7
0000
0000
0000
0000
,  // measure 8
0000
0000
0000
0000
,  // measure 9
1000
0000
0100
0000
,  // measure 10
1000
0000
0010
0000
,  // measure 11
1000
0000
0001
0000
,  // measure 12
1000
0000
0010
0000
,  // measure 13
0001
0000
0010
0000
,  // measure 14
0001
0000
0100
0000
,  // measure 15
0001
0000
1000
0000
,  // measure 16
0001
0000
0020
0030
,  // measure 17
0010
0000
0001
0000
,  // measure 18
0010
0000
0100
0000
,  // measure 19
1000
0000
0010
0000
,  // measure 20
0100
0000
0001
0000
,  // measure 21
1000
0000
0010
0000
,  // measure 22
0100
0000
0010
0000
,  // measure 23
1000
0000
0100
0000
,  // measure 24
0010
0000
0001
0000
,  // measure 25
1001
0000
0000
0000
,  // measure 26
0000
0000
0000
0000
,  // measure 27
0000
0000
0000
0000
,  // measure 28
0000
0000
0000
0000
,  // measure 29
0000
0000
0000
0000
,  // measure 30
0000
0000
0000
0000
,  // measure 31
0000
0000
0000
0000
,  // measure 32
0000
0000
0000
0000
,  // measure 33
0001
0000
0000
0000
,  // measure 34
0010
0000
0000
0000
,  // measure 35
0100
0000
0000
0000
,  // measure 36
1000
0000
0000
0000
,  // measure 37
0010
0000
0000
0000
,  // measure 38
0100
0000
0000
0000
,  // measure 39
1000
0000
1000
0000
,  // measure 40
0001
0000
0001
0000
,  // measure 41
1001
0000
0010
0000
,  // measure 42
0100
0000
0010
0000
,  // measure 43
1000
0000
0001
0000
,  // measure 44
1000
0000
0001
0000
,  // measure 45
0100
0000
1000
0000
,  // measure 46
0100
0000
1000
0000
,  // measure 47
0001
0000
0010
0000
,  // measure 48
0001
0000
0010
0000
,  // measure 49
0110
0000
0100
0000
,  // measure 50
0010
0000
0100
0000
,  // measure 51
1000
0000
0001
0000
,  // measure 52
1000
0000
0001
0000
,  // measure 53
0010
0000
0001
0000
,  // measure 54
0010
0000
0001
0000
,  // measure 55
1000
0000
0100
0000
,  // measure 56
1000
0000
0100
0000
,  // measure 57
0110
0000
0200
0000
,  // measure 58
0000
0000
0300
0000
,  // measure 59
0001
0000
2000
0000
,  // measure 60
0000
0000
3000
0000
,  // measure 61
0100
0000
0020
0000
,  // measure 62
0000
0000
0030
0000
,  // measure 63
0001
0000
0010
0000
,  // measure 64
0100
0000
1001
0000
,  // measure 65
1001
0000
0002
0000
,  // measure 66
0000
0000
0003
0000
,  // measure 67
1000
1000
2000
0000
,  // measure 68
0000
0000
3000
0000
,  // measure 69
0100
0000
0100
0000
,  // measure 70
0010
0000
0010
0000
,  // measure 71
2002
0000
0000
0000
,  // measure 72
0000
0000
3003
0000
,  // measure 73
1001
0000
0000
0000
,  // measure 74
0000
0000
0000
0000
,  // measure 75
0000
0000
0000
0000
,  // measure 76
0000
0000
0000
0000
,  // measure 77
0000
0000
0000
0000
,  // measure 78
0000
0000
0000
0000
,  // measure 79
0000
0000
0000
0000
,  // measure 80
1000
0000
0001
0000
,  // measure 81
0110
0000
0010
0000
,  // measure 82
1000
0000
0010
0000
,  // measure 83
0100
0000
0001
0000
,  // measure 84
0100
0000
0001
0000
,  // measure 85
0010
0000
0100
0000
,  // measure 86
1000
0000
0001
0000
,  // measure 87
1000
0000
0010
0000
,  // measure 88
0100
0000
0001
0001
;

//---------------dance-single - ----------------
#NOTES:
     dance-single:
     :
     Easy:
     4:
     0.326,0.367,0.108,0.373,0.000,218.000,13.000,45.000,0.000,0.000,0.000,0.326,0.367,0.108,0.373,0.000,218.000,13.000,45.000,0.000,0.000,0.000: // measure 0
0000
0000
0000
0000
,  // measure 1
0000
0000
0000
0000
,  // measure 2
0000
0000
0000
0000
,  // measure 3
0000
0000
0000
0000
,  // measure 4
0000
0000
0000
0000
,  // measure 5
0000
0000
0000
0000
,  // measure 6
0000
0000
0000
0000
,  // measure 7
0000
0000
0000
0000
,  // measure 8
0000
0000
0000
0000
,  // measure 9
1000
0000
1000
0000
0000
0010
0000
0000
,  // measure 10
0100
0000
0100
0000
0000
0001
0000
0000
,  // measure 11
0010
0000
0010
0000
0000
0100
0000
0000
,  // measure 12
1000
0000
1000
0000
0000
0001
0000
0000
,  // measure 13
0010
0000
0010
0000
0000
0001
0000
0000
,  // measure 14
0100
0000
0100
0000
0000
0001
0000
0000
,  // measure 15
1000
0000
1000
0000
0000
0010
0000
0000
,  // measure 16
0100
0010
0200
0301
,  // measure 17
1001
0000
1000
0000
0000
0010
0000
0000
,  // measure 18
0100
0000
0001
0000
0000
0100
0000
0000
,  // measure 19
0010
0000
0100
0000
0000
0010
0000
0000
,  // measure 20
1000
0000
0001
0000
0000
1000
0000
0000
,  // measure 21
0100
0000
1000
0000
0000
0100
0000
0000
,  // measure 22
0001
0000
0010
0000
0000
0001
0000
0000
,  // measure 23
0100
0000
0010
0000
0000
0100
0000
0000
,  // measure 24
0001
0010
0100
1000
,  // measure 25
2001
0000
0000
0000
,  // measure 26
0020
0000
3000
0000
,  // measure 27
0200
0000
0030
0000
,  // measure 28
0002
0000
0300
0000
,  // measure 29
0020
0000
0003
0000
,  // measure 30
0200
0000
0030
0000
,  // measure 31
2000
0000
0300
0000
,  // measure 32
0002
0000
3000
0000
,  // measure 33
2003
0100
0000
3100
,  // measure 34
0200
0010
0000
0310
,  // measure 35
0020
0001
0000
0031
,  // measure 36
0002
1000
0000
1003
,  // measure 37
2000
0010
0000
3010
,  // measure 38
0020
0100
0000
0130
,  // measure 39
0220
0000
0000
0330
,  // measure 40
2002
0000
0000
3003
,  // measure 41
1000
0000
0100
0000
0000
1000
0100
0000
,  // measure 42
0001
0000
0010
0000
0000
0001
0010
0000
,  // measure 43
1000
0000
0010
0000
0000
1000
0010
0000
,  // measure 44
0001
0000
0100
0000
0000
0001
0100
0000
,  // measure 45
0010
0000
0100
0000
0000
0010
0100
0000
,  // measure 46
1000
0000
0001
0000
0000
1000
0001
0000
,  // measure 47
0010
0000
1000
0000
0000
0010
1000
0000
,  // measure 48
0001
0000
0100
0000
0000
0001
0100
0000
,  // measure 49
0010
1000
0010
0100
,  // measure 50
0010
1000
0100
0010
,  // measure 51
0001
0100
0001
1000
,  // measure 52
0001
0100
0010
1000
,  // measure 53
0100
0010
0001
0100
,  // measure 54
0010
0100
0001
0010
,  // measure 55
0100
1000
0010
0100
,  // measure 56
0001
1000
0020
0130
,  // measure 57
0210
0000
0002
0000
,  // measure 58
0000
0000
0300
0000
0000
0003
0000
0000
,  // measure 59
2000
0000
0020
0000
,  // measure 60
0000
3030
0202
0303
,  // measure 61
2001
0000
0020
3000
,  // measure 62
0200
0030
0300
0000
,  // measure 63
1001
0100
1000
0010
,  // measure 64
0100
0000
0001
0000
0000
1001
0000
0000
,  // measure 65
2010
0000
0200
0000
,  // measure 66
0000
0000
3000
0000
0000
0300
0000
0000
,  // measure 67
0010
0010
0012
0203
,  // measure 68
0320
0000
2030
0000
,  // measure 69
3002
0013
0001
0100
,  // measure 70
0010
1000
0100
0010
,  // measure 71
0200
0000
0000
0000
,  // measure 72
0020
0000
0000
0330
,  // measure 73
1002
0000
0000
0000
,  // measure 74
0020
0000
0003
0000
,  // measure 75
0200
0000
0030
0000
,  // measure 76
2000
0000
0300
0000
,  // measure 77
0002
0000
3000
0000
,  // measure 78
0200
0000
0003
0000
,  // measure 79
0020
0000
0330
0000
,  // measure 80
0010
1000
0010
0001
,  // measure 81
1001
0100
1000
0010
,  // measure 82
0100
0001
0010
0100
,  // measure 83
1000
0010
1000
0100
,  // measure 84
0010
0100
0010
0001
,  // measure 85
1000
0010
0100
0010
,  // measure 86
0001
0010
0100
1000
,  // measure 87
0010
1000
0010
0100
,  // measure 88
1000
0100
0010
0001
;

//---------------dance-single - ----------------
#NOTES:
     dance-single:
     :
     Medium:
     9:
     0.448,0.515,0.091,0.430,0.004,316.000,11.000,52.000,0.000,0.000,0.000,0.448,0.515,0.091,0.430,0.004,316.000,11.000,52.000,0.000,0.000,0.000: // measure 0
0000
0000
0000
0000
,  // measure 1
0000
0000
0000
0000
,  // measure 2
0000
0000
0000
0000
,  // measure 3
0000
0000
0000
0000
,  // measure 4
0000
0000
0000
0000
,  // measure 5
0000
0000
0000
0000
,  // measure 6
0000
0000
0000
0000
,  // measure 7
0000
0000
0000
0000
,  // measure 8
0000
0000
0000
0000
,  // measure 9
1001
0000
1000
0000
0000
0100
1000
0000
,  // measure 10
0001
0000
0100
0000
0000
0001
0010
0000
,  // measure 11
1000
0000
0010
0000
0000
1000
0100
0000
,  // measure 12
0001
0000
1000
0001
0000
0010
0100
0000
,  // measure 13
1000
0000
0010
0000
0000
0100
0010
0000
,  // measure 14
0001
0000
0010
0000
0000
0100
1000
0000
,  // measure 15
0001
0000
0100
0000
0000
0010
1000
0000
,  // measure 16
0001
0010
0001
0010
0002
0000
1003
0000
,  // measure 17
0110
0000
1000
0000
0000
0001
0100
0000
,  // measure 18
1000
0000
0010
0000
0000
1000
0001
0000
,  // measure 19
0100
0000
0001
0000
0000
0010
0001
0000
,  // measure 20
1000
0000
0010
0100
0000
0100
0001
0000
,  // measure 21
1000
0000
0010
0000
0000
0100
0010
0000
,  // measure 22
1000
0000
0100
0000
0000
0010
0100
0000
,  // measure 23
0001
0000
0010
0000
0000
0100
1000
0000
,  // measure 24
1000
0000
0000
0010
0000
0000
0100
0000
0000
0000
0001
0000
0010
0000
0200
0000
,  // measure 25
0000
0000
0000
0000
0000
0000
0310
0002
,  // measure 26
0000
0000
0000
0000
0000
0000
1003
0020
,  // measure 27
0000
0000
0000
0000
0000
0230
0000
0302
,  // measure 28
0000
0000
0000
2003
0000
3010
0100
0000
,  // measure 29
0002
0000
0000
0000
0000
0000
1003
0020
,  // measure 30
0000
0000
0000
0000
0000
0000
0130
0002
,  // measure 31
0000
0000
0000
2003
,  // measure 32
0000
0000
0000
3000
,  // measure 33
0002
0000
0010
0000
0000
0000
0013
0200
,  // measure 34
0000
0000
0010
0000
0000
0000
0310
0002
,  // measure 35
0000
0000
1000
0000
0000
0013
0000
2000
,  // measure 36
0000
0010
0000
3010
,  // measure 37
0200
0000
0010
0000
0000
0000
0310
2000
,  // measure 38
0000
0010
0000
3010
,  // measure 39
1000
0001
1000
0001
1000
0001
1000
0001
,  // measure 40
2000
0000
0000
0000
0000
3010
0100
0000
,  // measure 41
0110
0000
0001
0000
1000
0010
0100
0000
,  // measure 42
0001
0000
1000
0000
0100
0010
0001
0000
,  // measure 43
1000
0000
0010
0000
0100
0001
0010
0000
,  // measure 44
0100
0000
1000
0000
0010
0100
0001
0000
,  // measure 45
1000
0000
0100
0000
1000
0010
1000
0000
,  // measure 46
0100
0000
0010
0000
0001
0100
0001
0000
,  // measure 47
0010
0000
0001
0000
1000
0100
1000
0000
,  // measure 48
0010
0000
0100
0000
0001
1000
0001
0000
,  // measure 49
0110
0000
1000
0000
0100
1000
0001
0000
,  // measure 50
0010
0000
0100
0000
1000
0001
0010
0000
,  // measure 51
0001
0000
1000
0000
0010
0100
0010
0000
,  // measure 52
1000
0000
0001
0000
0010
0100
0010
0000
,  // measure 53
0001
0000
0010
0000
0100
1000
0100
0000
,  // measure 54
0001
0000
0100
0000
0010
1000
0010
0000
,  // measure 55
1000
0000
0010
0000
0100
0001
0100
0000
,  // measure 56
1000
0000
0100
0000
0010
0001
0010
0000
,  // measure 57
2002
0000
3003
0000
1000
0001
1000
1000
,  // measure 58
0001
1000
0002
0000
0003
0002
0000
0003
,  // measure 59
2000
0000
3020
0230
,  // measure 60
0302
1003
2020
0030
,  // measure 61
0002
3003
0010
0200
,  // measure 62
0310
0000
0200
0000
0310
0100
0000
0000
,  // measure 63
1001
0100
1000
0010
,  // measure 64
1000
0100
0010
0002
0000
1003
0000
0000
,  // measure 65
0220
0000
0330
0000
0001
1000
0001
0001
,  // measure 66
1000
0001
2000
0000
3000
2000
0000
3000
,  // measure 67
0010
0010
0210
0302
,  // measure 68
1003
0100
0000
0010
0002
0000
0000
0000
,  // measure 69
1003
0000
0100
0000
1000
0100
0000
1000
,  // measure 70
0010
0000
1000
0010
0000
1000
0001
0000
,  // measure 71
0220
0000
0000
0030
,  // measure 72
0002
0000
0000
0000
0300
0000
1003
0200
,  // measure 73
0000
0000
0000
0000
0000
0000
0310
0002
,  // measure 74
0000
0000
0000
0000
0000
0000
1003
0020
,  // measure 75
0000
0000
0000
0000
0000
0230
0000
0302
,  // measure 76
0000
0000
0000
2003
0000
0000
3100
0000
,  // measure 77
2000
0000
0000
0000
0000
0000
3010
0200
,  // measure 78
0000
0000
0000
0000
0000
0000
0301
0020
,  // measure 79
0000
0000
0000
0000
0000
0000
0031
1000
,  // measure 80
0002
1000
1000
1003
,  // measure 81
0110
0000
1000
0000
0100
0010
0001
0000
,  // measure 82
1000
0000
0010
0000
0100
0001
0010
0000
,  // measure 83
0001
0000
1000
0000
0010
1000
0001
0000
,  // measure 84
1000
0000
0001
0000
0010
0001
1000
0000
,  // measure 85
0010
0000
0100
0000
0001
0010
0100
0000
,  // measure 86
0010
0000
0100
0000
1000
0010
0100
0000
,  // measure 87
0001
0000
1000
0000
0001
0010
0100
0000
,  // measure 88
1000
0000
0001
0000
1000
0010
0100
0010
;
