#VERSION:0.81;
#TITLE:PANIC HOLIC;
#SUBTITLE:;
#ARTIST:C-Show;
#TITLETRANSLIT:;
#SUBTITLETRANSLIT:;
#ARTISTTRANSLIT:;
#GENRE:;
#ORIGIN:;
#CREDIT:;
#BANNER:PANIC HOLIC.png;
#BACKGROUND:PANIC HOLIC-bg.png;
#PREVIEWVID:;
#JACKET:PANIC HOLIC-jacket.png;
#CDIMAGE:;
#DISCIMAGE:;
#LYRICSPATH:;
#CDTITLE:;
#MUSIC:PANIC HOLIC.mp3;
#OFFSET:-1.398;
#SAMPLESTART:47.200;
#SAMPLELENGTH:15.000;
#SELECTABLE:YES;
#BPMS:0.000=220.000,
8.000=110.000,
23.000=220.000,
145.000=110.000,
177.000=220.000;
#STOPS:15.000=0.545,
86.000=0.273,
142.000=0.273,
143.000=0.273,
144.000=0.818,
225.000=0.273,
226.000=0.273,
227.000=0.273,
228.000=0.273,
236.000=0.136;
#DELAYS:;
#WARPS:;
#TIMESIGNATURES:0.000=4=4;
#TICKCOUNTS:0.000=4;
#COMBOS:0.000=1;
#SPEEDS:0.000=1.000=0.000=0;
#SCROLLS:0.000=1.000;
#FAKES:;
#LABELS:0.000=Song Start;
#BGCHANGES:;
#KEYSOUNDS:;
#ATTACKS:
;

//---------------dance-single - ----------------
#NOTEDATA:;
#CHARTNAME:;
#STEPSTYPE:dance-single;
#DESCRIPTION:;
#CHARTSTYLE:;
#DIFFICULTY:Hard;
#METER:15;
#RADARVALUES:0.825,1.000,0.333,0.315,0.259,554.000,36.000,34.000,0.000,0.000,0.000,0.000,0.000,0.825,1.000,0.333,0.315,0.259,554.000,36.000,34.000,0.000,0.000,0.000,0.000,0.000;
#CREDIT:;
#NOTES:
// measure 0
0000
0000
0000
0000
,  // measure 1
0000
0000
0000
0000
,  // measure 2
0001
0010
0100
0010
0000
0100
0010
0100
1000
0001
1000
0001
0000
1000
0010
1000
,  // measure 3
0001
0000
0010
0001
0010
0100
0010
0001
2000
0000
3010
0100
0010
1000
0010
1000
,  // measure 4
0000
0001
0100
0001
1000
0100
1000
0100
0000
0010
0001
0010
0011
0000
0001
0010
,  // measure 5
0100
1000
0100
0010
0002
0000
0103
0020
0000
1030
0100
0000
1001
0000
1000
0000
,  // measure 6
0000
0010
1000
0010
1000
0001
2000
0000
,  // measure 7
3010
0100
0001
0000
0001
0100
0010
1000
,  // measure 8
0000
1000
0100
0010
0001
1000
1001
0000
,  // measure 9
0000
0110
0000
0001
0100
0010
1010
0000
,  // measure 10
1000
0100
0010
0000
0001
0100
0020
0000
,  // measure 11
1030
0001
0100
0001
1000
0010
1000
0001
,  // measure 12
0010
0000
0100
1000
0010
0100
0220
0330
,  // measure 13
0000
1001
0000
2002
3003
0000
0110
0000
,  // measure 14
0001
0100
0010
1000
0100
0010
0002
0000
,  // measure 15
0103
0010
1000
0000
0010
0100
0000
0001
,  // measure 16
0100
0010
0100
0001
0010
0100
1000
0010
,  // measure 17
0000
1010
0000
0010
0100
0010
1000
0100
,  // measure 18
1000
0010
0100
0001
0010
0001
0200
0000
,  // measure 19
0310
1000
0010
0000
0001
0010
0000
1000
,  // measure 20
0001
1000
0010
0100
0010
0100
0110
0000
,  // measure 21
0100
1100
0000
0002
1003
1000
0010
0100
,  // measure 22
0001
0100
0010
1000
0100
0010
0100
1000
,  // measure 23
0001
1000
0001
0010
0001
0100
0010
0100
,  // measure 24
0001
0010
0100
1000
0010
1000
0001
0200
,  // measure 25
0000
0301
0100
0010
1000
0100
0010
0001
,  // measure 26
1000
0010
0100
0010
1000
0001
0100
0010
,  // measure 27
0100
0001
1000
0100
0010
0001
0010
0000
,  // measure 28
0001
0000
0100
0000
0010
1000
0010
1000
,  // measure 29
0001
0100
0002
0000
1003
0100
1000
0010
,  // measure 30
0100
0001
0010
0001
0010
0100
0010
0001
,  // measure 31
1000
0010
0100
0010
1000
0001
0100
0010
,  // measure 32
0100
0001
1000
0100
0110
0000
0001
1001
,  // measure 33
0000
1000
0010
1000
0100
0010
0001
0100
,  // measure 34
0010
0100
0001
0010
0100
1000
0010
1000
,  // measure 35
0001
0010
0100
1000
1010
0000
0101
0000
,  // measure 36
1001
0000
0000
0000
0210
0000
0301
0000
0100
1000
0100
1000
0000
0001
0100
0001
,  // measure 37
1000
0000
0020
0000
0130
0001
0020
0000
0031
0000
1000
0000
0010
0100
0001
0100
,  // measure 38
0020
0000
0000
0000
2030
0000
3100
0000
1000
0010
1000
0010
0100
0000
0001
0000
,  // measure 39
0010
0010
0100
0100
1000
0000
0002
0000
0013
0000
0001
0000
0100
0010
0100
0002
,  // measure 40
0000
1003
0001
0000
2001
0000
3010
0100
0000
0001
0010
0001
0000
1000
0010
1000
,  // measure 41
0100
0000
0020
0000
0031
0000
2000
0000
3010
0000
0100
0000
0001
0010
0001
0100
,  // measure 42
0020
0000
0000
0000
1030
0000
0100
0000
0010
0001
0010
0001
1000
0000
0010
0000
,  // measure 43
0100
0100
0001
0001
1000
0100
1000
0100
0010
0001
0010
0001
2000
0000
3010
0200
,  // measure 44
0000
0301
0010
0000
0110
0000
0000
0000
0000
0000
0100
0000
0000
0000
1000
0000
,  // measure 45
0100
0010
0000
0100
1000
0010
0100
0001
,  // measure 46
0010
0100
1001
0000
0000
0001
0000
1000
,  // measure 47
0001
0100
0001
1000
0100
0010
0002
0000
,  // measure 48
1003
0000
1010
0000
0000
1000
0000
0100
,  // measure 49
1000
0010
0000
0100
0010
1000
0100
0010
,  // measure 50
0001
0100
0110
0000
0000
0010
0000
0100
,  // measure 51
0010
1000
0100
1000
0010
0100
0000
0101
,  // measure 52
0000
0000
1100
0000
0000
0100
0000
0001
,  // measure 53
0010
0001
0011
0000
0000
0100
0000
0010
,  // measure 54
1000
0010
1010
0000
0000
1000
0000
0001
,  // measure 55
1000
0001
1001
0000
0000
0010
0000
0110
,  // measure 56
0000
1001
1010
0101
,  // measure 57
0011
0210
0010
0010
,  // measure 58
0310
0100
0001
0010
0100
1000
0010
0100
,  // measure 59
0010
1000
0100
1000
0010
0100
0001
0010
,  // measure 60
1000
0010
0001
0100
0010
1000
0010
0100
,  // measure 61
0001
1000
0100
0001
0100
0010
0001
1000
,  // measure 62
0010
1000
0100
0010
0001
2000
0000
3001
,  // measure 63
0000
1000
0010
0001
0010
0100
0001
1000
,  // measure 64
0100
1000
0100
0010
0100
0001
0100
0010
,  // measure 65
0100
1000
0010
0100
0010
1000
0100
0010
,  // measure 66
0100
1000
0001
0010
0001
1000
0002
0000
,  // measure 67
0003
1000
0001
0100
0001
1000
0010
0001
,  // measure 68
0010
1000
0100
0010
0001
0100
1000
0100
,  // measure 69
0001
0010
0100
1000
0010
0100
0010
1000
,  // measure 70
0100
0010
0001
0010
0100
0020
0000
0130
,  // measure 71
0010
0001
0100
0010
1000
0010
0100
0001
,  // measure 72
0010
1000
0010
0001
0100
0010
1000
0100
,  // measure 73
1000
0010
0001
0010
1000
0100
1000
0010
,  // measure 74
0100
0001
0010
0100
1000
0100
0020
0000
,  // measure 75
0000
0230
0000
1000
0000
1000
0000
1000
,  // measure 76
0000
1000
0000
1000
0300
1000
1100
0000
,  // measure 77
0000
1001
0000
0000
0000
0000
0000
0000
;

//---------------dance-single - ----------------
#NOTEDATA:;
#CHARTNAME:;
#STEPSTYPE:dance-single;
#DESCRIPTION:;
#CHARTSTYLE:;
#DIFFICULTY:Beginner;
#METER:5;
#RADARVALUES:0.225,0.428,0.148,0.065,0.000,147.000,16.000,7.000,0.000,0.000,0.000,0.000,0.000,0.225,0.428,0.148,0.065,0.000,147.000,16.000,7.000,0.000,0.000,0.000,0.000,0.000;
#CREDIT:;
#NOTES:
// measure 0
0000
0000
0000
0000
,  // measure 1
0000
0000
0000
0000
,  // measure 2
1000
0000
0100
0000
,  // measure 3
1000
0000
0001
0001
,  // measure 4
0000
1000
0000
0010
,  // measure 5
0000
0200
0300
0110
,  // measure 6
0000
0000
0000
0010
,  // measure 7
0000
0000
0000
0100
,  // measure 8
0000
0000
0000
0110
,  // measure 9
0000
0000
0000
1001
,  // measure 10
0000
0000
0000
0001
,  // measure 11
0000
0000
0000
1000
,  // measure 12
0000
0000
0000
1001
,  // measure 13
0000
1001
0000
0010
,  // measure 14
0000
0010
0000
0100
,  // measure 15
0000
0100
0000
0010
,  // measure 16
0000
0010
0000
0100
,  // measure 17
0000
0100
0000
1000
,  // measure 18
0000
1000
0000
0001
,  // measure 19
0000
0001
0000
1000
,  // measure 20
0000
1000
0000
0002
,  // measure 21
0000
0000
0003
0000
,  // measure 22
0001
0000
0010
0000
,  // measure 23
0001
0000
0100
0000
,  // measure 24
0010
0000
1000
0000
,  // measure 25
1000
0000
0010
0000
,  // measure 26
0100
0000
0010
0000
,  // measure 27
1000
0000
0100
0000
,  // measure 28
0010
0000
0001
0000
,  // measure 29
0002
0003
0001
0000
,  // measure 30
0010
0000
0100
0000
,  // measure 31
1000
0000
0001
0000
,  // measure 32
0100
0000
0010
0000
,  // measure 33
0010
0000
1000
0000
,  // measure 34
0100
0000
0010
0000
,  // measure 35
0001
0000
1001
1001
,  // measure 36
1001
1001
0001
0001
,  // measure 37
0000
1000
1000
1000
,  // measure 38
0000
0010
0010
0010
,  // measure 39
0000
0100
0100
0100
,  // measure 40
0000
1000
1000
1000
,  // measure 41
0000
0001
0001
0001
,  // measure 42
0000
0100
0100
0100
,  // measure 43
0000
0010
0010
0020
,  // measure 44
0030
0010
0000
0000
,  // measure 45
0000
0000
0000
0000
,  // measure 46
0100
0100
0000
0000
,  // measure 47
0000
0010
0000
0010
,  // measure 48
0000
0010
0000
0000
,  // measure 49
0000
2000
0000
3000
,  // measure 50
1000
1000
0000
0000
,  // measure 51
0000
0001
0001
0000
,  // measure 52
0001
0001
0000
0000
,  // measure 53
0000
0010
0000
0000
,  // measure 54
0000
0100
0000
0000
,  // measure 55
0000
1000
0000
0010
,  // measure 56
0000
0110
0110
0110
,  // measure 57
0110
0220
0000
0000
,  // measure 58
0000
0000
0000
0000
,  // measure 59
0330
0010
0000
0000
0000
0100
0000
0000
,  // measure 60
0000
1000
0000
0000
0000
0100
0000
0000
,  // measure 61
0000
0010
0000
0000
0000
0001
0000
0000
,  // measure 62
0000
0100
0000
0100
0000
0100
0000
0000
,  // measure 63
0000
0010
0000
0000
0000
1000
0000
0000
,  // measure 64
0000
0010
0000
0000
0000
0001
0000
0000
,  // measure 65
0000
0100
0000
0000
0000
0010
0000
0000
,  // measure 66
0000
1000
0000
1000
0000
1000
0000
0000
,  // measure 67
0000
0001
0000
0000
0000
0010
0000
0000
,  // measure 68
0000
0100
0000
0000
0000
1000
0000
0000
,  // measure 69
0000
0001
0000
0000
0000
0100
0000
0000
,  // measure 70
0000
0010
0000
0010
0000
0010
0000
0000
,  // measure 71
0000
0100
0000
0000
0000
1000
0000
0000
,  // measure 72
0000
0001
0000
0000
0000
0100
0000
0000
,  // measure 73
0000
0010
0000
0010
0000
0010
0000
0000
,  // measure 74
0000
0100
0000
0100
0000
0100
0000
0000
,  // measure 75
0000
1001
0000
0000
0000
0000
0000
0000
,  // measure 76
0000
0000
0000
0000
,  // measure 77
0000
1001
0000
0000
0000
0000
0000
0000
;

//---------------dance-single - ----------------
#NOTEDATA:;
#CHARTNAME:;
#STEPSTYPE:dance-single;
#DESCRIPTION:;
#CHARTSTYLE:;
#DIFFICULTY:Easy;
#METER:8;
#RADARVALUES:0.437,0.535,0.250,0.222,0.000,280.000,27.000,24.000,0.000,0.000,0.000,0.000,0.000,0.437,0.535,0.250,0.222,0.000,280.000,27.000,24.000,0.000,0.000,0.000,0.000,0.000;
#CREDIT:;
#NOTES:
// measure 0
0000
0000
0000
0000
,  // measure 1
0000
0000
0000
0000
,  // measure 2
1000
1000
0001
0001
,  // measure 3
1000
1000
0010
0010
,  // measure 4
0100
0100
1000
0001
,  // measure 5
0001
0010
0010
2000
,  // measure 6
0000
0100
3100
0002
,  // measure 7
0000
0100
0103
2000
,  // measure 8
0000
0010
3010
1001
,  // measure 9
0000
1001
0000
0000
0000
0000
0002
0000
,  // measure 10
0000
0010
0013
2000
,  // measure 11
0000
0010
3010
0002
,  // measure 12
0000
0100
0103
0110
,  // measure 13
0000
0110
0000
0110
0000
0000
1001
0000
,  // measure 14
1000
0100
0100
0010
,  // measure 15
0010
0001
0001
1000
,  // measure 16
1000
0010
0010
0100
,  // measure 17
0100
0001
0001
1000
,  // measure 18
1000
0001
0001
0010
,  // measure 19
0010
0001
0001
1000
,  // measure 20
1000
0100
0100
0020
,  // measure 21
0000
0000
0130
1000
,  // measure 22
0100
0010
0001
1000
,  // measure 23
0010
0010
1000
0001
,  // measure 24
0100
0001
0010
0100
,  // measure 25
1000
0000
0001
0010
,  // measure 26
0100
1000
0001
0100
,  // measure 27
0010
0010
1000
0010
,  // measure 28
0100
0001
0010
0100
,  // measure 29
1000
0002
0013
0100
,  // measure 30
0010
0001
0100
0010
,  // measure 31
1000
1000
0001
0010
,  // measure 32
0100
0000
0010
0000
0001
0000
0000
0001
,  // measure 33
0000
0001
1000
0100
,  // measure 34
0010
0001
1000
0010
,  // measure 35
0100
0001
0101
1010
,  // measure 36
0110
2001
3010
0002
,  // measure 37
0013
2000
3100
0002
,  // measure 38
0103
0020
1030
0020
,  // measure 39
0130
0000
0002
0000
0013
0000
1000
0100
,  // measure 40
0010
0001
2001
0000
3100
0000
0002
0000
,  // measure 41
0103
2000
3010
0002
,  // measure 42
0013
0000
1000
1000
0100
0100
0010
0010
,  // measure 43
0001
0001
1000
0100
0010
0001
2000
0000
,  // measure 44
0000
3001
1001
0000
0000
1000
0000
0000
,  // measure 45
0100
0000
0000
1000
0000
0000
0100
0000
,  // measure 46
0010
0000
0110
0000
0000
1000
0000
0000
,  // measure 47
0001
0000
1000
0000
0000
0001
0000
0000
,  // measure 48
1000
0000
1010
0000
0000
0010
0000
0000
,  // measure 49
0100
0001
0010
0100
,  // measure 50
1000
0000
1001
0000
0000
0001
0000
0000
,  // measure 51
0010
0000
0001
0000
0001
0000
0000
0100
,  // measure 52
0000
0000
0110
0000
0000
0010
0000
0000
,  // measure 53
1000
0000
1010
0000
0000
1000
0000
0000
,  // measure 54
0001
0000
1001
0000
0000
0001
0000
0000
,  // measure 55
0010
0000
0011
0000
0000
0010
0000
0110
,  // measure 56
0000
1001
1100
0011
,  // measure 57
0110
2001
0001
0001
,  // measure 58
0001
0001
0001
0001
,  // measure 59
3010
1000
0000
0100
0000
1000
0000
0010
,  // measure 60
0000
0100
0000
0001
0000
0010
0000
0010
,  // measure 61
0000
0001
0000
0100
0000
0010
0000
1000
,  // measure 62
0000
0100
0000
0010
0000
0002
0000
1003
,  // measure 63
0000
0001
0000
0100
0000
0010
0000
1000
,  // measure 64
0000
0010
0000
0100
0000
0010
0000
0010
,  // measure 65
0000
1000
0000
0100
0000
0010
0000
0001
,  // measure 66
0000
0100
0000
0010
0000
0100
0000
0010
,  // measure 67
0000
1000
0000
0001
0000
0100
0000
0001
,  // measure 68
0000
0010
0000
0001
0000
0100
0000
0100
,  // measure 69
0000
0001
0000
1000
0000
0010
0000
1000
,  // measure 70
0000
0100
0000
1000
0000
0020
0000
0130
,  // measure 71
0000
0001
0000
0010
0000
0001
0000
0100
,  // measure 72
0000
0010
0000
1000
0000
0010
0000
0100
,  // measure 73
0000
0001
0000
0010
0000
0100
0000
1000
,  // measure 74
0000
0001
0000
1000
0000
0001
2000
0000
,  // measure 75
0000
3001
0000
0000
0000
0000
0000
0000
,  // measure 76
0000
0000
0000
0110
,  // measure 77
0000
1001
0000
0000
0000
0000
0000
0000
;

//---------------dance-single - ----------------
#NOTEDATA:;
#CHARTNAME:;
#STEPSTYPE:dance-single;
#DESCRIPTION:;
#CHARTSTYLE:;
#DIFFICULTY:Medium;
#METER:11;
#RADARVALUES:0.593,0.856,0.426,0.250,0.051,376.000,46.000,27.000,0.000,0.000,0.000,0.000,0.000,0.593,0.856,0.426,0.250,0.051,376.000,46.000,27.000,0.000,0.000,0.000,0.000,0.000;
#CREDIT:;
#NOTES:
// measure 0
0000
0000
0000
0000
,  // measure 1
0000
0000
0000
0000
,  // measure 2
1000
0100
1000
0100
0010
0001
0010
0001
,  // measure 3
1000
0010
1000
0010
0100
0001
0100
0001
,  // measure 4
0010
0001
1000
0100
1000
0100
0010
0010
,  // measure 5
0100
0000
0100
0000
0002
0000
0000
2000
0000
0000
3003
0000
1001
0000
0000
0000
,  // measure 6
1000
0100
0100
0010
,  // measure 7
0010
0001
0001
1000
,  // measure 8
1000
0001
0001
0101
,  // measure 9
0000
1100
0000
0000
1000
0000
1001
0000
,  // measure 10
0001
0010
0010
0100
,  // measure 11
0100
0000
1000
0000
1000
0000
0010
0100
,  // measure 12
0010
0000
1000
0001
1000
0000
1001
0000
,  // measure 13
0000
1001
0000
1001
0000
0000
1001
0000
,  // measure 14
1000
0000
0010
0000
0100
0010
1000
0000
,  // measure 15
0100
0000
0010
0000
0001
0100
0001
0000
,  // measure 16
0010
0100
0010
1010
,  // measure 17
0000
0101
0000
0000
1010
0000
1000
0000
,  // measure 18
0010
0000
0100
0000
0001
0010
0001
0000
,  // measure 19
0100
0000
0010
0000
1000
0100
1000
0000
,  // measure 20
0010
0100
0001
1000
,  // measure 21
0001
1000
0000
1000
0001
0000
1000
0000
,  // measure 22
0100
0000
1000
0010
1000
0000
0100
0000
,  // measure 23
0010
0000
0001
0100
0001
0000
0100
0000
,  // measure 24
0010
0000
1000
0000
0100
0010
0100
0010
,  // measure 25
0001
1000
0001
0100
,  // measure 26
0010
0000
0100
0010
1000
0000
0100
0000
,  // measure 27
0010
0000
0001
0100
0001
0010
0001
0000
,  // measure 28
1000
0000
1000
0000
0010
0100
0010
0100
,  // measure 29
0010
0100
0020
0000
1030
0000
0100
0000
,  // measure 30
1000
0000
0010
1000
0010
0000
0100
0000
,  // measure 31
0001
0000
0010
0001
0100
0000
0010
0000
,  // measure 32
0100
0000
0001
0000
1001
0000
0000
0110
,  // measure 33
0000
0110
1001
1000
,  // measure 34
0010
0100
0110
0001
,  // measure 35
0010
0100
1100
0011
,  // measure 36
1001
0000
0000
0000
2000
0000
3100
0000
0010
0002
0000
0000
0103
0002
0000
0000
,  // measure 37
2003
0000
3010
0000
0200
0000
0320
0000
2030
0000
3100
0000
0010
0200
0000
0000
,  // measure 38
2300
0000
0000
0000
3002
0000
0013
0000
0001
0200
0000
0000
0310
0000
0100
0000
,  // measure 39
0002
0000
0000
0000
1003
0000
0020
0000
0130
0000
0001
0000
1000
0000
0010
1000
,  // measure 40
0000
1000
0010
0000
0200
0000
0301
0000
0010
0200
0000
0000
1300
0200
0000
0000
,  // measure 41
0320
0000
0032
0000
1003
0000
0020
0000
0130
0000
0100
0000
0001
0020
0000
0000
,  // measure 42
0230
0000
0301
0010
0001
0010
0100
1000
,  // measure 43
0100
0000
1000
0000
0001
0000
0010
0000
0100
0000
1000
0000
0002
0000
0000
1000
,  // measure 44
0000
1003
1001
0000
0000
1000
0000
0010
,  // measure 45
1000
0000
0000
0100
1000
0000
0001
0000
,  // measure 46
0101
0000
1010
0000
0000
1000
0000
0001
,  // measure 47
0100
0000
0110
0000
0000
1001
0000
0000
,  // measure 48
0110
0000
1001
0000
0000
1000
0000
0010
,  // measure 49
1000
0000
0001
0010
0001
0000
0010
0001
,  // measure 50
0010
0000
1001
0000
0000
0010
0000
0100
,  // measure 51
0010
0000
1100
0000
1100
0000
0000
0101
,  // measure 52
0000
0000
1001
0000
0000
0001
0000
0001
,  // measure 53
1000
0000
1100
0000
0000
0100
0000
0100
,  // measure 54
0010
0000
0110
0000
0000
0010
0000
0010
,  // measure 55
0001
0000
0101
0000
0101
0000
0000
1010
,  // measure 56
0000
1001
0011
1100
,  // measure 57
0110
2001
0010
0001
,  // measure 58
3010
0000
0001
1000
0001
1000
0001
1000
,  // measure 59
0001
1000
0000
0010
0000
0100
0001
0100
,  // measure 60
0000
0010
0000
1000
0000
0100
0010
0100
,  // measure 61
0000
1000
0000
0001
0000
1000
0010
1000
,  // measure 62
0000
0001
0010
0001
0010
0001
0000
0100
,  // measure 63
0000
0010
0000
1000
0000
0100
0010
0100
,  // measure 64
0000
1000
0000
0001
0000
0100
0010
0100
,  // measure 65
0000
0001
0010
0100
0000
0010
0000
0100
,  // measure 66
0000
1000
0001
1000
0001
1000
0001
0000
,  // measure 67
0000
1001
0000
1000
0000
0001
0100
0001
,  // measure 68
0000
1000
0000
0010
0000
0100
0001
0100
,  // measure 69
0000
0010
0000
1000
0000
0100
0000
0010
,  // measure 70
0000
0001
0100
0001
0100
0001
0000
0010
,  // measure 71
0000
0100
0000
1000
0000
0001
1000
0001
,  // measure 72
0000
0010
0000
0001
0000
0100
0010
0100
,  // measure 73
0000
1000
0010
1000
0010
1000
0010
1000
,  // measure 74
0010
0100
0001
0100
0001
0000
0101
0000
,  // measure 75
0000
2001
0000
0000
0000
0000
0000
0000
,  // measure 76
0000
0000
3000
1100
,  // measure 77
0000
1001
0000
0000
0000
0000
0000
0000
;
