#TITLE:Overload Frontier;
#SUBTITLE:;
#ARTIST:DJ Shimamura;
#TITLETRANSLIT:;
#SUBTITLETRANSLIT:;
#ARTISTTRANSLIT:;
#GENRE:beatmania IIDX;
#CREDIT:;
#BANNER:Overload Frontier.png;
#BACKGROUND:Overload Frontier-bg.png;
#LYRICSPATH:;
#CDTITLE:;
#MUSIC:Overload Frontier.mp3;
#OFFSET:2.149000;
#SAMPLESTART:66.448990;
#SAMPLELENGTH:15.000000;
#LASTBEATHINT:3.167424;
#SELECTABLE:YES;
#BPMS:0.000000=175.000000
;
#STOPS:
;
#BGCHANGES:3.500=Overload Frontier.avi=1.000=0=0=0=StretchNoLoop====,
99999=-nosongbg-=1.000=0=0=0 // don't automatically add -songbackground-
;
#KEYSOUNDS:;
#ATTACKS:;

//---------------dance-single - ----------------
#NOTES:
     dance-single:
     :
     Hard:
     14:
     0.736184,1.000000,0.433531,0.588947,0.384452,505.000000,53.000000,72.000000,0.000000,0.000000,0.000000,0.736184,1.000000,0.433531,0.588947,0.384452,505.000000,53.000000,72.000000,0.000000,0.000000,0.000000:
// measure 0
0000
0000
0000
0000
,  // measure 1
0000
0000
0000
0000
,  // measure 2
0000
0000
0000
0000
,  // measure 3
0000
0000
0000
0000
,  // measure 4
0000
0000
0000
0000
,  // measure 5
0000
0000
0000
0000
,  // measure 6
1000
0000
0000
0100
0000
0000
1000
0000
0001
0000
0000
0100
0000
0000
0001
0000
,  // measure 7
1000
0000
0000
0010
0000
0000
1000
0000
0001
0000
0000
0010
0000
0000
0001
0000
,  // measure 8
0011
1010
0101
1100
,  // measure 9
1001
0000
0200
0320
2030
0000
3001
0000
,  // measure 10
1000
0010
1000
0010
0001
0010
0001
0010
,  // measure 11
1000
0010
1000
0010
0010
0000
0011
0000
,  // measure 12
1000
0100
1000
0100
0001
0100
0001
0100
,  // measure 13
1000
0010
0100
0101
0000
1100
2000
3002
,  // measure 14
0013
0001
0010
0001
0100
0001
0100
0001
,  // measure 15
1000
0001
1000
0001
0001
0000
1001
0000
,  // measure 16
2010
3001
0012
0103
,  // measure 17
0011
0000
0000
1010
0000
0000
1001
0000
1000
0000
0001
0000
0020
0000
0030
0000
,  // measure 18
1000
0100
1000
0100
0010
0100
0010
0100
,  // measure 19
0001
0100
0001
0100
0100
0000
0110
0000
,  // measure 20
1000
0010
1000
0010
0100
0010
0100
0010
,  // measure 21
0001
0000
0000
0010
0000
0000
1000
0000
0010
0000
0000
0000
0110
0000
0000
0000
,  // measure 22
1000
0010
1000
0010
0100
0010
0001
0010
,  // measure 23
1000
0100
1000
0100
0010
0000
0110
0000
,  // measure 24
0001
0000
0000
0010
0000
0000
0001
0000
1000
0000
0000
0010
0000
0000
2000
0000
,  // measure 25
0002
0000
0000
3003
,  // measure 26
2000
0000
3002
0000
,  // measure 27
2003
0000
3020
0000
,  // measure 28
2030
0000
0000
0000
0000
0000
0000
0000
3002
0000
0000
0000
0000
0000
1003
0100
,  // measure 29
0010
0001
0100
0010
,  // measure 30
2000
0000
3002
0000
,  // measure 31
1003
0000
0100
1000
,  // measure 32
0020
0000
0230
0000
,  // measure 33
0300
0000
0000
0000
,  // measure 34
1000
0000
0000
0001
0000
0000
0020
0000
0000
0000
0000
0000
0000
0000
0031
0010
,  // measure 35
0100
0000
0000
1000
0000
0000
0010
0000
0100
0000
0000
0010
0000
0000
1000
0000
,  // measure 36
0001
0000
0000
0010
0000
0000
0002
0000
0000
0000
0000
0000
0000
0000
0003
0000
,  // measure 37
0011
0000
0000
1010
0000
0000
2002
0000
0000
0000
0000
0000
3003
0000
0000
0000
,  // measure 38
1000
0000
0000
0001
0000
0000
0200
0000
0000
0000
0000
0000
0000
0000
0301
0100
,  // measure 39
0010
0000
0000
1000
0000
0000
0100
0000
0010
0000
0000
0001
0000
0000
1000
0000
,  // measure 40
1010
0000
0000
0011
0000
0000
2002
0000
0000
0000
0000
0000
3003
0000
0000
0000
,  // measure 41
1100
0000
0000
0101
0000
0000
0220
0000
0000
0000
0000
0000
0330
0000
0000
0000
,  // measure 42
1000
0000
0000
0100
0000
0000
2000
0000
0000
0000
0100
0000
0000
0000
3100
0000
,  // measure 43
1000
0000
0000
0010
0000
0000
2000
0000
0100
0000
0000
0000
3100
0000
1000
0000
,  // measure 44
0001
0000
0000
0100
0000
0000
0002
0000
0100
0000
0000
0100
0000
0000
0103
0000
,  // measure 45
0001
0000
0000
0010
0000
0000
0001
0000
0010
0000
0001
0000
0100
0000
0010
0000
,  // measure 46
1000
0000
0100
1000
0100
0000
0010
0000
0001
0000
0100
0001
0100
0000
0010
0000
,  // measure 47
1000
0000
0100
0010
0100
0000
0010
0000
0001
0000
1000
0001
1000
0000
0010
0000
,  // measure 48
0100
0010
0100
0010
1000
0100
1000
0100
0010
0001
0010
0001
0010
0100
0010
0100
,  // measure 49
2000
0000
3020
0230
0302
0000
1003
0000
,  // measure 50
1001
0000
1000
0010
0000
0010
1000
0000
0001
0000
0010
0000
0100
0000
0010
0001
,  // measure 51
0010
0000
0010
0001
0000
0001
0100
0000
0010
0000
0010
1000
0000
1000
0100
0000
,  // measure 52
1000
0000
1000
0001
0000
0001
0010
0000
0001
0000
0100
0000
0010
0000
0100
0000
,  // measure 53
0102
0000
0000
1003
0000
0000
2100
0000
0000
0000
0000
0000
3010
0000
0000
0000
,  // measure 54
1001
0000
0001
0100
0000
0100
0010
0000
1000
0000
0100
0000
0010
0000
0001
0100
,  // measure 55
0001
0000
0001
0010
0000
0010
0100
0000
1000
0000
1000
0010
0000
0010
1000
0000
,  // measure 56
2010
0000
0000
3001
0000
0000
0012
0000
0000
0000
0103
0000
0000
0000
1000
0000
,  // measure 57
2100
0000
0000
3001
0000
0000
0102
0000
0000
0000
0013
0000
0001
0000
0200
0000
,  // measure 58
0302
0000
0100
0000
0013
0000
1000
0200
,  // measure 59
0010
0000
1300
0020
0100
0000
1030
0010
,  // measure 60
2000
0000
3001
0020
0000
0031
0100
0001
,  // measure 61
2000
0000
3001
0200
0000
0301
0010
0001
,  // measure 62
2000
0000
0010
0000
3100
0000
1000
0002
,  // measure 63
0100
0000
0013
0200
0010
0000
1300
0100
,  // measure 64
2100
0000
0000
3010
0000
0000
2002
0000
0000
0000
0000
0000
0003
0000
0000
0000
,  // measure 65
0100
0000
0000
0001
0000
0000
0020
0000
0000
0000
0000
0000
3030
0000
2000
0000
,  // measure 66
3001
0000
0010
0000
0010
0000
0001
0000
0100
0000
0000
0100
0000
0000
0010
0000
,  // measure 67
1000
0000
0010
0000
0010
0000
1000
0000
0100
0000
0000
0010
0000
0000
0010
0000
,  // measure 68
0001
0000
1000
0000
1000
0000
0010
0000
0010
0000
0000
0100
0000
0000
0010
0000
,  // measure 69
1000
0000
0100
0000
0100
0000
1000
0000
0010
0000
0000
0010
0000
0000
0010
0000
,  // measure 70
1000
0000
0100
0000
0100
0000
1000
0000
0010
0000
0000
0100
0000
0000
0010
0000
,  // measure 71
1000
0000
0001
0000
0001
0000
0010
0000
0001
0000
0000
0100
0000
0000
0001
0000
,  // measure 72
1000
0100
0010
0001
1000
0010
0100
0001
,  // measure 73
2000
0000
0000
0000
0000
0000
0000
3000
,  // measure 74
0002
0000
0000
0010
0000
0000
0020
0000
0000
0000
0000
0000
0033
0000
0100
1000
,  // measure 75
0020
0000
0000
1000
0000
0000
1030
0000
0200
0000
0000
0010
0000
0000
0310
0000
,  // measure 76
0011
0000
0000
1010
0000
0000
2002
0000
0000
0000
0000
0000
3003
0000
0001
1000
,  // measure 77
0020
0000
0000
0130
0000
0000
0220
0000
0000
0000
0000
0000
0330
0000
0000
0000
,  // measure 78
2000
0000
0000
0100
0000
0000
3100
0000
1000
0000
0100
0000
0010
0000
0100
0000
,  // measure 79
1000
0001
0010
0001
0100
0010
1000
0001
,  // measure 80
1001
0000
0000
0011
0000
0000
1010
0000
0000
0000
0110
0000
0000
0000
1001
0000
,  // measure 81
1000
0100
0010
0001
2000
0000
3001
0000
,  // measure 82
1001
0000
0010
0001
0000
0001
0100
0000
0010
0000
0100
0000
0001
0000
0010
0001
,  // measure 83
0010
0000
0010
0100
0000
0100
1000
0000
0010
0000
0010
0100
0000
0100
0001
0000
,  // measure 84
0010
0000
0010
0001
0000
0001
0100
0000
0010
0000
0100
0000
0001
0000
0010
0100
,  // measure 85
2000
0000
0000
3010
0000
0000
0011
0000
0000
0000
0001
0000
0010
0000
0100
0000
,  // measure 86
1000
0000
1000
0010
0000
0010
0100
0000
0001
0000
0010
0000
0001
0000
0100
0010
,  // measure 87
0100
0000
0100
0001
0000
0001
0010
0000
0100
0000
1000
0010
0000
0010
0100
0000
,  // measure 88
0110
0000
0000
1010
0000
0000
0012
0000
0000
0000
0010
0000
0000
0000
0013
0000
,  // measure 89
0011
0000
0000
1010
0000
0000
1001
0000
0000
0000
0000
0000
0000
0000
0000
0000
;

//---------------dance-single - ----------------
#NOTES:
     dance-single:
     :
     Medium:
     11:
     0.505981,0.694518,0.188136,0.548048,0.147237,343.000000,23.000000,67.000000,0.000000,0.000000,0.000000,0.505981,0.694518,0.188136,0.548048,0.147237,343.000000,23.000000,67.000000,0.000000,0.000000,0.000000:
0000
0000
0000
0000
,
0000
0000
0000
0000
,
0000
0000
0000
0000
,
0000
0000
0000
0000
,
0000
0000
0000
0000
,
0000
0000
0000
0000
,
1000
0000
0000
1000
0000
0000
1000
0000
0001
0000
0000
0001
0000
0000
0001
0000
,
0100
0000
0000
0100
0000
0000
0100
0000
0010
0000
0000
0010
0000
0000
0010
0000
,
1000
0100
0010
0001
,
2002
0000
0000
3003
,
0110
1000
0000
1000
0000
0001
0000
0001
,
0000
1000
0000
1000
0010
0000
0010
0000
,
1000
0100
0000
0100
0000
0010
0000
0010
,
0000
0001
0010
0001
0010
0000
0010
0000
,
1001
0100
0000
0100
0000
0010
0000
0010
,
0000
0100
0000
0100
0001
0000
0001
0000
,
2100
3010
0102
0013
,
1000
0000
0000
0001
0000
0000
1000
0000
0020
0000
0000
0000
0230
0000
0300
0000
,
0110
1000
0000
1000
0100
0010
0000
0010
,
0001
0100
0000
0100
0010
0000
0010
0000
,
1000
0001
0000
0001
0100
0010
0000
0010
,
1000
0100
1000
0100
0010
0000
0010
0000
,
0001
0100
0000
0100
0010
1000
0000
1000
,
0100
0010
0000
0010
0001
0000
0001
0000
,
1000
0100
2000
0000
3001
0100
0002
0000
,
2000
0000
0000
3003
,
2000
0000
3002
0000
,
2003
0000
3020
0000
,
2030
0000
3002
0000
,
1003
0100
0010
0001
,
2000
0000
3200
0000
,
0320
0000
0032
0000
,
0203
0000
0320
0000
,
0030
0000
0000
0000
,
2002
0000
0000
0003
,
0020
3000
0200
0030
,
0002
0000
0000
0303
,
0001
0000
0000
1000
0000
0000
2002
0000
0000
0000
0000
0000
3003
0000
0000
0000
,
2200
0000
0000
0300
,
0002
3000
0020
0033
,
0010
0000
0000
0100
0000
0000
0220
0000
0000
0000
0000
0000
0330
0000
0000
0000
,
1000
0000
0000
0001
0000
0000
2002
0000
0000
0000
0000
0000
3003
0000
0000
0000
,
1000
0100
0000
0100
0010
0001
0000
0001
,
0100
0010
0000
0010
0100
0000
0100
0010
,
1000
0001
0000
0001
1000
0010
0000
0010
,
0100
0001
0010
0001
0010
0000
0010
0001
,
1000
0100
1000
0100
0010
0100
0010
0100
,
1000
0001
1000
0001
0010
0001
0010
0001
,
1000
0100
1000
0010
0100
0010
0100
0000
,
0220
0000
0000
0330
,
1001
0000
0000
1000
0000
0000
0100
0000
0010
0000
0000
0000
0100
0000
0000
0000
,
1000
0000
0000
1000
0000
0000
0001
0000
0010
0000
0000
0010
0000
0000
0001
0000
,
0100
0000
0000
0100
0000
0000
0010
0000
1000
0000
0000
0000
0001
0000
0000
0000
,
1000
0000
0000
0010
0000
0000
0220
0000
0000
0000
0000
0000
0330
0000
0000
0000
,
0001
0000
0000
0001
0000
0000
0100
0000
0001
0000
0000
0000
0010
0000
0000
0000
,
0100
0000
0000
0100
0000
0000
1000
0000
0010
0000
0000
0010
0000
0000
0100
0000
,
0001
0000
0000
1000
0000
0000
1001
0000
0000
0000
0001
0000
0000
0000
1000
0000
,
0010
0000
0000
0100
0000
0000
0110
0000
0000
0000
0200
0000
0000
0000
0300
0000
,
2000
0000
0100
0000
3100
0000
0100
0020
,
0000
0000
0000
0032
0000
0000
1003
0000
,
2000
0000
0000
3020
0000
0000
0130
0000
,
0002
0000
0000
0023
0000
0000
0130
0000
,
2000
0000
0010
0000
3010
0000
0010
0200
,
0000
0000
0000
0302
0000
0000
1003
0000
,
0001
0000
0000
0010
0000
0000
0200
0000
0000
0000
0000
0000
0000
0000
0000
0000
,
0020
0000
0000
0330
,
1000
0000
0100
0000
1000
0000
0000
0000
0001
0000
0000
0100
0000
0000
0001
0000
,
0000
0000
1000
0000
0010
0000
0000
0000
0001
0000
0000
0010
0000
0000
0001
0000
,
0000
0000
1000
0000
0010
0000
1000
0000
0010
0000
0000
0100
0000
0000
0010
0000
,
0000
0000
0001
0000
1000
0000
0000
0000
0100
0000
0000
0100
0000
0000
0100
0000
,
1000
0100
1000
0000
0001
0100
0001
0000
,
1000
0010
1000
0000
0001
0010
0001
0000
,
1000
0100
1000
0100
0010
0001
0010
0001
,
2000
0000
0000
0000
,
3002
0000
0000
0000
,
0200
0003
0020
0330
,
1000
0000
0000
0001
0000
0000
2002
0000
0000
0000
0000
0000
3003
0000
0000
0000
,
0010
0000
0000
0100
0000
0000
0220
0000
0000
0000
0000
0000
0330
0000
0000
0000
,
2000
0000
0000
0000
,
0200
3000
0020
0330
,
0001
0000
0000
0010
0000
0000
0011
0000
0000
0000
1000
0000
0000
0000
0100
0000
,
0000
0010
0001
0010
0002
0000
1003
0000
,
1000
0000
0000
0010
0000
0000
1000
0000
0100
0000
0000
0000
0100
0000
0000
0000
,
1000
0000
0000
0010
0000
0000
0100
0000
0001
0000
0000
0010
0000
0000
0100
0000
,
1000
0000
0000
0001
0000
0000
1000
0000
0010
0000
0000
0000
0010
0000
1000
0000
,
0100
0000
0000
0010
0000
0000
0220
0000
0000
0000
0000
0000
0330
0000
0000
0000
,
0001
0000
0000
0010
0000
0000
0001
0000
1000
0000
0000
0000
1000
0000
0000
0000
,
0001
0000
0000
0100
0000
0000
0001
0000
1000
0000
0000
0100
0000
0000
1000
0000
,
0001
0000
0000
1000
0000
0000
1001
0000
0000
0000
0110
0000
0000
0000
0100
0000
,
0010
0000
0000
1000
0000
0000
1001
0000
0000
0000
0000
0000
0000
0000
0000
0000
;

//---------------dance-single - ----------------
#NOTES:
     dance-single:
     :
     Beginner:
     2:
     0.210338,0.328522,0.106338,0.139057,0.000000,150.000000,13.000000,17.000000,0.000000,0.000000,0.000000,0.210338,0.328522,0.106338,0.139057,0.000000,150.000000,13.000000,17.000000,0.000000,0.000000,0.000000:
0000
0000
0000
0000
,
0000
0000
0000
0000
,
0000
0000
0000
0000
,
0000
0000
0000
0000
,
0000
0000
0000
0000
,
0000
0000
0000
0000
,
1000
0000
1000
0000
,
0100
0000
0100
0000
,
0010
0010
0010
0010
,
0020
0000
0000
0030
,
0010
0000
0010
0000
,
0001
0000
0001
0000
,
1000
0000
1000
0000
,
2002
0000
0000
3003
,
0001
0000
0001
0000
,
0100
0000
0100
0000
,
0010
0000
0010
0000
,
1000
1000
2000
3000
,
1000
0000
0100
0000
,
0010
0000
0100
0000
,
1000
0000
0001
0000
,
0010
0010
0020
0030
,
0010
0000
0001
0000
,
1000
0000
0100
0000
,
0010
0000
0001
0000
,
2002
0000
0000
3003
,
2000
0000
3000
0000
,
0002
0000
0003
0000
,
2000
0000
3000
0000
,
0100
0000
0010
0000
,
0100
0000
0000
0000
,
0010
0000
0010
0000
,
0001
0000
0000
0000
,
0000
0000
0000
0000
,
1001
0000
0000
0000
,
0000
0000
0000
0000
,
0000
0000
0000
0000
,
0110
0000
0000
0000
,
1001
0000
0000
0000
,
0000
0000
0000
0000
,
0110
0000
0000
0000
,
0110
0000
0000
0000
,
1000
0000
1000
0000
,
0001
0000
0001
0000
,
1000
0000
1000
0000
,
0010
0000
0010
0000
,
1000
0000
1000
0000
,
0100
0000
0100
0000
,
0010
0010
0010
0010
,
0020
0000
0000
0030
,
0010
0000
0100
0000
,
0010
0000
1000
0000
,
0001
0000
1000
0000
,
0010
0010
0010
0000
,
0100
0000
0010
0000
,
1000
0000
0100
0000
,
0010
0010
0010
0000
,
0001
0001
0002
0003
,
0001
0000
1000
0000
,
0100
0000
0010
0000
,
0001
0000
1000
0000
,
0010
0000
0100
0000
,
0001
0000
0010
0000
,
1000
0000
0010
0000
,
2002
0000
0000
0000
,
0000
0000
0000
3003
,
1000
1000
1000
0000
,
0001
0001
0001
0000
,
0100
0100
0100
0000
,
0010
0010
0010
0000
,
1000
1000
1000
0000
,
0100
0100
0100
0000
,
0001
0001
0001
0001
,
0002
0000
0000
0000
,
0003
0000
0000
0000
,
0000
0000
0000
0000
,
1001
0000
0000
0000
,
0110
0000
0000
0000
,
1001
0000
0000
0000
,
0000
0000
0000
0000
,
1001
0000
0000
0000
,
0220
0000
0000
0330
,
0100
0000
0010
0000
,
0100
0000
1000
0000
,
0001
0000
0010
0000
,
0001
0001
0001
0000
,
1000
0000
0010
0000
,
1000
0000
0100
0000
,
0010
0010
0010
0000
,
0100
0100
0000
0000
;

//---------------dance-single - ----------------
#NOTES:
     dance-single:
     :
     Easy:
     6:
     0.355238,0.438643,0.114518,0.294474,0.000000,254.000000,14.000000,36.000000,0.000000,0.000000,0.000000,0.355238,0.438643,0.114518,0.294474,0.000000,254.000000,14.000000,36.000000,0.000000,0.000000,0.000000:
0000
0000
0000
0000
,
0000
0000
0000
0000
,
0000
0000
0000
0000
,
0000
0000
0000
0000
,
0000
0000
0000
0000
,
0000
0000
0000
0000
,
1000
1000
0001
0001
,
0100
0100
0010
0010
,
1000
0100
0010
0001
,
2000
0000
0000
3001
,
0010
0001
0100
0001
,
1000
0001
0010
0010
,
1000
0100
1000
0010
,
1000
0001
1000
1000
,
0100
0010
0100
0001
,
0100
1000
0100
0100
,
0101
0001
1100
1000
,
0010
0100
0020
1030
,
0001
0010
0100
0010
,
0001
1000
0001
0001
,
1000
0100
0010
0100
,
1000
0010
1000
1000
,
0001
0010
0001
0001
,
1000
0010
1000
1000
,
0001
0010
0100
1000
,
0002
0000
0000
0003
,
2000
0000
3002
0000
,
2003
0000
3020
0000
,
2030
0000
3002
0000
,
0203
0000
0320
0000
,
2030
0000
3002
0000
,
2003
0000
3200
0000
,
2300
0000
3002
0000
,
0003
0000
0000
0000
,
2001
0000
0000
0000
,
3020
0000
0230
0000
,
0302
0000
0000
0000
,
1003
0000
0000
1001
0000
0000
0000
0000
,
1002
0000
0000
0000
,
0203
0000
0320
0000
,
1030
0000
0000
1001
0000
0000
0000
0000
,
0001
0000
0000
1001
0000
0000
0000
0000
,
0100
0000
0000
0010
0000
0000
0000
0000
,
0100
0000
0000
0010
0000
0000
0000
0000
,
1000
0000
0000
0001
0000
0000
0000
0000
,
1000
0000
0000
0001
0000
0000
0000
0000
,
1000
0000
0000
0010
1000
0000
0000
0100
,
1000
0000
0000
0001
1000
0000
0000
0001
,
1000
0100
0010
0001
,
2000
0000
0000
3001
,
1001
0010
0001
0100
,
0010
1000
0100
0010
,
0001
1000
0010
1000
,
0001
0000
0000
1001
0000
0000
0000
0000
,
1000
0100
0010
0001
,
1000
0010
0100
0001
,
1000
0000
0000
0010
0000
0010
0000
0000
,
1000
0000
0000
0100
0000
0200
0000
0300
,
1000
0010
0100
0010
,
1000
0100
0010
0100
,
1000
0001
0010
0001
,
1000
0001
0100
0001
,
0010
0100
1000
0100
,
0010
0001
0100
0010
,
1000
0000
0000
2001
0000
0000
0000
0000
,
0020
0000
0000
3030
,
1000
1000
0001
1000
,
0010
0010
0100
0010
,
1000
1000
0100
1000
,
0001
0010
0001
0001
,
1000
1000
0010
1000
,
0100
0100
1000
0100
,
0010
0001
0100
0010
,
0200
0000
0000
0000
,
0302
0000
0000
0000
,
0203
0000
0020
0330
,
1000
0000
0000
1001
0000
0000
0000
0000
,
0001
0000
0000
1001
0000
0000
0000
0000
,
2000
0000
0000
0000
,
3200
0000
0020
0330
,
0001
0000
0000
0100
0000
0100
0000
0100
,
0001
0001
2000
3001
,
1000
0100
1000
0010
,
1000
0001
1000
0010
,
0100
0001
0100
0010
,
1000
0000
0000
1001
0000
0000
0000
0000
,
0001
0010
0100
1000
,
0001
0100
0010
1000
,
0001
0000
0000
1000
0000
1000
0000
1000
,
0001
0000
0000
1001
0000
0000
0000
0000
;
