#VERSION:0.82;
#TITLE:Listen;
#SUBTITLE:;
#ARTIST:Collective Soul;
#TITLETRANSLIT:;
#SUBTITLETRANSLIT:;
#ARTISTTRANSLIT:;
#GENRE:;
#ORIGIN:;
#CREDIT:;
#BANNER:Listen.png;
#BACKGROUND:Listen-bg.png;
#PREVIEWVID:;
#JACKET:Listen-jacket.png;
#CDIMAGE:;
#DISCIMAGE:;
#LYRICSPATH:;
#CDTITLE:;
#MUSIC:Listen.mp3;
#OFFSET:-0.300000;
#SAMPLESTART:53.619999;
#SAMPLELENGTH:15.000000;
#SELECTABLE:YES;
#BPMS:0.000=99.000;
#STOPS:;
#DELAYS:;
#WARPS:;
#TIMESIGNATURES:0.000=4=4;
#TICKCOUNTS:0.000=4;
#COMBOS:0.000=1;
#SPEEDS:0.000=1.000=0.000=0;
#SCROLLS:0.000=1.000;
#FAKES:;
#LABELS:0.000=Song Start;
#BGCHANGES:;
#KEYSOUNDS:;
#ATTACKS:
;

//---------------dance-single - ----------------
#NOTEDATA:;
#CHARTNAME:;
#STEPSTYPE:dance-single;
#DESCRIPTION:;
#CHARTSTYLE:;
#DIFFICULTY:Hard;
#METER:11;
#RADARVALUES:0.483095,0.478885,0.110512,0.412578,0.268912,388.000000,15.000000,56.000000,0.000000,0.000000,0.000000,0.000000,0.000000,0.483095,0.478885,0.110512,0.412578,0.268912,388.000000,15.000000,56.000000,0.000000,0.000000,0.000000,0.000000,0.000000;
#CREDIT:;
#NOTES:
// measure 0
0000
0000
0000
0000
,  // measure 1
0000
0000
0000
0000
,  // measure 2
1000
0000
0100
0000
1000
0000
0010
0200
0000
0000
0310
0000
1000
0100
0010
0000
,  // measure 3
0001
0000
0100
0000
0001
0000
0010
0200
0000
0000
0310
0000
0001
0100
0010
0000
,  // measure 4
1000
0000
0001
0000
1000
0000
0010
0200
0000
0000
0301
0000
0010
0100
1000
0000
,  // measure 5
0001
0000
1000
0000
0001
0000
0010
0200
0000
0000
0310
0000
1000
0010
0100
0000
,  // measure 6
0002
0000
2000
0000
0000
0000
0000
0000
0000
0000
0000
0000
3003
0001
1000
0000
,  // measure 7
0010
0000
0010
0000
1000
0000
0000
1000
0000
0000
0100
0000
0020
0000
0000
0000
,  // measure 8
0031
0000
0010
0000
0001
0000
0100
0020
0000
0000
1030
0000
0100
0000
0010
0000
,  // measure 9
0001
0000
1000
0000
0010
0000
0000
0010
0000
0000
0100
0000
0110
0000
0010
0000
,  // measure 10
2000
0000
0002
0000
0000
0000
0000
0000
0000
0000
0000
0000
3003
1000
0001
0000
,  // measure 11
0100
0000
0100
0000
0001
0000
0000
0001
0000
0000
0010
0000
0200
0000
0000
0000
,  // measure 12
1300
0000
0100
0000
0010
0000
0100
2000
0000
0000
3010
0000
0100
0000
0001
0000
,  // measure 13
0010
0000
0001
0000
0100
0000
0000
0100
0000
0000
0010
0000
0100
0010
0100
0000
,  // measure 14
2001
0000
0000
0000
3010
0000
0000
0010
1000
0000
1000
0000
0001
0000
0001
0000
,  // measure 15
0020
0000
0032
0000
0203
0000
0000
0301
0100
0000
0100
0000
0010
0000
0010
0000
,  // measure 16
2000
0000
3001
1000
0010
0010
0100
0100
,  // measure 17
0002
0000
0023
0000
0230
0000
1300
1000
,  // measure 18
0020
0000
0230
0000
0302
0000
0003
0001
0100
0000
0100
0000
0010
0000
0010
0000
,  // measure 19
2000
0000
3200
0000
0320
0000
0030
0010
0001
0000
0001
0000
1000
0000
1000
0000
,  // measure 20
0020
0000
0130
0010
1000
1000
0001
0002
,  // measure 21
0010
0000
0000
0000
0103
0000
0000
0000
0010
0100
1000
0000
0010
0100
0001
0000
,  // measure 22
2001
0000
0000
0000
3010
0000
0000
0010
1000
0000
0100
0000
0010
0000
0002
0000
,  // measure 23
1000
0000
1003
0001
1000
0010
0100
0001
,  // measure 24
1002
0000
0000
0000
0013
0000
0000
0010
0001
0000
0100
0000
0010
0000
2000
0000
,  // measure 25
0100
0000
3010
0100
0010
1000
0000
0000
,  // measure 26
2001
0000
0000
0000
3100
0000
0000
0100
0010
0000
0001
0000
0100
0000
0020
0000
,  // measure 27
1000
0000
0130
0001
0100
0010
1000
2000
,  // measure 28
0010
0000
3001
0002
0100
0000
1003
0001
,  // measure 29
1000
0100
2000
0000
0100
0000
3000
0100
0000
0100
1000
0000
0010
0000
0000
0000
,  // measure 30
0001
0100
0002
0000
0100
0000
0003
0100
0000
0100
0001
0000
0020
0000
0000
0000
,  // measure 31
0031
0010
0002
0000
0010
0003
0000
0010
0000
0010
0001
0000
0100
0000
0000
0000
,  // measure 32
1000
0010
2000
0000
0010
0000
3000
0010
0000
0010
1000
0000
1000
0001
1000
0001
,  // measure 33
0010
0000
0010
0000
0001
0000
0001
0100
0000
0100
0001
0000
0010
0001
0010
0000
,  // measure 34
0100
0000
0100
0000
1000
0000
1000
0010
0000
0010
1000
0000
0100
1000
0100
0000
,  // measure 35
0010
0000
0010
0000
0001
0000
0001
0100
0000
0100
0010
0000
1000
0000
1000
0010
,  // measure 36
0000
0010
1000
0000
1000
0100
0000
0100
2000
0000
3200
0000
0320
0000
0032
0000
,  // measure 37
1003
0000
0100
0000
1000
0000
0010
0100
0000
0100
0010
0000
1000
0100
1000
0000
,  // measure 38
0001
0000
0100
0000
0001
0000
0010
0100
0000
0100
0010
0000
0001
0100
0001
0000
,  // measure 39
1000
0100
1000
0100
0010
0001
0010
0001
,  // measure 40
2000
3100
0100
0002
0103
0100
2000
3100
,  // measure 41
2100
0000
0000
0000
3001
0000
0000
0001
1000
0000
0010
0000
1000
0000
0200
0000
,  // measure 42
0010
0000
1300
0010
0100
0001
0010
0100
,  // measure 43
0210
0000
0000
0000
1300
0000
0000
1000
0001
0000
0010
0000
0001
0000
0200
0000
,  // measure 44
0010
0000
0301
0010
0100
1000
0000
0000
,  // measure 45
2001
0000
0000
0000
3010
0000
0000
1000
0001
0000
0010
0000
0001
0000
2000
0000
,  // measure 46
0010
0000
3100
0010
0001
0100
0010
1000
,  // measure 47
2100
0000
3010
1000
0102
0000
0013
0001
,  // measure 48
1001
0000
1000
0000
0100
0000
1000
0010
0000
0010
1000
0000
0100
0010
0001
0000
,  // measure 49
1001
0000
1000
0000
0010
0000
1000
0100
0000
0100
1000
0000
0010
0100
0001
0000
,  // measure 50
0101
0000
0100
0000
0010
0000
0100
0001
0000
0001
0010
0000
0100
1000
0100
0000
,  // measure 51
1100
0000
1000
0000
0010
0000
0010
0100
0000
0100
0001
0000
0010
0100
1000
0000
,  // measure 52
1001
0000
0000
0000
;

//---------------dance-single - ----------------
#NOTEDATA:;
#CHARTNAME:;
#STEPSTYPE:dance-single;
#DESCRIPTION:;
#CHARTSTYLE:;
#DIFFICULTY:Beginner;
#METER:1;
#RADARVALUES:0.134719,0.172399,0.103144,0.073675,0.000000,104.000000,14.000000,10.000000,0.000000,0.000000,0.000000,0.000000,0.000000,0.134719,0.172399,0.103144,0.073675,0.000000,104.000000,14.000000,10.000000,0.000000,0.000000,0.000000,0.000000,0.000000;
#CREDIT:;
#NOTES:
0000
0000
0000
0000
,
0000
0000
0000
0000
,
1000
0000
1000
0000
,
0001
0000
0001
0000
,
0100
0000
0100
0000
,
0010
0000
0010
0000
,
2000
0000
0000
3000
,
1000
0000
0000
0000
,
0001
0000
0010
0000
,
0001
0000
0100
0000
,
0002
0000
0000
0003
,
0001
0000
0000
0000
,
1000
0000
0010
0000
,
1000
0000
0100
0000
,
1000
0000
1000
0000
,
0001
0000
0001
0000
,
0010
0000
0010
0000
,
0100
0000
0100
0000
,
1000
0000
1000
0000
,
0001
0000
0001
0000
,
0100
0000
0100
0000
,
0010
0000
0010
0000
,
1001
0000
0010
0000
,
0100
0100
0100
0000
,
1001
0000
0100
0000
,
0010
0010
0010
0000
,
0110
0000
1000
0000
,
0001
0001
0001
0000
,
0110
0000
0001
0000
,
1000
0000
0100
0000
,
0010
0000
0001
0000
,
1000
0000
0010
0000
,
0100
0000
0001
0000
,
2000
3000
1000
0000
,
0002
0003
0001
0000
,
0200
0300
0100
0000
,
0020
0030
0010
0010
,
0020
0030
0010
0000
,
0200
0300
0100
0000
,
2000
3000
1000
0000
,
0002
0003
0001
0000
,
1001
0000
0100
0000
,
0010
0010
0010
0000
,
1001
0000
0010
0000
,
0100
0100
0100
0000
,
0110
0000
1000
0000
,
0001
0001
0001
0000
,
0110
0000
0110
0000
,
1001
0000
1000
0000
,
0110
0000
0010
0000
,
1001
0000
0001
0000
,
0110
0000
0100
0000
,
1001
0000
0000
0000
;

//---------------dance-single - ----------------
#NOTEDATA:;
#CHARTNAME:;
#STEPSTYPE:dance-single;
#DESCRIPTION:;
#CHARTSTYLE:;
#DIFFICULTY:Easy;
#METER:3;
#RADARVALUES:0.232601,0.249020,0.132614,0.110512,0.000000,188.000000,18.000000,15.000000,0.000000,0.000000,0.000000,0.000000,0.000000,0.232601,0.249020,0.132614,0.110512,0.000000,188.000000,18.000000,15.000000,0.000000,0.000000,0.000000,0.000000,0.000000;
#CREDIT:;
#NOTES:
0000
0000
0000
0000
,
0000
0000
0000
0000
,
1000
0100
1000
1000
,
0001
0100
0001
0001
,
1000
0010
1000
1000
,
0001
0010
0001
0001
,
2002
0000
0000
0000
0000
0000
3003
0001
,
1000
0000
0000
0000
,
0001
0010
0100
1000
,
0001
0001
0010
0001
,
2002
0000
0000
0000
0000
0000
3003
1000
,
0001
0000
0000
0000
,
1000
0010
0100
0001
,
1000
1000
0010
1000
,
0002
0013
0001
0010
,
2000
3010
1000
0010
,
0002
0103
0001
0100
,
2000
3100
1000
0100
,
0020
0031
0010
0001
,
2000
3010
1000
0010
,
0200
0301
0100
0001
,
2000
3100
1000
0100
,
1001
1000
0010
0010
,
0100
0001
0100
0001
,
1001
1000
0100
0100
,
0010
0001
0010
0000
,
0110
0001
0100
0100
,
1000
0010
1000
0010
,
1010
0100
0101
0001
,
1001
0100
1000
1000
,
0001
0100
0001
0001
,
1000
0010
1000
1000
,
0001
0010
0001
0001
,
1000
0100
1000
0010
,
0001
0010
0001
0100
,
1000
0100
0010
0001
,
0010
0001
0200
0310
,
1000
0001
1000
0010
,
0001
1000
0001
0010
,
0001
0010
0100
1000
,
0020
0000
0030
0200
0000
0300
0010
0000
,
1001
1000
0100
0100
,
0010
0001
0010
0001
,
1001
1000
0010
0010
,
0100
0001
0100
0000
,
1100
1000
0010
1000
,
0001
0010
0001
0010
,
0011
0100
1100
0010
,
0110
1000
0100
0100
,
0110
0001
0010
0010
,
1001
0100
1000
1000
,
1001
0010
0001
0001
,
1001
0000
0000
0000
;

//---------------dance-single - ----------------
#NOTEDATA:;
#CHARTNAME:;
#STEPSTYPE:dance-single;
#DESCRIPTION:;
#CHARTSTYLE:;
#DIFFICULTY:Medium;
#METER:7;
#RADARVALUES:0.357848,0.363952,0.058940,0.412578,0.066307,276.000000,8.000000,56.000000,0.000000,0.000000,0.000000,0.000000,0.000000,0.357848,0.363952,0.058940,0.412578,0.066307,276.000000,8.000000,56.000000,0.000000,0.000000,0.000000,0.000000,0.000000;
#CREDIT:;
#NOTES:
0000
0000
0000
0000
,
0000
0000
0000
0000
,
1000
0000
0100
0000
1000
0000
0000
2000
0000
0000
3100
0000
1000
0000
0000
0000
,
0001
0000
0200
0300
0001
0000
0000
0002
0000
0000
0103
0000
0001
0000
0000
0000
,
1000
0000
0010
0000
1000
0000
0000
2000
0000
0000
3010
0000
1000
0000
0000
0000
,
0001
0000
0010
0000
0001
0000
0000
0002
0000
0000
0013
0000
0001
0000
0000
0000
,
2000
0000
0002
0000
0000
0000
0000
0000
0000
0000
0000
0000
3003
1000
0001
0000
,
0100
0100
0010
0000
0000
1000
0010
0000
,
0001
0010
0001
0000
1000
0010
1000
0000
,
0001
0000
0100
0000
0001
0000
0000
0002
0000
0000
0103
0000
0001
0000
0000
0000
,
0200
0000
0020
0000
0000
0000
0000
0000
0000
0000
0000
0000
0330
0100
0010
0000
,
1000
1000
0001
0000
0000
0100
0001
0000
,
1000
0100
1000
0000
0001
0100
0001
0000
,
1000
0000
0010
0000
1000
0000
0000
2000
0000
0000
3010
0000
1000
0000
0000
0000
,
0002
0000
0013
0000
0001
0100
0001
0100
,
0020
0000
1030
0000
0100
1000
0100
1000
,
0020
0000
0130
0000
0001
0010
0001
0010
,
0002
0023
0230
2300
,
3001
0100
0020
0000
1000
0000
0130
0000
,
1000
0100
0020
0000
0001
0000
0130
0000
,
0001
0010
0001
0000
1000
0010
1000
0020
,
0000
0000
0130
0000
0001
1000
0001
1000
,
2001
0000
3100
0000
0001
0010
0100
2000
,
0000
0000
3100
2000
0000
3020
0000
0030
,
0210
0000
0301
0000
1000
0010
0100
0002
,
0000
0000
0013
0200
0000
0310
0000
0000
,
2001
0000
3010
0000
0001
0100
0001
0020
,
0000
0000
0031
0200
0000
0310
1000
0020
,
0000
0000
0130
0002
0000
0000
1003
0001
,
1001
0000
1000
0000
0100
0000
0000
0200
0000
0000
1300
0000
0100
0000
0000
0000
,
0010
0000
0001
0000
0010
0000
0000
0020
0000
0000
0031
0000
0010
0000
0000
0000
,
0100
0000
0001
0000
0100
0000
0000
0200
0000
0000
0301
0000
0100
0000
0000
0000
,
0010
0000
1000
0000
0010
0000
0000
0020
0000
0000
1030
0000
0010
0000
0000
0000
,
1000
0100
1000
0000
0001
0100
0001
0000
,
1000
0010
1000
0000
0001
0010
0001
0000
,
1000
0000
0100
0000
0010
0000
0000
0000
0001
0000
0100
0000
0010
0000
0000
0100
,
0000
0000
0010
0000
0000
0100
0000
0000
0001
0000
0010
0000
0100
0000
1000
0000
,
0001
0100
0001
0000
1000
0100
1000
0000
,
0001
0010
0001
0000
1000
0010
1000
0000
,
0001
0100
0001
0100
0010
1000
0010
1000
,
0002
0000
0013
0002
0000
0103
0002
0003
,
2001
0000
3010
0000
0001
0100
0001
0020
,
0000
0000
0031
0200
0000
0320
0000
0030
,
2001
0000
3100
0000
1000
0010
1000
0200
,
0000
0000
0310
0002
0000
0013
0000
0000
,
0102
0000
0013
0000
0001
0010
0100
2000
,
0000
0000
3001
0200
0000
0310
1000
0002
,
0000
0000
0013
0200
0000
0000
1300
0001
,
1000
0000
0010
0000
1000
0000
0000
2000
0000
0000
3010
0000
1000
0000
0000
0000
,
0001
0000
0010
0000
0001
0000
0000
0002
0000
0000
0013
0000
0001
0000
0000
0000
,
1000
0000
0100
0000
1000
0000
0000
2000
0000
0000
3100
0000
1000
0000
0000
0000
,
0001
0000
0100
0000
0001
0000
0000
0002
0000
0000
0103
0000
0001
0000
1000
0000
,
1001
0000
0000
0000
;
