#VERSION:0.82;
#TITLE:La Danse Macabre;
#SUBTITLE:;
#ARTIST:Jake Kaufman;
#TITLETRANSLIT:;
#SUBTITLETRANSLIT:;
#ARTISTTRANSLIT:;
#GENRE:;
#ORIGIN:;
#CREDIT:;
#BANNER:La Danse Macabre.png;
#BACKGROUND:La Danse Macabre-bg.png;
#PREVIEWVID:;
#JACKET:La Danse Macabre-jacket.png;
#CDIMAGE:;
#DISCIMAGE:;
#LYRICSPATH:;
#CDTITLE:;
#MUSIC:La Danse Macabre.mp3;
#OFFSET:-0.100000;
#SAMPLESTART:9.656081;
#SAMPLELENGTH:15.000004;
#SELECTABLE:YES;
#BPMS:0.000=225.000,
31.000=112.500,
64.000=225.000,
128.000=112.500,
160.000=225.000,
224.000=112.500,
256.000=225.000,
320.000=112.500;
#STOPS:31.000=0.800;
#DELAYS:;
#WARPS:;
#TIMESIGNATURES:0.000=4=4;
#TICKCOUNTS:0.000=4;
#COMBOS:0.000=1;
#SPEEDS:0.000=1.000=0.000=0;
#SCROLLS:0.000=1.000;
#FAKES:;
#LABELS:0.000=Song Start;
#BGCHANGES:;
#KEYSOUNDS:;
#ATTACKS:
;

//---------------dance-single - ----------------
#NOTEDATA:;
#CHARTNAME:;
#STEPSTYPE:dance-single;
#DESCRIPTION:;
#CHARTSTYLE:;
#DIFFICULTY:Hard;
#METER:13;
#RADARVALUES:0.651072,0.948775,0.076241,0.618398,0.241429,456.000000,9.000000,73.000000,0.000000,0.000000,0.000000,0.000000,0.000000,0.651072,0.948775,0.076241,0.618398,0.241429,456.000000,9.000000,73.000000,0.000000,0.000000,0.000000,0.000000,0.000000;
#CREDIT:;
#NOTES:
// measure 0
0000
0000
0000
0000
,  // measure 1
0000
0000
0000
0000
,  // measure 2
0000
0000
0000
0000
,  // measure 3
0000
0000
0000
0000
,  // measure 4
0000
0000
0000
0000
,  // measure 5
0000
0000
0000
0000
,  // measure 6
0000
0000
0000
0000
,  // measure 7
0000
0000
0000
0000
,  // measure 8
2000
0000
0000
0000
3010
0000
0100
0000
0001
0000
0000
0001
1000
0000
0010
0000
,  // measure 9
1000
0000
0100
1000
0010
0000
0000
0010
0100
0000
0100
0000
0010
0000
0100
0000
,  // measure 10
0002
0000
0000
0000
0013
0000
0100
0000
1000
0000
0000
1000
0010
0000
0100
0000
,  // measure 11
0001
0000
0010
0001
0100
0000
0000
0100
0010
0000
0010
0000
0100
0000
0010
0000
,  // measure 12
2000
0000
0000
0000
3001
0000
0010
0000
0001
0000
0000
0001
1000
0000
0100
0000
,  // measure 13
0010
0000
0001
0010
0001
0000
0000
1000
0010
0000
1000
0000
0001
0000
1000
0000
,  // measure 14
0002
0000
0000
0000
1003
0000
0100
0000
1000
0000
0000
1000
0001
0000
0100
0000
,  // measure 15
0020
0000
0000
0000
1000
0000
0000
0000
0100
0000
1030
0010
1000
0001
0010
0100
,  // measure 16
1000
0000
0001
0100
0000
0010
0000
2000
,  // measure 17
0000
3100
0000
0100
0000
1000
0010
2000
,  // measure 18
0000
3001
0000
0022
0000
0033
0010
0002
,  // measure 19
0000
1003
0000
2020
0000
3030
1000
0010
,  // measure 20
0100
0000
0001
0010
0000
0001
0000
2000
,  // measure 21
0000
3100
0000
1000
0000
0010
0100
0001
,  // measure 22
0010
0000
0001
0000
0100
0010
1000
0010
,  // measure 23
0100
0000
0001
0010
0000
0001
1000
0010
,  // measure 24
1000
0000
0100
1000
0000
0010
0000
0200
,  // measure 25
0000
0301
0000
0010
0000
0001
0100
0020
,  // measure 26
0000
1030
0000
0202
0000
0303
0100
0002
,  // measure 27
0000
0013
0000
1100
0000
1000
0100
0010
,  // measure 28
0001
0000
0100
0001
0000
0001
0100
0000
,  // measure 29
0010
0000
1000
0010
0000
0010
0100
0000
,  // measure 30
0001
0000
0010
0000
0001
0100
0010
0000
,  // measure 31
1000
0100
1000
0010
0100
0001
0010
0100
,  // measure 32
2000
0000
0000
0000
3020
0000
0130
0010
2000
0000
3002
0000
0203
0000
0320
0000
,  // measure 33
2030
0000
0000
0000
0010
0000
0000
0000
3100
0010
0100
1000
0001
0000
1000
0000
,  // measure 34
0020
0000
0000
0000
0230
0000
0000
0000
0320
0000
2030
0000
3001
0010
0100
0010
,  // measure 35
0001
0000
2000
0000
3010
1000
0010
0000
0200
0000
0302
0000
2003
0000
3020
0000
,  // measure 36
0230
0000
0000
0000
0310
0000
1000
0000
0100
0000
0000
0010
0100
0000
1000
0000
,  // measure 37
0001
0000
0010
0001
0100
0000
0000
0001
1000
0000
0000
1000
0100
0000
1000
0000
,  // measure 38
0002
0000
0000
0000
0013
0000
0001
0000
0100
0000
0000
0001
0010
0000
0001
0000
,  // measure 39
2000
0000
3200
0000
0320
0000
0032
0000
1003
0010
0100
0010
1000
0100
0010
0001
,  // measure 40
1000
0000
0001
0100
0000
0001
0000
0020
,  // measure 41
0000
0130
0000
0010
0000
0100
1000
0002
,  // measure 42
0000
1003
0000
2002
0000
3003
1000
0020
,  // measure 43
0000
0130
0000
0220
0000
0330
1000
0100
,  // measure 44
0010
0000
0001
0100
0000
0001
0000
2000
,  // measure 45
0000
3010
0000
1000
0000
0100
0010
0100
,  // measure 46
1000
0000
0001
0000
1000
0010
0100
0000
,  // measure 47
0001
0000
0010
0001
0000
0100
0010
0100
,  // measure 48
0001
0000
0010
0001
0000
1000
0000
0020
,  // measure 49
0000
0130
0000
0010
0000
1000
0100
0020
,  // measure 50
0000
0031
0000
0022
0000
0033
0001
2000
,  // measure 51
0000
3010
0000
1010
0000
1000
0010
0100
,  // measure 52
0010
0000
1000
0010
0000
1000
0010
0000
,  // measure 53
1000
0000
0010
0100
0000
0001
0010
0000
,  // measure 54
0001
1000
0010
0000
1000
0001
0010
0000
,  // measure 55
0200
0000
0000
0000
,  // measure 56
0310
0000
0002
0000
1003
0000
0010
1000
0000
0100
0000
0010
0001
0000
1000
0000
,  // measure 57
0010
0000
2000
0000
3001
0000
0100
0002
0000
0000
0103
0000
0010
0000
1000
0010
,  // measure 58
1000
0000
0100
1000
0000
0001
0000
0010
0001
0100
0000
0010
0000
1000
0000
0002
,  // measure 59
1000
0000
0000
0000
0100
0000
0000
0000
1003
0001
0000
1000
0001
1000
0100
0010
,  // measure 60
0001
0000
2000
0000
3010
0000
0100
0010
0000
2000
0000
0000
3100
1000
0010
0100
,  // measure 61
0001
0000
0020
0000
0031
0000
0100
0010
0000
0200
0000
0000
0301
0000
1000
0001
,  // measure 62
0010
0000
0001
0010
0000
0001
0100
0000
0010
0000
1000
0000
0100
0000
1000
0000
,  // measure 63
0020
0000
0000
0000
0130
0000
0000
0000
0100
0001
0100
0010
1000
0100
0010
0100
,  // measure 64
1000
0000
0002
0000
1003
0100
0010
0001
,  // measure 65
1000
0000
0010
0000
1000
0100
1000
0000
,  // measure 66
0001
0000
2000
0000
3001
0100
0010
1000
,  // measure 67
0001
0000
0010
0000
0001
0100
0001
1000
,  // measure 68
0100
0000
0020
0000
0031
0100
0010
0100
,  // measure 69
0000
0001
1000
0000
0100
1000
0010
1000
,  // measure 70
0002
0010
0203
0010
,  // measure 71
0301
1000
0001
0100
0001
0010
0100
1000
,  // measure 72
0010
0000
2000
0000
3100
1000
0100
0010
,  // measure 73
0000
0010
0001
0000
1000
0010
1000
0000
,  // measure 74
0001
0000
0200
0000
0310
0100
0001
0010
,  // measure 75
0000
0010
0100
0000
1000
0010
1000
0000
,  // measure 76
0001
0000
2000
0000
3010
0100
0001
0100
,  // measure 77
0000
0100
0010
0000
1000
0100
0010
0001
,  // measure 78
1000
0100
1000
0100
0010
0001
0010
0001
,  // measure 79
0200
0000
0320
0030
,  // measure 80
0110
0000
0000
0000
;

//---------------dance-single - ----------------
#NOTEDATA:;
#CHARTNAME:;
#STEPSTYPE:dance-single;
#DESCRIPTION:;
#CHARTSTYLE:;
#DIFFICULTY:Beginner;
#METER:3;
#RADARVALUES:0.181526,0.271078,0.076241,0.127068,0.000000,126.000000,9.000000,15.000000,0.000000,0.000000,0.000000,0.000000,0.000000,0.181526,0.271078,0.076241,0.127068,0.000000,126.000000,9.000000,15.000000,0.000000,0.000000,0.000000,0.000000,0.000000;
#CREDIT:;
#NOTES:
0000
0000
0000
0000
,
0000
0000
0000
0000
,
0000
0000
0000
0000
,
0000
0000
0000
0000
,
0000
0000
0000
0000
,
0000
0000
0000
0000
,
0000
0000
0000
0000
,
0000
0000
0000
0000
,
1000
0000
1000
0000
,
2000
0000
3000
0000
,
0001
0000
0001
0000
,
0002
0000
0003
0000
,
0100
0000
0100
0000
,
0200
0000
0300
0000
,
0010
0000
0010
0000
,
0020
0000
0000
0030
,
0010
0000
0000
0000
,
0100
0000
0000
0000
,
1001
0000
0000
0000
,
1001
0000
0000
0000
,
0100
0000
0000
0000
,
0010
0000
0000
0000
,
2000
0000
3000
0000
,
0002
0000
0003
0000
,
0100
0000
0000
0000
,
0010
0000
0000
0000
,
0110
0000
0000
0000
,
0110
0000
0000
0000
,
1000
0000
0000
0000
,
0001
0000
0000
0000
,
0200
0000
0300
0000
,
0020
0000
0030
0000
,
1000
1000
1000
0000
,
0001
0001
0001
0000
,
0100
0100
0100
0000
,
0010
0010
0010
0000
,
0100
0100
0100
0000
,
0010
0010
0010
0000
,
1000
1000
1000
0000
,
0002
0000
0000
0003
,
0001
0000
0001
0000
,
1000
0000
1000
0000
,
1001
0000
0000
0000
,
1001
0000
0000
0000
,
1000
0000
1000
0000
,
0001
0000
0001
0000
,
2000
0000
3000
0000
,
0002
0000
0003
0000
,
0100
0000
0100
0000
,
0010
0000
0010
0000
,
0110
0000
0000
0000
,
0110
0000
0000
0000
,
0100
0000
0100
0000
,
0010
0000
0010
0000
,
0200
0000
0300
0000
,
0020
0000
0000
0030
,
0010
0010
0010
0000
,
0100
0100
0100
0000
,
1000
1000
1000
0000
,
0001
0001
0001
0000
,
0100
0100
0100
0000
,
0010
0010
0010
0000
,
0100
0100
0100
0000
,
0002
0003
0001
0001
,
0001
0000
0001
0000
,
0100
0000
0000
0000
,
1000
0000
1000
0000
,
0010
0000
0000
0000
,
0100
0000
0100
0000
,
0001
0000
0001
0000
,
1000
0000
1000
0000
,
2000
0000
0000
3000
,
1000
0000
1000
0000
,
0100
0000
0000
0000
,
0001
0000
0001
0000
,
0010
0000
0000
0000
,
0100
0000
0100
0000
,
0010
0000
0010
0000
,
1000
0000
1000
0000
,
0001
0000
0001
0000
,
1001
0000
0000
0000
;

//---------------dance-single - ----------------
#NOTEDATA:;
#CHARTNAME:;
#STEPSTYPE:dance-single;
#DESCRIPTION:;
#CHARTSTYLE:;
#DIFFICULTY:Easy;
#METER:6;
#RADARVALUES:0.297702,0.474387,0.076241,0.220251,0.000000,211.000000,9.000000,26.000000,0.000000,0.000000,0.000000,0.000000,0.000000,0.297702,0.474387,0.076241,0.220251,0.000000,211.000000,9.000000,26.000000,0.000000,0.000000,0.000000,0.000000,0.000000;
#CREDIT:;
#NOTES:
0000
0000
0000
0000
,
0000
0000
0000
0000
,
0000
0000
0000
0000
,
0000
0000
0000
0000
,
0000
0000
0000
0000
,
0000
0000
0000
0000
,
0000
0000
0000
0000
,
0000
0000
0000
0000
,
1000
0100
1000
0100
,
0010
0001
0010
0001
,
0100
0010
0100
0010
,
1000
0001
1000
0001
,
1000
0010
1000
0010
,
0100
0001
0100
0001
,
0010
0001
0010
0001
,
0200
0000
0000
0300
,
0100
0000
0010
0000
,
1000
0000
0100
0000
,
0010
0000
0000
0110
0000
0000
0000
0000
,
0100
0000
0000
0110
0000
0000
0000
0000
,
1000
0000
0100
0000
,
0010
0000
0001
0000
,
1000
0000
0010
0000
,
0100
0001
0100
0001
,
0100
0000
0010
0000
,
1000
0000
0010
0000
,
1000
0000
0000
1001
0000
0000
0000
0000
,
0001
0000
0000
1001
0000
0000
0000
0000
,
1000
0000
0100
0000
,
0010
0000
0001
0000
,
0100
0000
0010
0000
,
0100
0010
0100
0010
,
2000
3100
0002
0103
,
2000
3010
0002
0013
,
2000
3100
0020
0031
,
2000
3010
0200
0301
,
1000
0100
0010
0100
,
1000
0010
0100
0010
,
1000
0001
0010
0001
,
1000
0100
0010
0001
,
1000
0000
0100
0000
,
1000
0100
1000
0000
,
0001
0000
0000
1001
0000
0000
0000
0000
,
1000
0000
0000
1001
0000
0000
0000
0000
,
0001
0000
0100
0000
,
0001
0100
0001
0000
,
1000
0000
0010
0000
,
0100
0010
0100
0010
,
0100
0000
0001
0000
,
0100
0001
0100
0000
,
0010
0000
0000
0110
0000
0000
0000
0000
,
0100
0000
0000
0110
0000
0000
0000
0000
,
1000
0000
0010
0000
,
0100
0000
0010
0000
,
2000
0000
0000
0000
,
0002
0000
0000
3003
,
1000
0010
0100
0001
,
1000
0100
0010
0001
,
1000
0010
0100
0010
,
2000
0100
0010
3100
,
0001
0100
0010
0100
,
0001
0010
0100
0010
,
0001
1000
0010
1000
,
0002
0000
0010
0000
0103
0001
0100
0001
,
0100
0010
0100
0010
,
0200
0000
0310
0000
,
1000
0001
1000
0001
,
2000
0000
3001
0000
,
1000
0100
1000
0100
,
2000
0000
3100
0000
,
0002
0000
0203
0000
,
0320
0000
2030
0000
,
3001
0010
0001
0010
,
0002
0000
0013
0000
,
1000
0010
1000
0010
,
2000
0000
3010
0000
,
0100
0010
0100
0010
,
0200
0000
0310
0000
,
2000
0000
3200
0000
,
0320
0000
0031
0000
,
1001
0000
0000
0000
;

//---------------dance-single - ----------------
#NOTEDATA:;
#CHARTNAME:;
#STEPSTYPE:dance-single;
#DESCRIPTION:;
#CHARTSTYLE:;
#DIFFICULTY:Medium;
#METER:9;
#RADARVALUES:0.386045,0.542157,0.076241,0.228722,0.059298,283.000000,9.000000,27.000000,0.000000,0.000000,0.000000,0.000000,0.000000,0.386045,0.542157,0.076241,0.228722,0.059298,283.000000,9.000000,27.000000,0.000000,0.000000,0.000000,0.000000,0.000000;
#CREDIT:;
#NOTES:
0000
0000
0000
0000
,
0000
0000
0000
0000
,
0000
0000
0000
0000
,
0000
0000
0000
0000
,
0000
0000
0000
0000
,
0000
0000
0000
0000
,
0000
0000
0000
0000
,
0000
0000
0000
0000
,
1000
0000
0000
0000
0100
0000
1000
0000
0100
0000
0000
0100
0000
0000
0010
0000
,
0001
0000
0000
0002
0000
0000
0000
0000
0010
0000
0000
0000
0013
0000
0000
0000
,
0001
0000
0000
0000
0010
0000
0001
0000
0010
0000
0000
0010
0000
0000
0100
0000
,
1000
0000
0000
2000
0000
0000
0000
0000
0010
0000
0000
0000
3010
0000
0000
0000
,
1000
0000
0000
0000
0001
0000
0010
0000
0001
0000
0000
0001
0000
0000
0100
0000
,
0010
0000
0000
0020
0000
0000
0000
0000
0100
0000
0000
0000
0130
0000
0000
0000
,
0001
0000
0000
0000
1000
0000
0010
0000
1000
0000
0000
1000
0000
0000
0100
0000
,
0020
0001
0100
0031
,
1000
0100
1000
0010
,
0100
0000
0001
0000
0010
0000
0000
1000
,
0000
0001
0000
1001
0000
0000
0000
0100
,
0000
0010
0000
0110
0000
0000
0100
0000
,
0001
0010
0100
0010
,
0001
1000
0010
1000
,
0002
0000
0100
0000
,
0010
0000
0103
0000
,
0001
0100
0010
0100
,
0001
0000
1000
0000
0010
0000
0000
0100
,
0000
0010
0000
0110
0000
0000
0000
1000
,
0000
0001
0000
1001
0000
0000
1000
0000
,
0001
0010
0002
0000
,
1003
0100
0010
0001
,
2000
0000
0010
0000
,
0100
0000
0010
3000
,
0001
0000
0000
0000
0100
0000
0010
0000
0100
0000
0000
0100
0000
0000
0010
0000
,
1000
0000
0000
2000
0000
0000
0000
0000
0001
0000
0000
0000
3001
0000
0000
0000
,
1000
0000
0000
0000
0100
0000
0010
0000
0100
0000
0000
0100
0000
0000
0010
0000
,
0001
0000
0000
0002
0000
0000
0000
0000
1000
0000
0000
0000
1003
0000
0000
0000
,
0001
0000
0000
0000
0100
0000
0001
0000
0100
0000
0000
0100
0000
0000
0010
0000
,
1000
0000
0000
2000
0000
0000
0000
0000
0010
0000
0000
0000
3010
0000
0000
0000
,
1000
0000
0000
0000
0100
0000
1000
0000
0100
0000
0000
0100
0000
0000
0010
0000
,
0002
0100
0010
0103
,
0001
0100
0001
0010
,
0100
0000
1000
0000
0010
0000
0000
1000
,
0000
0010
0000
1010
0000
0000
0000
0001
,
0000
0010
0000
0011
0000
0000
0000
0000
,
1000
0100
0010
0100
,
1000
0001
0010
0001
,
2000
0000
0100
0000
,
0001
0000
3100
0000
,
0001
0100
0010
0100
,
0001
0000
0010
0000
0100
0000
0000
1000
,
0000
0100
0000
1100
0000
0000
0000
0001
,
0000
0100
0000
0101
0000
0000
0001
0000
,
1000
0010
2000
0000
,
3001
0100
0010
1000
,
0002
0000
0100
0000
,
2000
0000
0000
3003
,
1000
0100
0010
0100
1000
0000
1000
0000
,
0001
0100
0010
0100
0001
0000
0001
0000
,
1000
0001
0010
0001
1000
0001
0100
0001
,
2000
0010
0100
3010
,
1000
0001
0100
0001
1000
0000
1000
0000
,
0001
1000
0100
1000
0001
0000
0001
0000
,
1000
0100
1000
0000
0001
0100
0001
0100
,
0020
0000
0000
0000
0130
0010
0100
0001
,
1000
0100
1000
0010
,
0200
0001
0000
0301
,
0100
0001
0010
0100
,
0020
0001
0000
0031
,
0010
0001
0100
0010
,
1000
0010
0100
0010
,
2000
0000
3020
0000
,
0130
0200
0001
0301
,
0100
0010
1000
0100
,
0020
0001
0000
0031
,
0010
0001
0100
0010
,
0200
0001
0000
0301
,
1000
0010
0100
0010
,
1000
0001
0010
0001
,
2000
0000
3002
0000
,
0203
0000
0310
0000
,
0110
0000
0000
0000
;
