#TITLE:I Don't Love You;
#SUBTITLE:;
#ARTIST:My Chemical Romance;
#TITLETRANSLIT:;
#SUBTITLETRANSLIT:;
#ARTISTTRANSLIT:;
#GENRE:;
#CREDIT:;
#BANNER:I Don't Love You.png;
#BACKGROUND:I Don't Love You-bg.png;
#LYRICSPATH:;
#CDTITLE:;
#MUSIC:I Don't Love You.mp3;
#OFFSET:-0.240000;
#SAMPLESTART:73.576019;
#SAMPLELENGTH:15.000002;
#SELECTABLE:YES;
#BPMS:0.000000=85.000000
,39.000000=85.500000
,48.000000=85.000000
,142.000000=80.000000
,143.000000=75.000000
,143.500000=70.000000
;
#STOPS:
;
#BGCHANGES:;
#KEYSOUNDS:;
#ATTACKS:;

//---------------dance-single - ----------------
#NOTES:
     dance-single:
     :
     Hard:
     10:
     0.365249,0.419724,0.174522,0.392674,0.030541,228.000000,20.000000,45.000000,0.000000,0.000000,0.000000,0.365249,0.419724,0.174522,0.392674,0.030541,228.000000,20.000000,45.000000,0.000000,0.000000,0.000000:
// measure 0
0000
0000
0000
0000
,  // measure 1
0000
0000
0000
0000
,  // measure 2
2001
0000
3010
1000
0002
0000
0013
0001
,  // measure 3
0100
1000
0100
1000
0100
0010
0100
0001
,  // measure 4
1002
0000
0103
0001
2000
0000
3100
1000
,  // measure 5
0010
0001
0010
0001
0010
0100
0010
1000
,  // measure 6
0120
0000
1030
0100
0020
0000
0031
0100
,  // measure 7
1000
0100
1000
0100
0001
0100
0010
0100
,  // measure 8
0210
0000
0301
0010
0200
0000
1300
0100
,  // measure 9
0001
0000
0100
0000
1000
0000
0010
0000
0100
0000
0100
0000
0010
0100
0000
0000
,  // measure 10
2001
0000
3010
0200
0000
0301
0100
0020
,  // measure 11
0000
1030
0100
1000
0010
0100
0001
0100
,  // measure 12
0201
0000
0301
0020
0000
0031
0010
0200
,  // measure 13
0000
2300
0000
3010
0100
0001
0010
0100
,  // measure 14
2100
0000
3010
0100
0000
0010
0100
0001
,  // measure 15
0000
1000
0010
1000
0001
0010
0100
0010
,  // measure 16
0012
0000
0103
0000
1000
1000
0100
1000
,  // measure 17
0001
0000
1000
0000
0010
0000
0000
0000
0001
0000
0001
0000
1000
0001
1000
0000
,  // measure 18
0210
0000
0301
0020
0000
0230
0000
1300
,  // measure 19
0001
1000
0010
1000
0001
0010
0100
1000
,  // measure 20
1002
0000
0103
0020
0000
2030
0000
3100
,  // measure 21
0010
0001
1000
0010
0001
0010
0100
0010
,  // measure 22
2010
0000
3100
0000
1000
0001
0200
0000
,  // measure 23
0320
0000
1030
0000
0001
0010
1000
0010
,  // measure 24
0012
0000
1003
0000
0001
1000
0010
0000
,  // measure 25
1000
0000
1000
0000
0100
0000
0010
0000
0001
0000
0100
0010
0100
0001
0010
0100
,  // measure 26
2000
0000
0001
0000
0100
0100
3001
0010
,  // measure 27
0002
0000
1003
0100
0010
0010
0000
0012
,  // measure 28
0000
2003
0000
3020
0000
0230
0000
0301
,  // measure 29
1000
0100
1000
0000
0001
0010
0100
1000
,  // measure 30
1002
0000
0013
1000
0010
0001
0100
0010
,  // measure 31
0210
0000
1300
0100
0001
0010
0001
0000
,  // measure 32
2001
0000
3010
1000
1002
0000
0013
0001
,  // measure 33
1001
0000
1000
0000
0010
0000
1000
0000
0100
0000
0010
0000
0001
1000
0001
0000
,  // measure 34
1002
0100
0203
1000
2300
0000
3020
0000
,  // measure 35
2030
0000
0100
0000
3200
0000
0001
0000
0301
0000
0010
0000
0100
0010
0100
0000
,  // measure 36
0220
0000
0000
0000
,  // measure 37
0330
0000
0000
0000
;

//---------------dance-single - ----------------
#NOTES:
     dance-single:
     :
     Beginner:
     1:
     0.147097,0.226005,0.130891,0.218152,0.000000,78.000000,15.000000,25.000000,0.000000,0.000000,0.000000,0.147097,0.226005,0.130891,0.218152,0.000000,78.000000,15.000000,25.000000,0.000000,0.000000,0.000000:
0000
0000
0000
0000
,
0000
0000
0000
0000
,
1001
0000
0010
0000
,
0100
0000
0010
0000
,
1001
0000
0100
0000
,
0010
0000
0100
0000
,
0110
0000
1000
0000
,
0001
0000
1000
0000
,
0110
0000
0001
0000
,
1000
0000
0001
0000
,
2000
3000
1000
0000
,
0002
0003
0001
0000
,
0200
0300
0100
0000
,
0020
0030
0010
0000
,
2000
3000
1000
0000
,
0200
0300
0100
0000
,
0020
0030
0010
0000
,
0002
0003
0001
0001
,
1001
0000
0100
0100
,
0100
0000
0010
0000
,
0110
0000
0001
0001
,
0001
0000
1000
0000
,
1001
0000
0010
0010
,
0010
0000
0100
0100
,
0100
0000
0001
0000
,
1000
0000
0001
0001
,
2002
3003
1001
0000
,
0220
0330
0110
0000
,
2000
3000
0002
0003
,
0200
0300
0010
0010
,
0010
0000
0100
0100
,
0100
0000
0001
0000
,
2002
3003
2002
3003
,
1001
0000
0100
0100
,
0200
0300
0020
0030
,
2000
3000
0002
0003
,
2002
0000
0000
0000
,
3003
0000
0000
0000
;

//---------------dance-single - ----------------
#NOTES:
     dance-single:
     :
     Easy:
     3:
     0.228125,0.306722,0.174522,0.235604,0.000000,136.000000,20.000000,27.000000,0.000000,0.000000,0.000000,0.228125,0.306722,0.174522,0.235604,0.000000,136.000000,20.000000,27.000000,0.000000,0.000000,0.000000:
0000
0000
0000
0000
,
0000
0000
0000
0000
,
1001
1000
0100
1000
,
0001
0001
0100
0001
,
1001
1000
0010
1000
,
0001
0001
0010
0001
,
0110
1000
0100
0100
,
0010
0001
0010
0010
,
0110
0100
1000
1000
,
0001
0001
0010
0001
,
2001
3010
1000
0010
,
0100
0001
0100
0001
,
1002
0013
0001
0010
,
0100
1000
0100
1000
,
0210
0301
0100
0001
,
1000
0010
1000
0010
,
2001
3010
1000
0100
,
1000
0000
0001
0000
1000
0000
0010
0100
,
0210
0301
0010
0100
,
1000
1000
0001
1000
,
0120
1030
0010
0100
,
0001
0001
1000
0001
,
0102
0013
0100
0020
,
1030
0100
1000
0100
,
1100
0100
0010
0001
,
0101
0100
0010
1000
,
2001
0100
0010
3100
,
0002
0010
0100
0013
,
2000
0001
0010
3100
,
0002
1000
0010
0103
,
2001
0100
3010
1000
,
1002
0010
0103
0001
,
2200
3300
0022
0033
,
1001
0100
1000
0010
,
0002
0203
0320
2030
,
3020
0230
0302
1003
,
2002
0000
0000
0000
,
3003
0000
0000
0000
;

//---------------dance-single - ----------------
#NOTES:
     dance-single:
     :
     Medium:
     6:
     0.294194,0.306722,0.139617,0.392674,0.000000,175.000000,16.000000,45.000000,0.000000,0.000000,0.000000,0.294194,0.306722,0.139617,0.392674,0.000000,175.000000,16.000000,45.000000,0.000000,0.000000,0.000000:
0000
0000
0000
0000
,
0000
0000
0000
0000
,
2001
3010
0002
0013
,
1000
0010
1000
0000
0001
0010
0001
0000
,
2000
3100
0002
0103
,
1000
0100
1000
0000
0001
0100
0001
0000
,
2010
3100
0012
0103
,
1000
0010
0100
0000
0001
0010
0100
0000
,
2100
3010
0102
0013
,
1000
0100
0010
0000
0001
0100
0010
0000
,
2001
0000
3100
0000
1000
1000
0010
0000
,
0001
0000
0100
0000
0001
0001
0010
0000
,
1002
0000
0013
0000
0100
0100
0010
0000
,
1000
0000
0010
0000
0100
0100
0010
0000
,
2010
0000
3100
0000
0001
0001
0100
0000
,
0012
0000
0103
0000
1000
1000
0100
0000
,
0120
0000
1030
0000
0001
0001
1000
0000
,
1000
1000
0001
0000
0100
0100
0010
0100
,
0210
0000
0301
2000
0000
3020
0000
0130
,
0000
0001
1000
0001
0200
0000
0320
0000
,
2030
0000
3001
2000
0000
3020
0000
0130
,
0010
0000
1000
0000
0001
0001
1000
0000
,
1002
0000
0013
0000
0100
0100
0020
0000
,
1030
0000
0100
0000
1000
1000
0010
0000
,
1002
0000
0013
0000
0001
0001
0010
0000
,
0001
0001
0100
0000
1000
0010
1000
0010
,
0200
0000
0001
0000
0010
0000
0301
1000
,
0020
0000
1000
0000
0130
0002
0000
2003
,
0000
3020
0000
0230
0000
0302
0000
0023
,
0000
0000
0031
0000
1000
0100
1000
0100
,
0020
0000
0031
0000
0001
0100
0001
0100
,
0020
0000
1030
0000
0100
0100
1000
0000
,
2010
3100
0012
0103
,
1000
1000
0010
1000
0100
0100
0010
0100
,
2000
3200
0320
0032
,
0203
0320
2030
3001
,
2002
0000
0000
0000
,
3003
0000
0000
0000
;
