#TITLE:Blue (Da Ba Dee);
#SUBTITLE:;
#ARTIST:Eiffel 65;
#TITLETRANSLIT:;
#SUBTITLETRANSLIT:;
#ARTISTTRANSLIT:;
#GENRE:;
#CREDIT:;
#BANNER:Blue (Da Ba Dee).png;
#BACKGROUND:Blue (Da Ba Dee)-bg.png;
#LYRICSPATH:;
#CDTITLE:;
#MUSIC:Blue (Da Ba Dee).mp3;
#OFFSET:-2.553;
#SAMPLESTART:48.967;
#SAMPLELENGTH:15.000;
#SELECTABLE:YES;
#BPMS:0.000=128.000
;
#STOPS:60.000=3.281
;
#BGCHANGES:;
#KEYSOUNDS:;
#ATTACKS:;

//---------------dance-single - ----------------
#NOTES:
     dance-single:
     :
     Hard:
     10:
     0.476,0.372,0.049,0.384,0.010,295.000,5.000,39.000,0.000,0.000,0.000,0.476,0.372,0.049,0.384,0.010,295.000,5.000,39.000,0.000,0.000,0.000: // measure 0
1001
0000
0001
0010
0100
0000
0001
0100
,  // measure 1
0000
0010
1000
0100
0010
0000
0001
0100
,  // measure 2
0010
0000
1000
0010
0100
0000
1000
0100
,  // measure 3
0000
0010
0100
0001
0010
0000
0010
0100
,  // measure 4
1000
0000
1000
0010
0100
0000
0100
0001
,  // measure 5
0000
0001
0010
0100
1000
0000
0100
0010
,  // measure 6
1000
0000
0001
0000
0200
0000
0310
1000
,  // measure 7
0000
0100
0000
1000
0001
0000
0010
0000
,  // measure 8
0001
0010
0000
0001
0000
0100
0000
0010
,  // measure 9
1000
0000
0100
0010
0001
0010
0100
1000
,  // measure 10
0010
0200
0000
0301
0000
1000
0100
0010
,  // measure 11
0001
0200
0000
0320
0000
0230
0000
0301
,  // measure 12
0000
1000
0100
1000
0000
0001
0010
0001
,  // measure 13
0100
0010
0100
0010
0000
1000
0010
0100
,  // measure 14
0001
0000
0000
0100
0001
0100
0000
0100
,  // measure 15
0110
0000
1001
0000
0001
0010
0001
0010
,  // measure 16
0100
2000
0000
3000
1000
0010
0200
0000
,  // measure 17
0310
1000
0200
0000
0310
0001
0100
0001
,  // measure 18
0010
0200
0000
0300
1000
0100
0020
0000
,  // measure 19
0130
1000
0020
0000
1030
0010
0100
0010
,  // measure 20
1000
0020
0000
0030
0100
0001
0020
0000
,  // measure 21
0031
0010
0200
0000
0310
0001
0010
0100
,  // measure 22
1000
0000
0020
0000
0000
0000
0000
0000
0030
0000
1000
0100
1000
0000
0000
0001
,  // measure 23
0010
0001
2001
0000
3010
0100
0001
0010
,  // measure 24
0100
2000
0000
3010
1000
0010
0002
0000
,  // measure 25
0013
0100
0020
0000
1030
0100
0010
1000
,  // measure 26
0010
0200
0000
0310
0001
0010
2000
0000
,  // measure 27
3010
0100
0020
0000
0031
0100
0010
0001
,  // measure 28
0010
0200
0000
0310
1000
0010
0200
0000
,  // measure 29
1300
0100
0020
0000
0130
0001
0010
1000
,  // measure 30
0010
0002
0000
0100
0000
0100
0000
0103
,  // measure 31
0020
0000
2030
0000
3100
0001
0100
1000
,  // measure 32
0010
0002
0000
0013
0100
0010
2000
0000
,  // measure 33
3100
0010
0002
0000
0103
1000
0100
0001
,  // measure 34
0010
2000
0000
3010
0100
0010
0002
0000
,  // measure 35
0103
0010
2000
0000
3010
0001
0010
0100
,  // measure 36
0010
2000
0000
3100
0001
0100
0020
0000
,  // measure 37
0130
1000
0020
0000
0130
0001
0010
0100
,  // measure 38
1000
0020
0000
0100
0000
0100
0000
0130
,  // measure 39
0010
0100
0001
0010
1000
0010
0001
0100
,  // measure 40
1000
0100
0000
0001
0010
0100
1000
0001
,  // measure 41
0100
0010
1000
0100
0001
0100
1000
0010
,  // measure 42
0001
0010
0000
1000
0100
0010
0001
1000
,  // measure 43
0010
0100
0001
0010
1000
0010
0100
0010
,  // measure 44
0001
0010
0000
0100
1000
0100
0010
0001
,  // measure 45
0100
0010
1000
0100
0001
0100
0010
0100
,  // measure 46
1000
0200
0000
0010
0000
0010
0000
0010
,  // measure 47
0000
0310
0110
0000
0000
0000
0000
0000
;

//---------------dance-single - ----------------
#NOTES:
     dance-single:
     :
     Beginner:
     1:
     0.131,0.163,0.069,0.010,0.000,85.000,7.000,1.000,0.000,0.000,0.000,0.131,0.163,0.069,0.010,0.000,85.000,7.000,1.000,0.000,0.000,0.000: // measure 0
1001
0000
0000
0000
,  // measure 1
0010
0000
0000
0000
,  // measure 2
0100
0000
0000
0000
,  // measure 3
0001
0000
0000
0000
,  // measure 4
1000
0000
0000
0000
,  // measure 5
0100
0000
0000
0000
,  // measure 6
0010
0000
0000
0000
,  // measure 7
0001
0000
0000
0000
,  // measure 8
1000
0000
1000
0000
,  // measure 9
0100
0000
0100
0000
,  // measure 10
0010
0000
0010
0000
,  // measure 11
0001
0000
0001
0000
,  // measure 12
1000
0000
1000
0000
,  // measure 13
0010
0000
0010
0000
,  // measure 14
0100
0000
0100
0000
,  // measure 15
1001
1001
0000
0001
,  // measure 16
0000
0010
0000
0001
,  // measure 17
0000
0100
0000
0001
,  // measure 18
0000
1000
0000
0001
,  // measure 19
0000
1000
0000
0100
,  // measure 20
0000
1000
0000
0010
,  // measure 21
0000
1000
0000
0001
,  // measure 22
0000
2000
0000
3000
,  // measure 23
0000
1001
0000
1000
,  // measure 24
1000
1000
0000
0001
,  // measure 25
0000
0010
0000
0001
,  // measure 26
0001
0001
0000
0100
,  // measure 27
0000
1000
0000
0100
,  // measure 28
0100
0100
0000
0010
,  // measure 29
0000
0001
0000
0010
,  // measure 30
0010
0010
0000
0000
,  // measure 31
0000
1001
0000
0100
,  // measure 32
0100
0100
0000
0010
,  // measure 33
0000
0001
0000
0010
,  // measure 34
0010
0010
0000
1000
,  // measure 35
0000
0100
0000
1000
,  // measure 36
1000
1000
0000
0001
,  // measure 37
0000
0010
0000
0001
,  // measure 38
0001
0001
0000
0000
,  // measure 39
0000
0110
0000
0000
,  // measure 40
0000
0010
0000
0000
,  // measure 41
0000
0001
0000
0000
,  // measure 42
0000
1000
0000
0000
,  // measure 43
0000
0100
0000
0000
,  // measure 44
0000
0010
0000
0000
,  // measure 45
0000
0001
0000
0000
,  // measure 46
0000
1000
0000
0000
,  // measure 47
0000
1001
0000
0000
;

//---------------dance-single - ----------------
#NOTES:
     dance-single:
     :
     Easy:
     4:
     0.284,0.256,0.059,0.207,0.000,175.000,6.000,21.000,0.000,0.000,0.000,0.284,0.256,0.059,0.207,0.000,175.000,6.000,21.000,0.000,0.000,0.000: // measure 0
1001
0000
0000
0000
0001
0000
0000
0010
,  // measure 1
0000
0100
1000
0100
,  // measure 2
1000
0000
0000
0000
0100
0000
0000
0010
,  // measure 3
0000
0100
0001
0100
,  // measure 4
0001
0000
0000
0000
0010
0000
0000
0100
,  // measure 5
0000
0010
1000
0010
,  // measure 6
1000
0000
0000
0000
0100
0000
0000
0010
,  // measure 7
0000
0001
0010
0001
,  // measure 8
0010
0100
0010
0100
,  // measure 9
1000
0001
1000
0001
,  // measure 10
0010
0001
0010
0001
,  // measure 11
1000
0100
1000
0100
,  // measure 12
0010
1000
0010
1000
,  // measure 13
0001
0100
0001
0100
,  // measure 14
1000
0001
1000
0001
,  // measure 15
1001
1001
0001
0010
,  // measure 16
0010
0100
0100
1000
,  // measure 17
1000
0010
0010
0100
,  // measure 18
0100
0001
0001
1000
,  // measure 19
1000
0001
0001
0100
,  // measure 20
0100
0010
0010
0100
,  // measure 21
0100
1000
1000
0100
,  // measure 22
0100
0010
0010
0001
,  // measure 23
0001
1001
2000
3100
,  // measure 24
0001
0010
0000
0000
2000
0000
3010
0000
,  // measure 25
0002
0013
0200
1300
,  // measure 26
1000
0010
0000
0000
0002
0000
0103
0000
,  // measure 27
2000
3100
0020
0031
,  // measure 28
0001
0100
0000
0000
0002
0000
0013
0000
,  // measure 29
2000
3010
0200
0301
,  // measure 30
0001
0010
0000
0000
0001
0000
0100
0000
,  // measure 31
1000
1001
2000
3010
,  // measure 32
0100
0001
0000
0000
0002
0000
0013
0000
,  // measure 33
2000
3100
0020
0031
,  // measure 34
0001
1000
0000
0000
2000
0000
3001
0000
,  // measure 35
0200
0310
0002
0013
,  // measure 36
0100
1000
0000
0000
2000
0000
3010
0000
,  // measure 37
0200
0301
0020
0031
,  // measure 38
1000
0100
0000
0000
1000
0000
0010
0000
,  // measure 39
0001
1000
0100
1000
,  // measure 40
0010
0000
0100
0001
,  // measure 41
0010
0001
1000
0100
,  // measure 42
1000
0000
0001
0010
,  // measure 43
0001
0010
0100
1000
,  // measure 44
0100
0000
1000
0010
,  // measure 45
1000
0010
0100
0001
,  // measure 46
0200
0000
0000
0000
,  // measure 47
0300
1001
0000
0000
;

//---------------dance-single - ----------------
#NOTES:
     dance-single:
     :
     Medium:
     6:
     0.336,0.279,0.069,0.030,0.000,229.000,7.000,3.000,0.000,0.000,0.000,0.336,0.279,0.069,0.030,0.000,229.000,7.000,3.000,0.000,0.000,0.000: // measure 0
1001
0000
1000
0000
0100
0000
1000
0010
,  // measure 1
0000
0010
1000
0000
0001
0000
0010
0000
,  // measure 2
0001
0000
0100
0000
0010
0000
0100
0001
,  // measure 3
0000
0001
0100
0000
1000
0000
0010
0000
,  // measure 4
1000
0000
0100
0000
0010
0000
0001
0010
,  // measure 5
0000
0010
0001
0000
0010
0000
0100
0000
,  // measure 6
1000
0000
0100
0000
0010
0000
1000
0100
,  // measure 7
0000
0100
1000
0100
0000
0100
0010
0000
,  // measure 8
0001
0000
0010
0000
0100
0000
1000
0100
,  // measure 9
0000
0100
0010
0000
0001
0000
0100
0000
,  // measure 10
0010
0000
1000
0000
0100
0000
0010
0001
,  // measure 11
0000
0001
0100
0000
0010
0000
1000
0000
,  // measure 12
0001
0000
0100
0000
0010
0000
1000
0100
,  // measure 13
0000
0010
0001
0000
0100
0000
0010
0000
,  // measure 14
1000
0100
0010
0001
,  // measure 15
1001
1001
1000
0100
,  // measure 16
1000
0001
0010
0001
,  // measure 17
0010
1000
0010
1000
,  // measure 18
0010
0100
0001
0100
,  // measure 19
0001
0010
0001
0010
,  // measure 20
0001
1000
0010
1000
,  // measure 21
0010
0100
0001
0100
,  // measure 22
0001
1000
0100
1000
,  // measure 23
0010
0000
0110
0000
0100
1000
0100
0000
,  // measure 24
0001
0010
0000
0010
0001
0000
0100
0000
,  // measure 25
0010
0100
0010
0000
0001
0010
0001
0000
,  // measure 26
0001
0100
0000
0100
0010
0000
1000
0000
,  // measure 27
0010
0100
0010
0000
1000
0100
1000
0000
,  // measure 28
0100
0010
0000
0010
0001
0000
0100
0000
,  // measure 29
0010
1000
0010
0000
0100
0001
0100
0000
,  // measure 30
0001
0020
0000
0000
0001
0000
0100
0000
,  // measure 31
0031
0000
1001
0000
1000
0100
0010
0000
,  // measure 32
0001
0010
0000
0100
1000
0000
0010
0000
,  // measure 33
1000
0001
0100
0000
1000
0001
0010
0000
,  // measure 34
0001
0100
0000
0010
0100
0000
0010
0000
,  // measure 35
1000
0100
0010
0000
0001
0100
0010
0000
,  // measure 36
1000
0100
0000
0010
0001
0000
1000
0000
,  // measure 37
0010
0100
1000
0000
0001
0100
0010
0000
,  // measure 38
1000
0002
0000
0000
0100
0000
0010
0000
,  // measure 39
0103
0000
1001
0000
1000
0100
0010
0100
,  // measure 40
0010
0001
0000
0000
0001
0100
0010
0000
,  // measure 41
1000
0100
0010
0000
0001
0100
0010
0100
,  // measure 42
0010
1000
0000
0000
1000
0010
0100
0000
,  // measure 43
0100
0001
0010
0000
0001
0010
0100
1000
,  // measure 44
0100
0010
0000
0000
0100
0010
0001
0000
,  // measure 45
1000
0010
0100
0000
1000
0010
0100
0001
,  // measure 46
0100
0020
0000
0000
0000
0000
0000
0000
,  // measure 47
0030
1001
0000
0000
;
