#TITLE:バビロニア;
#SUBTITLE:;
#ARTIST:劇団レコード;
#TITLETRANSLIT:Babylonia;
#SUBTITLETRANSLIT:;
#ARTISTTRANSLIT:Gekidan Record;
#GENRE:;
#CREDIT:;
#BANNER:Babylonia.png;
#BACKGROUND:Babylonia-bg.png;
#LYRICSPATH:;
#CDTITLE:;
#MUSIC:Babylonia.mp3;
#OFFSET:-0.840;
#SAMPLESTART:67.427;
#SAMPLELENGTH:15.000;
#SELECTABLE:YES;
#BPMS:0.000=164.000
,108.000=54.666
,116.000=109.333
,134.000=164.000
,267.000=54.666
,269.000=164.000
;
#STOPS:
;
#BGCHANGES:;
#KEYSOUNDS:;
#ATTACKS:;

//---------------dance-single - ----------------
#NOTES:
     dance-single:
     :
     Hard:
     13:
     0.624,0.802,0.357,0.611,0.282,428.000,45.000,77.000,0.000,0.000,0.000,0.624,0.802,0.357,0.611,0.282,428.000,45.000,77.000,0.000,0.000,0.000: // measure 0
0000
0000
0000
0000
,  // measure 1
0000
0000
0000
0000
,  // measure 2
0000
0000
0000
0000
,  // measure 3
0000
0000
0000
0000
,  // measure 4
0000
0000
0000
0000
,  // measure 5
0000
0000
0000
0000
,  // measure 6
0000
2020
3030
0000
,  // measure 7
0101
0101
0000
0022
,  // measure 8
0033
1100
1100
1100
,  // measure 9
0000
0202
0303
0000
,  // measure 10
1010
1010
0000
2200
,  // measure 11
3300
0011
0011
0011
,  // measure 12
1000
0100
0010
0001
0100
0010
0100
0000
,  // measure 13
0001
0010
0100
1000
0002
0000
0010
0000
,  // measure 14
0103
2000
0010
3100
,  // measure 15
0001
0100
0010
1000
0100
0010
0100
0000
,  // measure 16
1000
0010
0100
0001
0010
0001
0100
0001
,  // measure 17
0010
0100
1000
0010
1000
0100
1000
0010
,  // measure 18
0100
0010
1000
0010
0100
0001
0010
0000
,  // measure 19
0001
0010
0100
1000
0020
0000
0100
0000
,  // measure 20
1030
0200
0010
0301
,  // measure 21
1000
0100
0010
0001
0100
0010
0100
0000
,  // measure 22
0001
0010
0100
1000
0001
0100
1000
0100
,  // measure 23
0010
0100
0001
0010
1000
0010
0100
0010
,  // measure 24
0002
0100
0103
2000
,  // measure 25
0010
0000
3010
0000
0001
0010
0100
1000
,  // measure 26
0010
0100
0002
0000
2000
0000
3003
0000
,  // measure 27
1000
0010
0001
0010
1000
0000
0200
0000
0000
0000
0310
0000
0001
0010
1000
0010
0001
0000
0020
0000
0000
0000
0130
0000
,  // measure 28
1000
0010
0100
0001
0010
0000
0200
0000
0000
0000
0301
0000
0010
0100
0010
0001
0100
0010
2000
0000
0000
0000
3001
0000
,  // measure 29
1000
0100
0001
0100
0010
0000
0002
0000
0010
0000
0013
0000
,  // measure 30
0001
0100
1000
0100
0010
0000
2000
0000
0010
0000
3010
0000
,  // measure 31
0001
0100
0010
1000
0100
0000
0020
0000
0001
0000
0031
0000
,  // measure 32
2000
0000
3010
1000
0010
0100
0002
0000
1000
0000
1003
0000
,  // measure 33
0001
0000
0000
0000
0010
0000
0000
0000
0100
0000
0000
0000
0000
0000
0000
0000
1000
0000
0000
0000
0000
0000
0000
0000
1001
0000
0000
0000
0000
0000
0000
0000
0000
0000
0000
0000
0001
0000
0000
0010
0000
0000
0001
0000
0000
0000
0000
0000
,  // measure 34
0100
0210
0302
1003
,  // measure 35
1010
0000
0000
0000
0001
0100
0001
0000
0010
0000
0000
0000
0110
0000
0100
0000
,  // measure 36
0000
0000
1000
0000
1001
0000
0000
0000
0011
0000
0000
0000
0100
1000
0100
0000
,  // measure 37
0010
0102
0023
0230
,  // measure 38
2300
0000
3020
0000
0031
0000
0110
0110
,  // measure 39
0110
0000
0000
0000
2000
0000
0000
0000
3001
0100
0001
0000
0010
0000
0000
0000
,  // measure 40
0002
0000
0000
0000
1003
0100
1000
0000
0010
0000
0000
0000
0200
0000
0000
0000
,  // measure 41
0301
0010
0100
1000
0020
0000
1030
0100
,  // measure 42
0010
0001
0100
0010
2000
0000
3001
0100
,  // measure 43
1000
0000
0002
0000
1003
0100
0001
0000
,  // measure 44
2000
0000
0000
0000
3200
0000
0000
0000
0320
0000
0000
0000
0031
0010
0002
0000
,  // measure 45
0010
0000
0000
0000
0203
0000
0000
0000
0310
1000
0010
0000
1000
0000
0000
0000
,  // measure 46
0200
0000
0000
0000
0310
0001
0010
0000
0001
0000
0000
0000
2000
0000
0000
0000
,  // measure 47
3002
0000
0013
0001
0100
0001
2000
0000
,  // measure 48
0010
0000
0000
0000
3001
0000
1000
0100
0020
0000
0000
0000
0130
0010
0100
0000
,  // measure 49
1000
0000
0000
0000
0020
0000
0000
0000
0100
0000
0000
0000
1030
0010
1000
0000
,  // measure 50
0001
1000
0100
1000
0002
0000
0000
0000
0013
0000
0000
0000
2000
0000
0000
0000
,  // measure 51
0010
0000
0000
0000
3010
0000
1000
0000
0002
0000
0000
0000
0013
0001
0010
0000
,  // measure 52
0100
0000
1001
1001
2002
0000
0000
0000
,  // measure 53
3003
0000
1001
0000
0001
0100
1000
0000
,  // measure 54
0100
0001
0200
0000
0000
0000
0000
0000
0310
0000
0000
0000
0110
0000
0000
0000
,  // measure 55
0010
0100
0001
0010
0200
0000
1000
0000
,  // measure 56
0310
0000
0001
0000
0200
0000
0000
0000
0010
0000
0000
0000
0301
0010
0100
0000
,  // measure 57
2000
0000
0001
0000
3010
1000
0200
0000
,  // measure 58
0320
0000
0032
0000
1003
0010
0100
0001
,  // measure 59
0010
0000
0100
0000
1000
0010
1000
0000
0100
0000
0010
0000
0011
0000
0000
0000
,  // measure 60
0001
0010
0001
0000
0100
0000
0010
0000
1010
0000
0000
0000
0002
0000
0000
0000
,  // measure 61
0103
0010
1000
0100
0020
0000
0001
0000
,  // measure 62
0130
0000
0100
0010
0002
0000
0000
0000
0013
0001
0010
0000
0200
0000
0000
0000
,  // measure 63
2300
0000
0000
0000
0010
0000
0000
0000
3100
0010
0100
0000
1000
0001
0010
0001
,  // measure 64
2000
3001
0002
0100
,  // measure 65
0013
0000
0100
0000
2000
0000
0000
0000
3010
1000
0010
0000
0100
0000
0000
0000
,  // measure 66
0110
0101
1100
0200
,  // measure 67
0000
0000
0000
0000
0000
0000
0000
0000
0300
0000
0000
0000
1001
0000
0000
0000
0000
0000
0000
0000
0000
0000
0000
0000
1000
0000
0000
0100
0000
0000
0010
0000
0000
0100
0000
0000
1000
0000
0000
0000
0000
0000
0000
0000
0000
0000
0000
0000
,  // measure 68
1100
0101
1100
1001
,  // measure 69
0001
0100
0010
0100
0001
0000
0000
0000
0001
0000
0010
0000
0200
0000
0000
0000
,  // measure 70
1300
0000
0010
0000
0110
0000
0000
0000
0001
0010
0100
1000
0001
0000
0000
0000
,  // measure 71
0101
1100
0101
2000
,  // measure 72
3010
0100
0010
0000
0200
0000
0000
0000
0301
0000
0010
0000
0100
0000
0000
0000
,  // measure 73
1000
2001
0010
3010
,  // measure 74
1002
0000
0010
0000
0013
0000
1000
0010
,  // measure 75
0100
0001
0010
0100
2000
0000
0002
0000
,  // measure 76
0000
0000
0000
0000
,  // measure 77
0000
0000
0000
3003
;

//---------------dance-single - ----------------
#NOTES:
     dance-single:
     :
     Beginner:
     3:
     0.171,0.216,0.056,0.087,0.000,133.000,7.000,11.000,0.000,0.000,0.000,0.171,0.216,0.056,0.087,0.000,133.000,7.000,11.000,0.000,0.000,0.000: // measure 0
0000
0000
0000
0000
,  // measure 1
0000
0000
0000
0000
,  // measure 2
0000
0000
0000
0000
,  // measure 3
0000
0000
0000
0000
,  // measure 4
0000
0000
0000
0000
,  // measure 5
0000
0000
0000
0000
,  // measure 6
0000
1001
0000
0000
,  // measure 7
0001
0001
0000
0110
,  // measure 8
0000
0100
0100
0100
,  // measure 9
0000
1001
0000
0000
,  // measure 10
1000
1000
0000
0110
,  // measure 11
0000
0010
0010
0000
,  // measure 12
1000
0000
0000
0100
,  // measure 13
0000
0000
0001
0000
,  // measure 14
0000
0100
0000
0000
,  // measure 15
1000
0000
0000
0010
,  // measure 16
0000
0000
0001
0000
,  // measure 17
0000
0010
0000
0000
,  // measure 18
0100
0000
0000
0010
,  // measure 19
0000
0000
0001
0000
,  // measure 20
0000
0010
0000
0000
,  // measure 21
0100
0000
0000
0010
,  // measure 22
0000
0000
1000
0000
,  // measure 23
0000
0010
0000
0000
,  // measure 24
0000
0001
0001
0000
,  // measure 25
1000
1000
0000
0010
,  // measure 26
0010
0000
0100
0000
,  // measure 27
2000
3000
0002
0003
,  // measure 28
0020
0030
0200
0300
,  // measure 29
0010
0000
0100
0000
,  // measure 30
0010
0000
1000
0000
,  // measure 31
0100
0000
0010
0000
,  // measure 32
0100
0000
0001
0000
,  // measure 33
1000
0000
1001
0000
,  // measure 34
0000
1000
0000
0000
,  // measure 35
0010
0000
0000
0100
,  // measure 36
0000
0000
1000
0000
,  // measure 37
0000
0100
0000
0000
,  // measure 38
0010
0000
0000
0001
,  // measure 39
0001
0000
1000
0000
,  // measure 40
0100
0100
0000
0010
,  // measure 41
0010
0000
0001
0001
,  // measure 42
0000
1000
1000
0000
,  // measure 43
0010
0010
0000
0100
,  // measure 44
0100
0000
0001
0001
,  // measure 45
0000
0010
0010
0000
,  // measure 46
0100
0100
0000
1000
,  // measure 47
1000
0000
0001
0001
,  // measure 48
0000
0000
0010
0000
,  // measure 49
0000
0100
0000
0000
,  // measure 50
0010
0000
0000
1000
,  // measure 51
0000
0000
0010
0000
,  // measure 52
0000
0220
0000
0330
,  // measure 53
0000
1001
0000
0001
,  // measure 54
0001
0000
0010
0010
,  // measure 55
0000
0100
0100
0000
,  // measure 56
0001
0001
0000
1000
,  // measure 57
1000
0000
0010
0010
,  // measure 58
0000
0100
0100
0000
,  // measure 59
0010
0020
0030
0000
,  // measure 60
0002
0003
0000
0200
,  // measure 61
0300
0000
0020
0030
,  // measure 62
0000
1000
0000
0000
,  // measure 63
0100
0000
0000
0010
,  // measure 64
0000
0000
0001
0001
,  // measure 65
0001
0001
0000
0000
,  // measure 66
1000
0000
0000
0100
,  // measure 67
0000
0001
0000
0000
,  // measure 68
0001
0000
0000
0010
,  // measure 69
0000
0000
0010
0000
,  // measure 70
0000
0100
0000
0000
,  // measure 71
0100
0000
0000
1000
,  // measure 72
0000
0000
1000
1000
,  // measure 73
1000
0000
0001
0001
,  // measure 74
0000
0010
0010
0000
,  // measure 75
0100
0100
0000
0020
,  // measure 76
0000
0000
0000
0000
,  // measure 77
0000
0000
0000
0030
;

//---------------dance-single - ----------------
#NOTES:
     dance-single:
     :
     Easy:
     6:
     0.317,0.370,0.119,0.246,0.052,234.000,15.000,31.000,0.000,0.000,0.000,0.317,0.370,0.119,0.246,0.052,234.000,15.000,31.000,0.000,0.000,0.000: // measure 0
0000
0000
0000
0000
,  // measure 1
0000
0000
0000
0000
,  // measure 2
0000
0000
0000
0000
,  // measure 3
0000
0000
0000
0000
,  // measure 4
0000
0000
0000
0000
,  // measure 5
0000
0000
0000
0000
,  // measure 6
0000
1001
0000
0000
,  // measure 7
0011
0011
0000
1001
,  // measure 8
0000
1010
1010
1010
,  // measure 9
0000
1001
0000
0000
,  // measure 10
0101
0101
0000
1001
,  // measure 11
0000
1100
1100
1100
,  // measure 12
1000
0010
1000
0001
,  // measure 13
0000
0001
0200
0000
,  // measure 14
0310
2000
0000
3010
,  // measure 15
0001
0010
0001
0100
,  // measure 16
0000
0010
1000
0100
,  // measure 17
1000
0010
1000
0010
,  // measure 18
0100
0010
0100
0001
,  // measure 19
0000
0001
0020
0000
,  // measure 20
0130
0020
0000
1030
,  // measure 21
1000
0100
1000
0010
,  // measure 22
0000
0010
0100
0001
,  // measure 23
0100
0010
0100
0010
,  // measure 24
2000
0000
3100
2000
,  // measure 25
0000
3010
2000
0000
,  // measure 26
3001
2000
0002
3003
,  // measure 27
0001
0000
0001
0100
0000
0000
1000
0000
1000
0010
0000
0000
,  // measure 28
0100
0000
0100
0001
0000
0000
0010
0000
0010
1000
0000
0000
,  // measure 29
1000
0000
0000
0000
1000
0000
0010
0000
0000
0000
0010
0000
,  // measure 30
0100
0000
0000
0000
0100
0000
0001
0000
0000
0000
0001
0000
,  // measure 31
0010
0000
0000
0000
0010
0000
0100
0000
0000
0000
0100
0000
,  // measure 32
1000
0000
0000
0000
1000
0000
0001
0000
0000
0000
0001
0000
,  // measure 33
1000
0000
0000
0000
1000
0000
1000
0000
0000
0100
0000
0000
,  // measure 34
0010
0002
0000
0013
,  // measure 35
0001
0010
0100
2000
,  // measure 36
0000
3010
1000
0010
,  // measure 37
0100
0002
0000
0013
,  // measure 38
0001
0000
0100
0000
0010
0000
1000
0001
,  // measure 39
1000
0000
0200
0000
,  // measure 40
0310
2000
0000
3010
,  // measure 41
0200
0000
0301
0020
,  // measure 42
0000
0031
0002
0000
,  // measure 43
0013
0002
0000
0103
,  // measure 44
0001
0010
0100
2000
,  // measure 45
0000
3010
0200
0000
,  // measure 46
0301
0020
0000
1030
,  // measure 47
2000
0000
3100
0020
,  // measure 48
0000
0031
0100
0010
,  // measure 49
0100
0002
0000
1003
,  // measure 50
0100
1000
0100
1000
,  // measure 51
0010
1000
0001
0010
,  // measure 52
0100
0000
0010
0100
0020
0000
0000
0000
,  // measure 53
0030
1001
1000
0010
,  // measure 54
0100
0000
0100
0001
,  // measure 55
0010
0001
0100
0000
,  // measure 56
0100
0010
1000
0010
,  // measure 57
0001
0000
0001
0100
,  // measure 58
0010
1000
0100
0000
,  // measure 59
0001
0010
0001
0010
,  // measure 60
0100
0000
0100
1000
,  // measure 61
0010
1000
0001
0000
,  // measure 62
0001
0100
0010
1000
,  // measure 63
0100
0000
0100
0010
,  // measure 64
1000
0010
0100
0001
,  // measure 65
0100
0010
1000
0010
,  // measure 66
0100
0000
0100
0002
,  // measure 67
0003
1000
0100
0010
,  // measure 68
0001
0001
0010
0001
,  // measure 69
0010
0100
1000
1000
,  // measure 70
0010
1000
0010
0100
,  // measure 71
0001
0001
0100
0001
,  // measure 72
0100
0010
1000
1000
,  // measure 73
0100
0002
0000
0013
,  // measure 74
0002
0000
0103
0002
,  // measure 75
0000
1003
0002
2000
,  // measure 76
0000
0000
0000
0000
,  // measure 77
0000
0000
0000
3003
;

//---------------dance-single - ----------------
#NOTES:
     dance-single:
     :
     Medium:
     9:
     0.469,0.617,0.246,0.397,0.123,333.000,31.000,50.000,0.000,0.000,0.000,0.469,0.617,0.246,0.397,0.123,333.000,31.000,50.000,0.000,0.000,0.000: // measure 0
0000
0000
0000
0000
,  // measure 1
0000
0000
0000
0000
,  // measure 2
0000
0000
0000
0000
,  // measure 3
0000
0000
0000
0000
,  // measure 4
0000
0000
0000
0000
,  // measure 5
0000
0000
0000
0000
,  // measure 6
0000
2200
3300
0000
,  // measure 7
0101
0101
0000
0022
,  // measure 8
0033
1010
1010
1010
,  // measure 9
0000
0202
0303
0000
,  // measure 10
1100
1100
0000
2020
,  // measure 11
3030
0011
0011
0011
,  // measure 12
0001
0010
0100
0000
0020
0000
0031
0000
,  // measure 13
0010
0001
0100
0000
0020
0000
0000
0000
,  // measure 14
0130
1000
0010
0100
,  // measure 15
0001
0100
0010
0000
0200
0000
0301
0000
,  // measure 16
0010
0001
0100
0000
0010
1000
0010
0100
,  // measure 17
0010
0000
0100
0010
0100
0001
0100
0000
,  // measure 18
1000
0100
0010
0000
0200
0000
1300
0000
,  // measure 19
0010
0100
0001
0000
2000
0000
0000
0000
,  // measure 20
3010
0001
0010
0100
,  // measure 21
1000
0010
0100
0000
0020
0000
1030
0000
,  // measure 22
0100
0010
0001
0000
1000
0100
1000
0010
,  // measure 23
1000
0000
0001
0010
0001
0100
0001
0000
,  // measure 24
2000
0010
3010
2000
,  // measure 25
0100
3100
0002
0010
,  // measure 26
0013
0200
0020
0330
,  // measure 27
1000
0100
0010
0002
0000
0013
0001
0100
0010
2000
0000
3010
,  // measure 28
1000
0001
0100
0002
0000
0013
0001
0100
0001
2000
0000
3010
,  // measure 29
1000
0000
0010
1000
0010
0000
2000
0000
0001
0000
3001
0000
,  // measure 30
1000
0000
0100
1000
0100
0000
2000
0000
0001
0000
3001
0000
,  // measure 31
0001
0000
0100
0001
0100
0000
0002
0000
1000
0000
1003
0000
,  // measure 32
0001
0000
0010
0001
0010
0000
0002
0000
1000
0000
1003
0000
,  // measure 33
1000
0000
0100
0000
0010
0000
0000
0000
0001
0000
0000
0000
1001
0000
0000
0000
0000
0000
0001
0000
0000
0010
0000
0000
,  // measure 34
0100
1000
0010
0100
,  // measure 35
1001
0000
0001
0100
0010
0000
1000
0100
,  // measure 36
0000
0010
0001
0000
0110
0000
0010
1000
,  // measure 37
0100
0010
0001
0100
,  // measure 38
0010
0000
1000
0000
0100
0000
1001
1001
,  // measure 39
1001
0000
2000
0000
3010
0000
0100
0010
,  // measure 40
0001
0000
1000
0000
0010
0100
0001
0000
,  // measure 41
0010
0000
0100
0010
1000
0000
0100
0000
,  // measure 42
0010
0100
1000
0100
0010
0000
0001
0010
,  // measure 43
0001
0000
0100
0000
0001
0010
0001
0000
,  // measure 44
1000
0001
0100
0010
,  // measure 45
0100
0001
2000
0100
,  // measure 46
3100
0002
0010
0013
,  // measure 47
2000
0010
3010
0002
,  // measure 48
0100
0103
1000
0100
,  // measure 49
0010
0001
0100
0010
,  // measure 50
1000
0100
0010
0000
0001
0000
1000
0010
,  // measure 51
0100
0000
0001
0010
0100
0000
1000
0000
,  // measure 52
0100
0000
1001
1001
2002
0000
0000
0000
,  // measure 53
3003
0000
1001
0000
0001
0100
0010
0000
,  // measure 54
0210
0000
0301
1001
,  // measure 55
1000
0010
0100
0000
0120
0000
0000
0000
,  // measure 56
1030
0100
0020
0000
0000
0000
0031
0000
,  // measure 57
0020
0000
0130
0020
,  // measure 58
0100
0000
1030
0000
1000
0010
0001
0000
,  // measure 59
0010
0000
1000
0100
0010
0000
1000
0000
,  // measure 60
0001
0010
0100
0000
0001
0000
1000
0010
,  // measure 61
0100
0000
0010
0000
0001
0100
0010
0000
,  // measure 62
0100
0001
0010
0100
,  // measure 63
1000
0000
0010
0000
0100
0000
0001
0010
,  // measure 64
0100
0000
1000
0000
1000
0010
0100
0000
,  // measure 65
0001
0010
0100
0000
0010
0000
1000
0000
,  // measure 66
0002
0010
0103
0020
,  // measure 67
0000
0000
0000
0000
0030
0000
0110
0000
0000
0000
0000
0000
0010
0000
0000
0100
0000
0000
1000
0000
0000
0000
0000
0000
,  // measure 68
0002
0010
0013
1001
,  // measure 69
1000
0100
0010
0000
2000
0000
0001
0000
,  // measure 70
3001
0000
1010
0000
1000
0010
0100
0000
,  // measure 71
0002
0010
0013
0011
,  // measure 72
0001
0100
0010
0000
2000
0000
0010
0000
,  // measure 73
3010
0002
0010
0013
,  // measure 74
0002
0100
0103
0002
,  // measure 75
1000
1003
0002
2000
,  // measure 76
0000
0000
0000
0000
,  // measure 77
0000
0000
0000
3003
;
