#TITLE:BLACK.by X-Cross Fade;
#SUBTITLE:;
#ARTIST:DJ Mass MAD Izm*;
#TITLETRANSLIT:;
#SUBTITLETRANSLIT:;
#ARTISTTRANSLIT:;
#GENRE:;
#CREDIT:;
#BANNER:BLACK.by X-Cross Fade.png;
#BACKGROUND:BLACK.by X-Cross Fade-bg.png;
#LYRICSPATH:;
#CDTITLE:;
#MUSIC:BLACK.by X-Cross Fade.mp3;
#OFFSET:-1.560000;
#SAMPLESTART:30.956154;
#SAMPLELENGTH:14.999999;
#SELECTABLE:YES;
#BPMS:0.000000=163.000000
;
#STOPS:
;
#BGCHANGES:;
#KEYSOUNDS:;
#ATTACKS:;

//---------------dance-single - ----------------
#NOTES:
     dance-single:
     :
     Hard:
     14:
     0.818094,1.000000,0.652087,0.576846,0.250803,538.000000,78.000000,69.000000,0.000000,0.000000,0.000000,0.818094,1.000000,0.652087,0.576846,0.250803,538.000000,78.000000,69.000000,0.000000,0.000000,0.000000:
// measure 0
0000
0000
0000
0000
,  // measure 1
0000
0000
0000
0000
,  // measure 2
0000
0000
0000
0000
,  // measure 3
0000
0000
0000
0000
,  // measure 4
1000
0100
0001
0100
1000
0001
1000
0000
,  // measure 5
0001
0010
1000
0010
0001
1000
0001
0000
,  // measure 6
1000
0010
0001
0010
1000
0001
1000
0000
,  // measure 7
0001
0100
1000
0100
0001
1000
0001
0000
,  // measure 8
0010
0001
0100
1000
0100
0001
0010
0000
,  // measure 9
0100
1000
0010
0001
0010
1000
0100
0000
,  // measure 10
1000
0010
0001
1000
0100
0001
1000
0000
,  // measure 11
0001
0010
1000
0001
0100
1000
0001
0000
,  // measure 12
1010
0000
1000
0100
1000
0000
0101
0000
,  // measure 13
0011
0000
0001
0100
0001
0000
1100
0000
,  // measure 14
1010
0000
0010
1000
0100
0000
0011
0000
,  // measure 15
0101
0000
0100
0001
0010
0100
1100
0000
,  // measure 16
1000
0100
1000
0100
0010
0001
0011
0000
,  // measure 17
0001
0100
0001
0100
0010
1000
1010
0000
,  // measure 18
1000
0010
0100
0010
1000
0100
0110
0000
,  // measure 19
0001
0010
0100
0010
0001
0100
0110
0000
,  // measure 20
1001
0000
0000
0000
1000
0000
0100
0000
1000
0010
1000
0000
0001
0010
0001
0000
,  // measure 21
1001
0000
0000
0000
0001
0000
0100
0000
0001
0010
0100
0000
1000
0010
0100
0000
,  // measure 22
1001
0000
0000
0000
0001
1000
0010
0000
1001
0000
0000
0000
1000
0001
0010
0000
,  // measure 23
2100
0000
3010
0100
0002
0000
0013
0100
,  // measure 24
1001
0000
0000
0000
1000
0100
1000
0000
0001
0100
0001
0100
0001
0000
1000
0000
,  // measure 25
1001
0000
0000
0000
1000
0100
1000
0100
1000
0000
0001
0000
0100
0010
0100
0000
,  // measure 26
1001
0000
0000
0000
0001
0010
0100
0000
1001
0000
0000
0000
1000
0010
0100
0000
,  // measure 27
0012
0000
0103
0010
2000
0000
3100
0010
,  // measure 28
0021
0000
0000
0030
1020
0000
0000
0030
0021
0000
0000
0030
1020
0000
0000
0030
,  // measure 29
0201
0000
0000
0300
1200
0000
0000
0300
0201
0000
0000
0300
1200
0000
0000
0300
,  // measure 30
0120
0000
0000
0030
1020
0000
0000
0030
0210
0000
0000
0300
0201
0000
0000
0300
,  // measure 31
0012
0000
0103
0010
2000
0000
3100
0010
,  // measure 32
0021
0000
0000
0030
0120
0000
0000
0030
1020
0000
0000
0030
0120
0000
0000
0030
,  // measure 33
1200
0000
0000
0300
0210
0000
0000
0300
0201
0000
0000
0300
0210
0000
0000
0300
,  // measure 34
0021
0000
0000
0030
0120
0000
0000
0030
0210
0000
0000
0300
1200
0000
0000
0300
,  // measure 35
0100
1000
0100
0010
0001
0100
0001
1000
,  // measure 36
0200
1300
0010
0100
0010
1000
0200
0310
,  // measure 37
0002
0000
0103
0000
0001
0000
0020
0000
0130
0000
1000
0000
0010
0000
0100
0001
,  // measure 38
0200
0000
0320
0000
1030
0000
0200
0000
2300
0000
3010
0000
0100
0000
0001
0010
,  // measure 39
0002
0000
1003
0000
0100
0000
1000
0000
0010
1000
0010
1000
0020
0000
0000
0000
,  // measure 40
0130
0000
0002
0000
0013
0000
0200
0000
0320
0000
0031
0000
1000
0000
0100
1000
,  // measure 41
0020
0000
2030
0000
3100
0000
2000
0000
3020
0000
0130
0001
0100
0001
0100
0001
,  // measure 42
0020
0000
0031
0020
0031
0000
0020
0000
0230
0000
1300
0010
0100
0000
0010
0100
,  // measure 43
0020
2030
3020
0230
0302
0000
1003
0000
,  // measure 44
0011
0010
0010
0011
0010
0010
0010
0010
,  // measure 45
0110
0100
0100
0110
0100
0110
1100
0110
,  // measure 46
0011
0010
0010
0011
0010
0010
0010
0010
,  // measure 47
0110
0100
0100
0110
0100
1100
0220
0330
,  // measure 48
1001
1000
0010
0010
1000
1000
0100
0100
,  // measure 49
0001
0001
0100
0100
1000
1000
0010
0010
,  // measure 50
0100
0100
0001
0001
0010
0010
1000
1000
,  // measure 51
0020
0030
0002
0003
0200
0300
0020
0030
,  // measure 52
1001
0000
1000
1010
0000
0101
0000
0011
,  // measure 53
0011
0000
1000
1100
0000
0101
0000
1010
,  // measure 54
1010
0000
0001
0011
0000
1100
0000
0101
,  // measure 55
0102
0003
1000
2010
3000
0101
0000
0101
,  // measure 56
1001
0000
1000
0100
0000
0000
0001
0100
0000
0000
1000
0010
0000
0000
0001
0010
,  // measure 57
0001
0100
0001
0100
0010
1000
0010
1000
0100
0010
0100
0010
0001
0100
0001
0100
,  // measure 58
0010
0000
1000
0100
1000
0000
0010
0000
0100
0000
0001
0000
0100
0000
0010
0000
,  // measure 59
1000
0000
0001
0010
0001
0000
1000
0000
0010
0000
0100
0000
0001
0000
0100
0000
,  // measure 60
0010
0000
1000
0100
1000
0000
0001
0000
1000
0000
0010
0000
0100
0000
0010
0000
,  // measure 61
1000
0000
0001
0100
0001
0000
1000
0000
0100
0000
0010
0000
0100
0000
1000
0000
,  // measure 62
0002
0000
0103
0001
2000
0000
3100
1000
0002
0000
0013
0001
0020
0000
0000
0000
,  // measure 63
0130
0000
1000
0000
0100
0000
0010
0000
0100
0000
1000
0010
0000
0010
1000
0000
,  // measure 64
0100
0000
1000
0000
0001
0000
0100
0000
0010
0000
1000
0100
0000
0100
1000
0000
,  // measure 65
0100
0000
0010
0000
0001
0000
0100
0000
0010
0000
1000
0100
0000
0100
1000
0000
,  // measure 66
0010
1000
0100
0001
0100
1000
0020
0000
,  // measure 67
1030
1000
0001
0001
0100
0100
0001
0001
,  // measure 68
1000
1000
0010
0010
0001
0001
0010
0010
,  // measure 69
1000
1000
0001
0001
0010
0010
0001
0001
,  // measure 70
1000
1000
0100
0100
0001
0001
0100
0100
,  // measure 71
1000
0010
1000
0010
0100
0001
0100
0001
,  // measure 72
0010
0001
0010
0001
1000
0010
1000
0010
,  // measure 73
0100
0001
0100
0000
0001
0100
0001
0000
1000
0100
1000
0000
0100
1000
0100
0000
,  // measure 74
0010
0001
0010
0001
1000
0010
1000
0010
0100
0001
0100
0001
0010
0000
0000
0000
;

//---------------dance-single - ----------------
#NOTES:
     dance-single:
     :
     Beginner:
     2:
     0.197059,0.249967,0.133761,0.058521,0.000000,142.000000,16.000000,7.000000,0.000000,0.000000,0.000000,0.197059,0.249967,0.133761,0.058521,0.000000,142.000000,16.000000,7.000000,0.000000,0.000000,0.000000:
// measure 0
0000
0000
0000
0000
,  // measure 1
0000
0000
0000
0000
,  // measure 2
0000
0000
0000
0000
,  // measure 3
0000
0000
0000
0000
,  // measure 4
1000
0000
1000
0000
,  // measure 5
0001
0000
0001
0000
,  // measure 6
0100
0000
0100
0000
,  // measure 7
0010
0000
0010
0000
,  // measure 8
1000
0000
1000
0000
,  // measure 9
0100
0000
0100
0000
,  // measure 10
0020
0030
0010
0000
,  // measure 11
0001
0000
0001
0000
,  // measure 12
1000
0000
0010
0000
,  // measure 13
1000
0000
0010
0000
,  // measure 14
0100
0000
0001
0000
,  // measure 15
0100
0000
0001
0000
,  // measure 16
1000
0000
0100
0000
,  // measure 17
1000
0000
0100
0000
,  // measure 18
0001
0000
0010
0000
,  // measure 19
0001
0000
0010
0000
,  // measure 20
1001
0000
0000
0000
,  // measure 21
1001
0000
0000
0000
,  // measure 22
1001
0000
1001
0000
,  // measure 23
1000
0000
0001
0000
,  // measure 24
0110
0000
0000
0000
,  // measure 25
0110
0000
0000
0000
,  // measure 26
0110
0000
0110
0000
,  // measure 27
0100
0000
0010
0000
,  // measure 28
1000
1000
1000
0000
,  // measure 29
0001
0001
0001
0000
,  // measure 30
0100
0100
0100
0000
,  // measure 31
0020
0030
0010
0000
,  // measure 32
0001
0001
0001
0000
,  // measure 33
1000
1000
1000
0000
,  // measure 34
0010
0010
0010
0000
,  // measure 35
0200
0300
0100
0000
,  // measure 36
0001
0000
0010
0000
,  // measure 37
0100
0000
1000
0000
,  // measure 38
0001
0000
0100
0000
,  // measure 39
0010
0000
1000
0000
,  // measure 40
0001
0000
1000
0000
,  // measure 41
0010
0000
0100
0000
,  // measure 42
0001
0000
1000
0000
,  // measure 43
0100
0000
0010
0000
,  // measure 44
0110
0000
0000
0000
,  // measure 45
1001
0000
0000
0000
,  // measure 46
0110
0000
0000
0000
,  // measure 47
1001
0000
0000
0000
,  // measure 48
1000
0000
1000
0000
,  // measure 49
0001
0000
0001
0000
,  // measure 50
0100
0000
0100
0000
,  // measure 51
0010
0010
0010
0010
,  // measure 52
0010
0000
0010
0000
,  // measure 53
0100
0000
0100
0000
,  // measure 54
0001
0000
0001
0000
,  // measure 55
1000
0000
1000
0000
,  // measure 56
0010
0000
0100
0000
,  // measure 57
0220
0000
0000
0330
,  // measure 58
0110
0000
0100
0000
,  // measure 59
0001
0000
0001
0000
,  // measure 60
1000
0000
1000
0000
,  // measure 61
0010
0000
0010
0000
,  // measure 62
2002
0000
0000
3003
,  // measure 63
1001
0000
1000
0000
,  // measure 64
0010
0000
1000
0000
,  // measure 65
0001
0000
0010
0000
,  // measure 66
0001
0001
0001
0000
,  // measure 67
1000
0000
1000
0000
,  // measure 68
0100
0000
0100
0000
,  // measure 69
0010
0000
0010
0000
,  // measure 70
0001
0000
0001
0000
,  // measure 71
1000
0000
0100
0000
,  // measure 72
0010
0000
0001
0000
,  // measure 73
1000
0000
0010
0000
,  // measure 74
0100
0000
0001
0001
;

//---------------dance-single - ----------------
#NOTES:
     dance-single:
     :
     Easy:
     6:
     0.383370,0.562425,0.334403,0.058521,0.000000,274.000000,40.000000,7.000000,0.000000,0.000000,0.000000,0.383370,0.562425,0.334403,0.058521,0.000000,274.000000,40.000000,7.000000,0.000000,0.000000,0.000000:
// measure 0
0000
0000
0000
0000
,  // measure 1
0000
0000
0000
0000
,  // measure 2
0000
0000
0000
0000
,  // measure 3
0000
0000
0000
0000
,  // measure 4
1000
0100
1000
0100
,  // measure 5
0010
0001
0010
0001
,  // measure 6
1000
0010
1000
0010
,  // measure 7
0100
0001
0100
0001
,  // measure 8
1000
0010
0100
0010
,  // measure 9
1000
0100
0010
0010
,  // measure 10
0001
0100
0010
0100
,  // measure 11
0001
0010
0100
0100
,  // measure 12
1000
0000
0000
1000
0000
0000
1001
0000
,  // measure 13
0001
0000
0000
0001
0000
0000
1001
0000
,  // measure 14
0100
0000
0000
0100
0000
0000
0110
0000
,  // measure 15
0010
0000
0000
0010
0000
0010
0100
0000
,  // measure 16
1000
0000
0000
0100
0000
0000
1100
0000
,  // measure 17
0001
0000
0000
0100
0000
0000
0101
0000
,  // measure 18
1000
0000
0000
0010
0000
0000
1010
0000
,  // measure 19
0001
0000
0000
0010
0000
0010
0001
0000
,  // measure 20
1001
0001
0100
0001
,  // measure 21
1001
1000
0100
1000
,  // measure 22
1001
0010
1001
0100
,  // measure 23
0001
0001
1000
1000
,  // measure 24
0110
0001
0100
0001
,  // measure 25
0110
1000
0010
1000
,  // measure 26
0110
1000
0110
0001
,  // measure 27
0100
0100
0010
0010
,  // measure 28
1100
1100
1010
1010
,  // measure 29
0101
0101
0011
0011
,  // measure 30
1001
1001
0110
0110
,  // measure 31
1000
1000
0001
0001
,  // measure 32
0011
0011
0101
0101
,  // measure 33
1010
1010
1100
1100
,  // measure 34
0110
0110
1001
1001
,  // measure 35
1000
0010
0100
0001
,  // measure 36
1000
0100
0010
0100
,  // measure 37
1000
0010
0100
0010
,  // measure 38
1000
0001
0010
0001
,  // measure 39
1000
0001
0100
0001
,  // measure 40
1000
0001
0010
0100
,  // measure 41
1000
0001
0100
0010
,  // measure 42
0100
0001
0100
0010
,  // measure 43
1000
0100
0010
0001
,  // measure 44
1000
0000
0000
1000
0000
0000
0000
0000
,  // measure 45
0001
0000
0000
0001
0000
0001
1000
0001
,  // measure 46
1000
0000
0000
1000
0000
0000
0000
0000
,  // measure 47
0001
0000
0000
0001
0000
0001
2000
0000
,  // measure 48
3001
0010
0001
0010
,  // measure 49
0100
1000
0100
1000
,  // measure 50
0010
0100
0010
0100
,  // measure 51
0002
2003
3002
2003
,  // measure 52
3010
0000
0000
0100
0000
0010
0000
0100
,  // measure 53
0001
0000
0000
1000
0000
0001
0000
1000
,  // measure 54
0100
0000
0000
0010
0000
0100
0000
0010
,  // measure 55
0001
0000
0000
1000
0000
0001
0000
1000
,  // measure 56
0010
0010
0010
0010
,  // measure 57
0100
0100
0200
0300
,  // measure 58
0110
1000
0010
0100
,  // measure 59
0010
1000
0100
0010
,  // measure 60
0001
0100
0010
0100
,  // measure 61
0001
0010
0100
1000
,  // measure 62
0001
0001
0001
0002
,  // measure 63
1003
0100
1000
1000
,  // measure 64
0001
0100
0001
0001
,  // measure 65
1000
0010
1000
1000
,  // measure 66
0001
0010
0100
1000
,  // measure 67
0001
0010
0001
0100
,  // measure 68
0010
1000
0100
1000
,  // measure 69
0100
0010
0001
0100
,  // measure 70
0010
1000
0100
0010
,  // measure 71
0001
0100
0010
0100
,  // measure 72
0001
0010
0100
1000
,  // measure 73
0010
0100
0010
1000
,  // measure 74
0100
0010
0001
1001
;

//---------------dance-single - ----------------
#NOTES:
     dance-single:
     :
     Medium:
     10:
     0.568486,0.562425,0.392924,0.150482,0.000000,411.000000,47.000000,18.000000,0.000000,0.000000,0.000000,0.568486,0.562425,0.392924,0.150482,0.000000,411.000000,47.000000,18.000000,0.000000,0.000000,0.000000:
// measure 0
0000
0000
0000
0000
,  // measure 1
0000
0000
0000
0000
,  // measure 2
0000
0000
0000
0000
,  // measure 3
0000
0000
0000
0000
,  // measure 4
1000
0100
0000
1000
0100
0010
0001
0000
,  // measure 5
0001
0100
0000
0001
0100
0010
1000
0000
,  // measure 6
0001
0010
0000
0001
0010
0100
1000
0000
,  // measure 7
1000
0010
0000
1000
0010
0100
0001
0000
,  // measure 8
1000
0010
0000
1000
0100
0010
0001
0000
,  // measure 9
0001
0100
0000
0001
0010
0100
1000
0000
,  // measure 10
1000
0100
0000
1000
0010
0100
0001
0000
,  // measure 11
0001
0010
0000
0001
0100
0010
1000
0000
,  // measure 12
1001
0000
0001
0010
0000
0010
0001
0000
,  // measure 13
1001
0000
1000
0010
0000
0010
1000
0000
,  // measure 14
1001
0000
0001
0100
0000
0100
0001
0000
,  // measure 15
1001
0000
1000
0100
0000
0100
1000
0000
,  // measure 16
1000
0100
0010
0100
1000
0000
1100
0000
,  // measure 17
0001
0100
0010
0100
0001
0000
0101
0000
,  // measure 18
1000
0010
0100
0001
1000
0000
1001
0000
,  // measure 19
0001
0010
0100
1000
0002
0000
1003
0000
,  // measure 20
1001
0000
1000
0100
1000
0010
0100
0000
,  // measure 21
1001
0000
0001
0010
0100
0010
0001
0000
,  // measure 22
1001
0000
0001
1000
1001
0000
1000
0001
,  // measure 23
2000
0000
3010
0100
0002
0000
0013
0100
,  // measure 24
1001
0000
0001
1000
0010
1000
0001
0000
,  // measure 25
1001
0000
1000
0001
0010
0001
1000
0000
,  // measure 26
1001
0000
0001
1000
1001
0000
1000
0001
,  // measure 27
2000
0000
3010
0100
0002
0000
0013
0100
,  // measure 28
0110
1100
0110
1100
,  // measure 29
1001
0011
1001
0011
,  // measure 30
0101
0110
0101
0110
,  // measure 31
2000
0000
3010
0100
0002
0000
0013
0100
,  // measure 32
0110
0011
0110
0011
,  // measure 33
1001
1100
1001
1100
,  // measure 34
1010
0110
1010
0110
,  // measure 35
0002
0000
0103
0010
2000
0000
3100
0010
,  // measure 36
0001
0000
1000
0100
1000
0000
0001
0000
,  // measure 37
1000
0000
0001
0100
0001
0000
1000
0000
,  // measure 38
0010
0000
0100
0001
0100
0000
0010
0000
,  // measure 39
0100
0000
0001
0010
0001
0000
0100
0000
,  // measure 40
0001
1000
0100
1000
0010
0000
0100
0000
,  // measure 41
0001
1000
0010
1000
0100
0000
0010
0000
,  // measure 42
0001
0100
0010
0100
0001
0000
1000
0000
,  // measure 43
0001
0010
0100
1000
0002
0000
1003
0000
,  // measure 44
1001
0000
0000
1001
0000
0000
0000
0000
,  // measure 45
0110
0000
0000
0110
0000
0100
0010
0100
,  // measure 46
1001
0000
0000
1001
0000
0000
0000
0000
,  // measure 47
0110
0000
0000
0110
0000
0010
0200
0000
,  // measure 48
0301
0010
0001
0010
0001
0010
0001
0000
,  // measure 49
1000
0010
1000
0010
1000
0010
1000
0000
,  // measure 50
0001
0100
0001
0100
0001
0100
0001
0000
,  // measure 51
2000
3200
0320
0032
,  // measure 52
1003
0000
0100
1000
0000
1000
0010
1000
,  // measure 53
0100
0000
1000
0001
0000
0010
0001
0100
,  // measure 54
0001
0000
1000
0010
0000
0100
0001
0100
,  // measure 55
0010
0000
1000
0100
0000
0010
0001
0100
,  // measure 56
0010
1000
0000
0001
0000
1000
0000
0001
,  // measure 57
0100
0010
0100
0010
0100
0010
0200
0000
,  // measure 58
0301
1000
0001
0000
0010
0001
0010
0000
,  // measure 59
0100
0010
0100
0000
1000
0010
1000
0000
,  // measure 60
0001
0010
0001
0000
1000
0100
1000
0000
,  // measure 61
0001
0100
0001
0000
0100
0010
0100
0000
,  // measure 62
0001
0010
0001
0100
0001
1000
0002
0000
,  // measure 63
1003
0100
1000
0010
1000
0100
1000
0000
,  // measure 64
0001
0010
0001
0100
0001
0010
0001
0000
,  // measure 65
1000
0010
0100
0010
1000
0010
0100
0000
,  // measure 66
0001
0010
0100
1000
0001
0010
0200
0000
,  // measure 67
1300
0010
1000
0010
1000
0010
1000
0000
,  // measure 68
0001
0010
0001
0010
0001
0010
0001
0000
,  // measure 69
1000
0100
1000
0100
1000
0100
1000
0000
,  // measure 70
0001
0100
0001
0100
0001
0100
0001
0000
,  // measure 71
1000
0010
1000
0010
0100
0010
0100
0010
,  // measure 72
1000
0100
1000
0100
0010
0100
0010
0000
,  // measure 73
0001
0010
0001
0010
0100
1000
0100
1000
,  // measure 74
0001
0100
0001
0100
0010
0100
0010
0000
;
