#VERSION:0.81;
#TITLE:Attack the music;
#SUBTITLE:;
#ARTIST:DJ FX;
#TITLETRANSLIT:;
#SUBTITLETRANSLIT:;
#ARTISTTRANSLIT:;
#GENRE:Hard Techno;
#ORIGIN:;
#CREDIT:;
#BANNER:Attack the music.png;
#BACKGROUND:Attack the music-bg.png;
#PREVIEWVID:;
#JACKET:Attack the music-jacket.png;
#CDIMAGE:;
#DISCIMAGE:;
#LYRICSPATH:;
#CDTITLE:;
#MUSIC:Attack the music.mp3;
#OFFSET:-0.260;
#SAMPLESTART:13.960;
#SAMPLELENGTH:15.000;
#SELECTABLE:YES;
#BPMS:0.000=140.000;
#STOPS:;
#DELAYS:;
#WARPS:;
#TIMESIGNATURES:0.000=4=4;
#TICKCOUNTS:0.000=4;
#COMBOS:0.000=1;
#SPEEDS:0.000=1.000=0.000=0;
#SCROLLS:0.000=1.000;
#FAKES:;
#LABELS:0.000=Song Start;
#BGCHANGES:;
#KEYSOUNDS:;
#ATTACKS:
;

//---------------dance-single - ----------------
#NOTEDATA:;
#CHARTNAME:;
#STEPSTYPE:dance-single;
#DESCRIPTION:;
#CHARTSTYLE:;
#DIFFICULTY:Hard;
#METER:10;
#RADARVALUES:0.500,0.482,0.308,0.038,0.135,246.000,24.000,3.000,0.000,0.000,0.000,0.000,0.000,0.500,0.482,0.308,0.038,0.135,246.000,24.000,3.000,0.000,0.000,0.000,0.000,0.000;
#CREDIT:;
#NOTES:
0000
0000
0000
0000
,
0000
0000
0000
0000
,
0000
0000
0000
0000
,
0000
0000
0000
0000
,
1000
0010
0000
0100
0001
0100
0000
0010
,
1000
0010
0000
0100
0001
0100
0000
0010
,
1000
1000
0001
0001
,
0100
0000
0000
0000
0100
0000
0000
0000
0010
0100
0000
0010
0100
0000
0010
0000
,
1000
0010
1001
0000
1000
0100
0010
0000
,
0001
1000
0100
0000
0001
1000
0010
1000
,
0001
0000
0110
0000
0010
1000
0010
0001
,
0020
0130
2000
3001
,
0001
0000
0100
0000
0101
0000
0000
0000
0001
0000
0000
1000
0000
0000
0001
0000
,
1000
0000
0010
0000
1010
0000
0000
0000
0010
0000
0000
0100
0000
0000
0010
0000
,
0001
0000
0010
0000
0011
0000
0000
0000
1000
0000
0000
0010
0000
0000
0100
0000
,
0001
0000
1000
0000
1001
0000
0000
0000
1000
0100
0000
0100
0010
0000
0001
0000
,
1000
0100
1000
0010
1000
0100
1000
0000
,
0001
0010
0001
0100
0001
0010
0001
0000
,
0010
0100
0010
1000
0010
0100
0010
0000
,
0100
0000
0010
0000
0100
0000
0001
0000
0100
0000
0000
0100
0010
0000
0100
0000
,
0001
0010
0000
1000
0100
0001
0000
1000
,
0010
0001
0000
0010
0100
0001
0000
0100
,
0010
1000
0000
0100
1000
0010
0000
0100
,
0001
0010
0000
1000
0001
0100
0010
1000
,
0000
0000
0000
0000
0000
0000
0100
0000
0000
0000
0100
0000
0000
0010
0000
0000
,
0000
0000
0000
0000
0000
0000
1000
0000
0000
0000
1000
0000
0000
0001
0000
0000
,
0000
0000
0000
0000
0000
0000
0010
0000
0000
0000
0010
0000
0000
1000
0000
0000
,
0000
0000
0000
0000
0000
0000
0100
0000
0000
0000
0100
0000
0000
0001
0000
0000
,
1000
0000
0000
0000
0100
0000
0010
0000
1000
0000
0010
0000
0100
0001
0000
0000
,
0010
0000
0000
0000
0001
0000
0100
0000
0010
0000
0100
0000
0001
1000
0000
0000
,
0001
0000
0000
0000
1000
0000
0100
0000
0001
0000
0100
0000
1000
0010
0000
0000
,
0100
0000
0000
0000
0010
0000
1000
0000
0001
0000
1000
0000
0010
0100
0000
0000
,
1000
0100
1001
0000
0001
0010
0100
1000
,
0100
0010
0110
0000
1000
0001
0010
0100
,
1000
0100
1100
0000
1000
0010
0100
0001
,
0010
0000
0001
0000
0011
0000
0000
0000
0001
0000
0000
0001
0100
0000
0010
0000
,
1000
0000
0010
0000
1010
0000
0000
0000
0100
0000
0010
0000
0001
0010
0000
0000
,
1000
0000
0001
0000
1001
0000
0000
0000
0001
0000
0100
0000
0010
0100
0000
0000
,
1000
0000
0100
0000
1100
0000
0000
0000
0010
0000
0100
0000
0001
0010
0000
0000
,
0010
0000
0100
0000
0110
0000
0000
0000
0100
0000
0010
0000
0001
1000
0000
0000
,
0110
0000
0100
1100
0000
1000
1001
0000
,
0001
0011
0000
0010
1010
0000
1000
1100
,
0000
0100
0101
0000
0001
1001
0000
1000
,
1010
0000
1000
0100
0010
0011
0001
0010
,
0200
0300
0000
0000
;

//---------------dance-single - ----------------
#NOTEDATA:;
#CHARTNAME:;
#STEPSTYPE:dance-single;
#DESCRIPTION:;
#CHARTSTYLE:;
#DIFFICULTY:Beginner;
#METER:2;
#RADARVALUES:0.209,0.227,0.090,0.167,0.000,94.000,7.000,13.000,0.000,0.000,0.000,0.000,0.000,0.209,0.227,0.090,0.167,0.000,94.000,7.000,13.000,0.000,0.000,0.000,0.000,0.000;
#CREDIT:;
#NOTES:
// measure 0
0000
0000
0000
0000
,  // measure 1
0000
0000
0000
0000
,  // measure 2
0000
0000
0000
0000
,  // measure 3
0000
0000
0000
0000
,  // measure 4
1000
0000
0001
0000
,  // measure 5
0100
0000
0010
0000
,  // measure 6
1000
0000
0100
0000
,  // measure 7
0010
0000
0001
0001
,  // measure 8
0001
0000
0010
0000
,  // measure 9
0001
0000
0100
0000
,  // measure 10
0001
0000
1000
1000
,  // measure 11
0000
0110
0000
1001
,  // measure 12
0000
0110
0000
0100
,  // measure 13
0100
0000
0001
0001
,  // measure 14
0001
0000
1000
1000
,  // measure 15
1000
0000
0010
0010
,  // measure 16
0020
0030
0200
0300
,  // measure 17
0002
0003
2000
3000
,  // measure 18
0200
0300
0020
0030
,  // measure 19
0002
0003
2000
3000
,  // measure 20
0010
0010
0020
0030
,  // measure 21
0100
0100
0200
0300
,  // measure 22
0001
0001
0002
0003
,  // measure 23
1000
1000
2000
3000
,  // measure 24
0000
0000
0010
0010
,  // measure 25
0000
0000
0100
0100
,  // measure 26
0000
0000
1000
1000
,  // measure 27
0000
0000
0001
0001
,  // measure 28
0001
0000
0100
0000
,  // measure 29
0001
0000
0010
0000
,  // measure 30
1000
0000
0100
0000
,  // measure 31
1000
0000
0010
0000
,  // measure 32
0000
0110
0000
0010
,  // measure 33
0000
1001
0000
1000
,  // measure 34
0000
1001
0000
0001
,  // measure 35
0000
0110
0000
0100
,  // measure 36
0100
0100
0100
0000
,  // measure 37
0001
0001
0001
0000
,  // measure 38
1000
1000
1000
0000
,  // measure 39
0010
0010
0010
0000
,  // measure 40
0100
0000
0100
0000
,  // measure 41
1000
0000
1000
0000
,  // measure 42
0001
0000
0001
0000
,  // measure 43
0010
0000
0010
0000
,  // measure 44
0200
0300
0000
0000
;

//---------------dance-single - ----------------
#NOTEDATA:;
#CHARTNAME:;
#STEPSTYPE:dance-single;
#DESCRIPTION:;
#CHARTSTYLE:;
#DIFFICULTY:Easy;
#METER:5;
#RADARVALUES:0.251,0.284,0.090,0.038,0.000,127.000,7.000,3.000,0.000,0.000,0.000,0.000,0.000,0.251,0.284,0.090,0.038,0.000,127.000,7.000,3.000,0.000,0.000,0.000,0.000,0.000;
#CREDIT:;
#NOTES:
0000
0000
0000
0000
,
0000
0000
0000
0000
,
0000
0000
0000
0000
,
0000
0000
0000
0000
,
1000
1000
0001
0000
,
0100
0100
0010
0000
,
1000
0000
0001
0000
,
0010
0000
0100
0100
,
0100
0110
0000
0001
,
0001
0000
0100
0010
,
0001
0000
1000
0001
,
0020
0030
0002
0003
,
1000
1001
0001
1000
,
0010
0000
0010
0100
,
0001
0000
0010
0100
,
1000
0000
1000
0100
,
0010
0000
0000
0001
0100
0000
0000
0000
,
0001
0000
0000
0010
0100
0000
0000
0000
,
1000
0000
0000
0010
0100
0000
0000
0000
,
0001
0000
0000
1000
0010
0000
0000
0000
,
0010
0000
0000
1000
0100
0000
0000
0000
,
0100
0000
0000
0001
0010
0000
0000
0000
,
0001
0000
0000
1000
0010
0000
0000
0000
,
1000
0000
0000
0010
0001
0000
0000
0000
,
0000
0000
0000
0010
0000
0010
0000
0000
,
0000
0000
0000
0100
0000
0100
0000
0000
,
0000
0000
0000
1000
0000
1000
0000
0000
,
0000
0000
0000
0001
0000
0001
0000
0000
,
0001
1001
1000
0100
,
0010
0100
0010
0001
,
1000
0010
0100
0001
,
0010
0100
1000
0100
,
0010
0110
0100
0010
,
0001
1001
1000
0100
,
0010
1010
1000
0100
,
0010
0011
0001
0100
,
0010
0100
1000
0100
,
0001
0010
0100
0010
,
1000
0100
0010
0001
,
0010
0100
1000
0000
,
0100
0000
0000
0100
0000
0000
1000
0000
,
0000
1000
0000
0000
0010
0000
0000
0010
,
0000
0000
0100
0000
0000
0100
0000
0000
,
0001
0000
0000
0000
0010
1000
0000
1000
,
0200
0300
0000
0000
;

//---------------dance-single - ----------------
#NOTEDATA:;
#CHARTNAME:;
#STEPSTYPE:dance-single;
#DESCRIPTION:;
#CHARTSTYLE:;
#DIFFICULTY:Medium;
#METER:7;
#RADARVALUES:0.392,0.397,0.141,0.205,0.135,187.000,11.000,16.000,0.000,0.000,0.000,0.000,0.000,0.392,0.397,0.141,0.205,0.135,187.000,11.000,16.000,0.000,0.000,0.000,0.000,0.000;
#CREDIT:;
#NOTES:
0000
0000
0000
0000
,
0000
0000
0000
0000
,
0000
0000
0000
0000
,
0000
0000
0000
0000
,
1000
0010
0000
0000
0010
0100
0000
0000
,
0100
0001
0000
0000
0001
0010
0000
0000
,
1000
0100
0010
0001
,
0010
0000
0000
0000
0100
0000
0000
0000
1000
0000
0000
0001
0000
0000
1000
0000
,
0001
0000
0000
0000
1001
0000
0000
0000
1000
0000
0000
0010
0000
0000
0000
0000
,
0100
0000
0000
0000
0110
0000
0000
0000
0010
0000
0000
0001
0000
0000
0000
0000
,
0010
0000
0000
0000
1010
0000
0000
0000
1000
0000
0000
0100
0000
0000
0000
0000
,
0020
0130
2000
3001
,
0200
0000
0000
0000
0310
0000
0000
0000
0001
0000
0000
0010
0000
0000
0100
0000
,
2000
0000
0000
0000
3010
0000
0000
0000
0010
0000
0000
1000
0000
0000
0100
0000
,
0020
0000
0000
0000
0031
0000
0000
0000
0010
0000
0000
0100
0000
0000
0010
0000
,
0002
0000
0000
0000
1003
0000
0000
0000
1000
0000
0000
0100
0000
0000
0010
0000
,
0100
0010
0000
1000
0100
0010
0000
0000
,
0001
0010
0000
0100
0001
0010
0000
0000
,
0010
0100
0000
1000
0010
0100
0000
0000
,
1000
0010
0000
0100
1000
0010
0000
0000
,
0001
0010
0000
1000
0100
1000
0000
0001
,
0010
0001
0000
0010
0100
0010
0000
0100
,
0010
0100
0000
0001
1000
0001
0000
0010
,
0001
0010
0000
1000
0001
1000
0001
1000
,
0000
0000
0000
0000
0000
0000
0001
0000
0000
0000
0001
0000
0000
0001
0000
0000
,
0000
0000
0000
0000
0000
0000
1000
0000
0000
0000
1000
0000
0000
1000
0000
0000
,
0000
0000
0000
0000
0000
0000
0010
0000
0000
0000
0010
0000
0000
0010
0000
0000
,
0000
0000
0000
0000
0000
0000
0100
0000
0000
0000
0100
0000
0000
0100
0000
0000
,
1000
0000
0000
0000
0100
0000
0010
0000
0000
0000
0010
0000
0000
0001
0000
0000
,
0010
0000
0000
0000
0001
0000
0100
0000
0000
0000
0100
0000
0000
0010
0000
0000
,
1000
0000
0000
0000
1000
0000
0010
0000
0000
0000
0010
0000
0000
1000
0000
0000
,
0100
0000
0000
0000
0100
0000
0001
0000
0000
0000
0001
0000
0000
0100
0000
0000
,
1000
0000
1001
0000
1000
0010
0100
0001
,
0010
0000
0110
0000
0100
0010
0001
0010
,
0100
0000
1100
0000
1000
0100
0010
0001
,
0010
0000
0000
0000
0011
0000
0000
0000
0001
0000
0000
0001
0000
0000
0010
0000
,
0100
0000
0000
0000
1010
0000
0000
0000
0100
0000
0010
0000
0000
0010
0000
0000
,
1000
0000
0000
0000
1001
0000
0000
0000
0001
0000
0100
0000
0000
0100
0000
0000
,
1000
0000
0000
0000
1100
0000
0000
0000
0010
0000
1000
0000
0000
0001
0000
0000
,
0100
0000
0000
0000
0110
0000
0000
0000
0100
0000
0010
0000
0000
1000
0000
0000
,
2000
0000
3000
0200
0000
0300
0020
0000
,
0030
0002
0000
0003
0200
0000
0300
0020
,
0000
0030
2000
0000
3000
0002
0000
0003
,
2000
0000
3000
0000
0100
0010
0001
0010
,
0200
0300
0000
0000
;
