#VERSION:0.81;
#TITLE:A LIGHT THAT NEVER COMES;
#SUBTITLE:;
#ARTIST:LINKIN PARK X STEVE AOKI;
#TITLETRANSLIT:;
#SUBTITLETRANSLIT:;
#ARTISTTRANSLIT:;
#GENRE:;
#ORIGIN:;
#CREDIT:;
#BANNER:A LIGHT THAT NEVER COMES.png;
#BACKGROUND:A LIGHT THAT NEVER COMES-bg.png;
#PREVIEWVID:;
#JACKET:A LIGHT THAT NEVER COMES-jacket.png;
#CDIMAGE:A LIGHT THAT NEVER COMES-jacket.png;
#DISCIMAGE:;
#LYRICSPATH:;
#CDTITLE:;
#MUSIC:A LIGHT THAT NEVER COMES.mp3;
#OFFSET:1.887;
#SAMPLESTART:74.854;
#SAMPLELENGTH:15.000;
#SELECTABLE:YES;
#BPMS:0.000=115.000;
#STOPS:;
#DELAYS:;
#WARPS:;
#TIMESIGNATURES:0.000=4=4;
#TICKCOUNTS:0.000=4;
#COMBOS:0.000=1;
#SPEEDS:0.000=1.000=0.000=0;
#SCROLLS:0.000=1.000;
#FAKES:;
#LABELS:0.000=Song Start;
#BGCHANGES:2.500=A LIGHT THAT NEVER COMES.avi=1.000=0=0=1=====,
99999=-nosongbg-=1.000=0=0=0 // don't automatically add -songbackground-
;
#KEYSOUNDS:;
#ATTACKS:
;

//---------------dance-single - ----------------
#NOTEDATA:;
#CHARTNAME:;
#STEPSTYPE:dance-single;
#DESCRIPTION:;
#CHARTSTYLE:;
#DIFFICULTY:Hard;
#METER:11;
#RADARVALUES:0.433,0.447,0.141,0.381,0.099,303.000,17.000,46.000,0.000,0.000,0.000,0.000,0.000,0.433,0.447,0.141,0.381,0.099,303.000,17.000,46.000,0.000,0.000,0.000,0.000,0.000;
#CREDIT:;
#NOTES:
// measure 0
0000
0000
0000
0000
,  // measure 1
0000
0000
0000
0000
,  // measure 2
0000
0000
0000
0000
,  // measure 3
0000
0000
0000
0000
,  // measure 4
0000
0000
0000
0000
,  // measure 5
2002
0000
3003
0001
0010
0001
0100
0000
,  // measure 6
0010
0000
0010
0000
1000
0000
1000
0000
0001
0000
0100
0001
0000
0100
0000
0000
,  // measure 7
0010
0100
0010
1000
0100
0010
0001
0000
,  // measure 8
1000
0000
0010
0000
0100
0000
0001
0000
1000
0000
0001
0010
0000
0000
0100
0000
,  // measure 9
0220
0000
0330
1000
0010
0100
0010
0000
,  // measure 10
0001
0000
0001
0000
0100
0000
0100
0000
0010
0000
1000
0010
0000
0000
1000
0000
,  // measure 11
0100
0010
0001
0100
0001
0010
0100
0000
,  // measure 12
1000
0010
0100
0001
0010
0100
0110
0000
,  // measure 13
2002
0000
0000
0000
3003
0000
1000
0100
,  // measure 14
0010
0000
0000
0010
0000
0000
0100
0000
0010
0000
0000
0000
0001
0000
0100
0000
,  // measure 15
0010
0000
0000
0010
0000
0000
0100
0000
0010
0000
0000
0000
1000
0000
0001
0000
,  // measure 16
0010
0000
0000
0010
0000
0000
0100
0000
1000
0000
0000
0000
1001
0000
0000
0000
,  // measure 17
0220
0000
0000
0000
0330
0000
1000
0010
,  // measure 18
0100
0000
0000
0100
0000
0000
0010
0000
0100
0000
0000
0000
0001
0000
0010
0000
,  // measure 19
0100
0000
0000
0100
0000
0000
0010
0000
0100
0000
0000
0000
1000
0000
0010
0000
,  // measure 20
0100
0000
0000
0100
0000
0000
0010
0000
0100
0000
0000
0000
0110
0000
0000
0000
,  // measure 21
2002
0000
0003
3020
,  // measure 22
0200
0000
0000
0330
,  // measure 23
1000
0100
1000
0100
1000
0000
0002
0020
,  // measure 24
0000
0033
0002
0200
0000
0303
1001
0000
,  // measure 25
0220
0000
0030
0302
,  // measure 26
2000
0000
0000
3003
,  // measure 27
0001
0100
0001
0100
0001
0000
2000
0200
,  // measure 28
0000
3300
2000
0020
0000
0000
3030
0000
,  // measure 29
0001
0010
1000
0010
0001
0100
0000
0020
,  // measure 30
0000
1030
0200
0301
,  // measure 31
1000
0010
0001
0010
1000
0100
0000
0020
,  // measure 32
0000
0031
0200
1300
,  // measure 33
0001
0100
0001
0100
0010
1000
0010
1000
,  // measure 34
0100
1000
0100
1000
0001
0010
0001
0010
,  // measure 35
0001
1000
0010
0100
0001
0000
2000
0020
,  // measure 36
0000
3030
0200
0002
0000
0303
0110
0000
,  // measure 37
1001
0000
0000
1000
0010
0000
1000
0000
0010
0000
0000
0001
0010
0000
0001
0000
,  // measure 38
0010
0000
0000
1000
0100
0000
1000
0000
0100
0000
0000
0001
0100
0000
0001
0000
,  // measure 39
1000
0100
0010
0001
1000
0000
0002
0020
,  // measure 40
0000
0033
0200
2000
0000
3300
1001
0000
,  // measure 41
0010
0000
0000
0010
0100
0000
0010
0000
1000
0000
0000
1000
0001
0000
1000
0000
,  // measure 42
0100
0000
0000
0100
0010
0000
0100
0000
1000
0000
0000
1000
0001
0000
1000
0000
,  // measure 43
0001
0100
0010
1000
0001
0000
2000
0020
,  // measure 44
0000
3030
0200
0002
0000
0303
1001
0000
,  // measure 45
0001
0100
1000
0100
0001
0010
1000
0000
,  // measure 46
0010
0001
0100
1000
0100
0001
0010
0000
,  // measure 47
0001
0010
1000
0010
0001
0100
1000
0000
,  // measure 48
0100
0001
0010
1000
0010
0001
1001
0000
,  // measure 49
1000
0010
0001
1000
0100
0001
1000
0000
,  // measure 50
0001
0010
1000
0001
0100
1000
0001
0000
,  // measure 51
1000
0010
0100
0001
1000
0000
0002
0020
,  // measure 52
0000
0033
0200
2000
0000
3300
0110
0000
,  // measure 53
2000
0000
0000
3001
0000
1000
0010
0000
0100
0000
0100
0000
0010
0000
0010
0000
,  // measure 54
1000
0000
0100
0000
1000
0000
0010
0000
0100
0000
0001
0000
0010
0001
0010
0001
,  // measure 55
0020
0000
0000
0130
0000
0100
1000
0000
0001
0000
0001
0000
0010
0000
0010
0000
,  // measure 56
0100
1000
0100
0010
0001
0010
1001
0000
;

//---------------dance-single - ----------------
#NOTEDATA:;
#CHARTNAME:;
#STEPSTYPE:dance-single;
#DESCRIPTION:;
#CHARTSTYLE:;
#DIFFICULTY:Beginner;
#METER:1;
#RADARVALUES:0.139,0.141,0.066,0.116,0.000,95.000,8.000,14.000,0.000,0.000,0.000,0.000,0.000,0.139,0.141,0.066,0.116,0.000,95.000,8.000,14.000,0.000,0.000,0.000,0.000,0.000;
#CREDIT:;
#NOTES:
0000
0000
0000
0000
,
0000
0000
0000
0000
,
0000
0000
0000
0000
,
0000
0000
0000
0000
,
0000
0000
0000
0000
,
2000
3000
1000
0000
,
0001
0000
0001
0000
,
0100
0000
0100
0000
,
0010
0000
0010
0000
,
0200
0300
0100
0000
,
0010
0000
0010
0000
,
0001
0000
0001
0000
,
1000
0000
1000
0000
,
2002
0000
3003
0000
,
0001
0000
0001
0000
,
1000
0000
1000
0000
,
0001
0000
0001
0000
,
0220
0000
0330
0000
,
0010
0000
0010
0000
,
0100
0000
0100
0000
,
0010
0000
0010
0000
,
2000
0000
3000
0000
,
0002
0000
0003
0000
,
0200
0000
0300
0000
,
0020
0000
0030
0000
,
0200
0000
0300
0000
,
0002
0000
0003
0000
,
2000
0000
3000
0000
,
0020
0000
0030
0000
,
0100
0000
0100
0000
,
0001
0000
0001
0000
,
1000
0000
1000
0000
,
0010
0000
0010
0000
,
1000
0000
1000
0000
,
0001
0000
0001
0000
,
0100
0000
0100
0000
,
0010
0010
0010
0000
,
0110
0000
0100
0000
,
0001
0000
0001
0000
,
1000
0000
1000
0000
,
0010
0000
0010
0000
,
1001
0000
1000
0000
,
0100
0000
0100
0000
,
0010
0000
0010
0000
,
0001
0000
0001
0000
,
0110
0000
0100
0000
,
1000
0000
0100
0000
,
0010
0000
0001
0000
,
0010
0000
0001
0000
,
1001
0000
0010
0000
,
1000
0000
0010
0000
,
0100
0000
0001
0000
,
0100
0000
0001
0000
,
1001
0000
1000
0000
,
0010
0000
0010
0000
,
0100
0000
0100
0000
,
0001
0000
0000
1001
;

//---------------dance-single - ----------------
#NOTEDATA:;
#CHARTNAME:;
#STEPSTYPE:dance-single;
#DESCRIPTION:;
#CHARTSTYLE:;
#DIFFICULTY:Easy;
#METER:4;
#RADARVALUES:0.242,0.235,0.075,0.199,0.000,171.000,9.000,24.000,0.000,0.000,0.000,0.000,0.000,0.242,0.235,0.075,0.199,0.000,171.000,9.000,24.000,0.000,0.000,0.000,0.000,0.000;
#CREDIT:;
#NOTES:
0000
0000
0000
0000
,
0000
0000
0000
0000
,
0000
0000
0000
0000
,
0000
0000
0000
0000
,
0000
0000
0000
0000
,
2002
3003
1000
0001
,
1000
0010
0100
0010
,
1000
0100
0010
0001
,
1000
0010
0100
0100
,
0220
0330
0010
1000
,
0010
0100
0001
0010
,
0001
0100
0001
1000
,
0001
0010
0100
1000
,
2002
0003
0000
0001
,
0010
0010
3010
0100
,
0001
0010
0010
0100
,
1000
0010
0010
0100
,
0220
0030
0000
0010
,
0001
0001
0301
1000
,
0010
0010
0010
1000
,
0100
0100
0100
0010
,
2002
0000
0003
0000
,
0020
0000
3000
0000
,
0200
0000
0030
0000
,
0002
0000
0300
0000
,
2000
0000
0003
0000
,
0200
0000
3000
0000
,
0020
0000
0300
0000
,
0002
0000
0033
0000
,
1000
0100
1000
0100
,
0010
0001
0010
0001
,
0100
0001
0100
0001
,
0010
1000
0010
1000
,
0100
0010
0100
0010
,
0001
1000
0001
1000
,
0010
0010
0100
0100
,
1000
1000
0001
0001
,
2001
0010
0000
3010
,
0200
0010
0000
0310
,
0001
0010
0100
1000
,
0001
0100
0010
1000
,
1002
0010
0000
0013
,
0200
0010
0000
0310
,
1000
0100
0010
0001
,
1000
0010
0100
0001
,
1000
0000
0010
0000
1000
0010
0000
2000
,
0000
0001
0000
3001
,
0001
0000
0010
0000
0001
0010
0000
0002
,
0000
1000
0000
1003
,
1000
0000
0100
0000
1000
0100
0000
2000
,
0000
0001
0000
3001
,
0001
0100
0001
0010
,
0100
1000
0001
1001
,
1000
0010
1000
1000
,
0001
0010
0001
0001
,
1000
0100
1000
1000
,
0001
0100
0001
1001
;

//---------------dance-single - ----------------
#NOTEDATA:;
#CHARTNAME:;
#STEPSTYPE:dance-single;
#DESCRIPTION:;
#CHARTSTYLE:;
#DIFFICULTY:Medium;
#METER:7;
#RADARVALUES:0.341,0.329,0.075,0.290,0.000,244.000,9.000,35.000,0.000,0.000,0.000,0.000,0.000,0.341,0.329,0.075,0.290,0.000,244.000,9.000,35.000,0.000,0.000,0.000,0.000,0.000;
#CREDIT:;
#NOTES:
0000
0000
0000
0000
,
0000
0000
0000
0000
,
0000
0000
0000
0000
,
0000
0000
0000
0000
,
0000
0000
0000
0000
,
2002
0000
3003
1000
0010
0000
1000
0000
,
0001
0010
0001
0010
0001
0000
0100
0000
,
1000
0100
1000
0100
1000
0000
0010
0000
,
0001
0100
0001
0100
0001
0000
0010
0000
,
0220
0000
0330
1000
0001
0000
1000
0000
,
0001
0100
0001
0100
0001
0000
1000
0000
,
0001
0010
0001
0010
0001
0000
1000
0000
,
0100
0010
0100
0010
0100
0000
0110
0000
,
2002
0000
0000
0000
3003
0000
1000
0001
,
0100
0000
0100
0010
0100
0000
0010
0000
,
1000
0000
1000
0001
1000
0000
0001
0000
,
0010
0000
0010
0100
0010
0000
0100
0000
,
0220
0000
0000
0000
0330
0000
0010
0100
,
0001
0000
0001
1000
0001
0000
1000
0000
,
0010
0000
0010
1000
0010
0000
1000
0000
,
0001
0000
0001
0010
0001
0000
0010
0000
,
2002
0000
0003
0010
,
0200
0000
0000
3300
,
0001
0100
0001
0100
0001
0000
1000
0200
,
0000
0000
0310
0002
0000
0000
1003
0000
,
0022
0000
0030
0100
,
2000
0000
0000
3003
,
1000
0100
1000
0100
1000
0000
0001
0200
,
0000
0000
0310
2000
0000
0000
3000
0000
,
0001
0000
0010
0000
0001
0100
0000
0020
,
0000
1000
0000
0130
,
1000
0000
0010
0000
1000
0100
0000
0020
,
0000
0001
0000
0130
,
1000
0100
1000
0000
0010
1000
0010
0000
,
0100
0001
0100
0000
0001
0010
0001
0000
,
1000
0001
1000
0001
1000
0000
0001
2000
,
0000
0000
3010
0200
0000
0000
0310
0000
,
0110
0000
0010
1000
0010
0000
0200
0000
,
0302
0000
1003
0010
1000
0000
0001
0000
,
1000
0100
1000
0100
1000
0000
0100
0002
,
0000
0000
0013
0002
0000
0000
1003
0000
,
0001
0000
0010
0100
0010
0000
0002
0000
,
2003
0000
3010
0100
0010
0000
1000
0000
,
0001
0100
0001
0100
0001
0000
0100
0020
,
0000
0000
1030
0020
0000
0000
0130
0000
,
1000
0100
1000
0010
1000
0100
0000
0020
,
0000
0001
0100
1030
,
0001
0010
0001
0100
0001
0010
0000
0200
,
0000
1000
0010
0301
,
1000
0010
1000
0100
1000
0010
0000
0002
,
0000
0010
0100
1003
,
0001
0100
0001
0010
0001
0000
1000
0020
,
0000
0000
0130
0002
0000
0000
1003
0000
,
0010
0000
1000
0100
1000
1000
0010
0000
,
0001
0010
0001
0000
0100
0001
0100
0100
,
0010
0000
1000
0100
0010
0010
0001
0000
,
1000
0010
0100
1001
;
