
//----- song ID: cafe -----//
#TITLE:NA-NA;
#ARTIST:BUSā˜…STOP;
#BANNER:NA-NA.png;
#BACKGROUND:NA-NA-bg.png;
#CDTITLE:./CDTITLES/ZIPMANIA III.PNG;
#MUSIC:NA-NA.ogg;
#SAMPLESTART:66.291;
#SAMPLELENGTH:15;
#DISPLAYBPM:133;
#BPMS:0=133.043;

//---------------dance-single - ----------------
#NOTES:
     dance-single:
     :
     Easy:
     3:
     :
0000
0000
0000
0000
,
0000
0000
0000
0000
,
0000
0000
0000
0000
,
0000
0000
0000
0000
,
0000
0000
0000
0000
,
1000
0001
1000
0000
,
0010
1000
0010
0000
,
1000
0001
0100
0000
,
0001
0000
1000
0000
,
0100
1000
0001
0000
,
0100
0010
1000
0000
,
0001
0001
0100
0000
,
0001
0000
1001
0000
,
1000
1000
1000
1000
,
0001
0000
0100
0000
,
0001
0001
1000
1000
,
0001
0010
0100
1000
,
0010
0100
0001
0100
,
0001
0001
1000
0000
,
0010
0000
0100
0000
,
0001
0010
0100
1000
,
0010
0100
0001
1000
,
0001
0000
1000
0000
,
0010
1000
0001
0100
,
0001
0010
0100
1000
,
0001
0100
0001
1000
,
0010
0010
0100
0000
,
0001
1000
0100
0010
,
0001
0100
0010
1000
,
0001
1000
0100
0000
,
0010
0001
1000
0000
,
0010
1000
0001
0100
,
0001
0001
1001
0000
,
0010
0001
1000
0000
,
0010
0100
0001
0000
,
1000
0001
0100
0010
,
1000
1000
1001
0000
,
0001
0100
0001
1000
,
0100
1000
0100
0010
,
0001
0001
0001
1000
,
0001
0100
1001
0010
,
1000
0100
1000
0001
,
0100
0001
0100
0010
,
1000
1000
1000
0001
,
1000
0010
1001
0000
;

//---------------dance-single - ----------------
#NOTES:
     dance-single:
     :
     Medium:
     5:
     :
0000
0000
0000
0000
,
0000
0000
0000
0000
,
0000
0000
0000
0000
,
0000
0000
0000
0000
,
0000
0000
0000
0000
0000
0000
1000
0100
,
1000
0000
1000
0000
0000
0000
0001
0100
,
0001
0001
0000
1000
,
0100
0000
0010
0000
0001
0000
1000
0010
,
0100
0000
0001
0010
0100
0000
1000
0100
,
1000
0000
0001
0000
0100
0000
0010
1000
,
0010
0100
0001
1000
,
0100
0000
0010
0000
0001
0000
0100
1000
,
0100
0000
0001
0010
0001
0000
1000
0010
,
0100
0001
1000
0000
1000
0000
1000
0100
,
1000
0000
0001
0000
0010
0100
1000
0000
,
0100
0001
0100
0001
,
1000
0100
0010
0000
0001
0100
1000
0000
,
1000
0100
0100
0100
,
0001
0100
0001
1000
0000
1001
0000
0000
,
1000
0000
0100
0010
0000
0000
0000
0001
,
0000
0001
0000
1000
0000
1010
0000
0000
,
1000
0000
0100
0010
0000
0000
0000
0001
,
1000
0010
0100
0001
0000
0101
0000
0000
,
0010
0000
0100
1000
0000
0000
0000
0001
,
1000
0100
0010
0001
0000
1001
0000
0000
,
0001
0000
0100
0010
0000
0000
0000
1000
,
0001
0010
0100
1000
0000
1001
0000
0000
,
1000
0001
0100
0010
,
1000
0000
1000
0000
0001
0000
1000
0100
,
1000
0000
1000
0000
0010
0000
0100
0001
,
1000
1000
0010
0100
,
0001
0000
1000
0000
0100
0000
1000
0001
,
0100
0000
0010
1000
0100
0000
1000
0001
,
0100
0000
0010
0000
1000
0000
0001
0100
,
0010
1000
0001
0010
,
0001
0000
0010
0000
0001
0000
1000
0100
,
0010
0000
0001
1000
0100
0000
1000
0001
,
0100
0100
0010
0000
1000
0000
0001
0100
,
0010
0010
1000
0000
0001
0000
1000
0000
,
0100
0100
1000
0000
0100
0000
0010
0001
,
0010
0000
0100
1000
0100
0000
1000
0010
,
1010
0000
0100
0000
0001
0001
1000
0100
,
1100
0000
0001
0000
0100
0100
0010
0000
,
1000
0000
0001
0000
0100
0100
0010
1000
,
0001
1000
1001
0000
;

//---------------dance-single - ----------------
#NOTES:
     dance-single:
     :
     Hard:
     8:
     :
0000
0000
0000
0000
,
0000
0000
0000
0000
,
0000
0000
0000
0000
,
0000
0000
0000
0000
,
0000
0000
0000
0000
,
1000
0000
0001
0000
1000
0000
0100
0000
1000
0000
0100
1000
0100
0000
0000
0000
,
0010
0000
0001
0000
1000
0000
0010
0000
1000
0000
0010
1000
0010
0000
0000
0000
,
0100
0000
0001
0000
1000
0000
0100
0000
0010
0000
0001
0010
0001
0000
0000
0000
,
1000
0000
0010
0000
0100
0000
0001
0000
1000
0000
0100
1000
0100
0000
0000
0000
,
1000
0000
0001
0000
0100
0000
1000
0000
0100
0000
0001
0100
0010
0000
0000
0000
,
1000
0000
0100
0000
0010
0000
0001
0000
0100
0000
0001
1000
0010
0000
0000
0000
,
0100
0000
0001
0000
0100
0000
1000
0000
0100
0000
0001
0100
0010
0000
0000
0000
,
1000
0000
0001
0000
0010
0000
0001
0000
0100
0000
0010
1000
0010
0000
0000
0000
,
1000
0010
0100
0000
0001
0001
0001
0000
,
0100
0001
1000
0100
0001
0001
0100
0000
,
0010
0001
1000
0000
0100
0100
0100
0000
,
0001
0100
1000
0100
1000
1000
0001
0000
,
1000
0010
0100
0001
1000
0010
0100
0001
,
1000
0100
0010
0001
0001
0100
1000
0000
,
0100
0001
1000
0100
0001
0100
0001
0100
,
1000
1000
0001
0100
0010
0010
0010
0000
,
1000
0010
0100
0000
0001
0001
0001
0000
,
0010
0001
1000
0010
1000
1000
0100
0000
,
0010
0001
1000
0000
0010
0010
0010
0000
,
0001
1000
0100
0010
1000
1000
0001
0000
,
1000
0100
0010
0001
1000
0100
0010
0001
,
1000
0010
0100
0001
0001
0010
0100
0000
,
0010
0001
1000
0100
0010
0001
1000
0100
,
1000
1000
0001
0001
0100
0100
0100
0100
,
1000
0100
1000
0100
0010
0100
0010
0100
,
1000
0001
1000
0001
0100
0010
0100
0010
,
1000
0100
1000
0100
0010
0001
0010
0001
,
1000
0010
0100
0001
1000
0000
0000
0000
,
0100
0001
0100
1000
0100
0001
0100
1000
,
0010
0001
0010
1000
0010
0001
0010
1000
,
0001
0010
0100
1000
0001
0100
0010
1000
,
0100
0001
0100
1000
1001
0000
0000
0000
,
0001
0000
1000
0000
0001
0000
0100
0000
0001
0000
0100
0001
0100
0000
0000
0000
,
0010
0000
1000
0000
0001
0000
0010
0000
0001
0000
0010
0001
0010
0000
0000
0000
,
0100
0000
1000
0000
0001
0000
0100
0000
0010
0000
1000
0010
0100
0000
0000
0000
,
0001
0000
0010
0000
0100
0000
1000
0000
0001
0000
0100
0001
1000
0000
0000
0000
,
0010
0000
0100
0000
0001
0000
0001
0000
1000
0000
0100
0010
0001
0000
0000
0000
,
0001
0000
0100
0000
0010
0000
1000
0000
0010
0000
1000
0001
0100
0000
0000
0000
,
0010
0000
1000
0000
0100
0000
0100
0000
0010
0000
0001
0010
0100
0000
0000
0000
,
1000
1100
1001
0000
;

//---------------dance-double - ----------------
#NOTES:
     dance-double:
     :
     Easy:
     3:
     :
00000000
00000000
00000000
00000000
,
00000000
00000000
00000000
00000000
,
00000000
00000000
00000000
00000000
,
00000000
00000000
00000000
00000000
,
00000000
00000000
00000000
00000000
,
10000000
00010000
00000000
00000000
,
01000000
00001000
00000000
00000000
,
00010000
00000100
00000000
00000000
,
00001001
00000000
00000000
00000000
,
00000010
00010000
00000000
00000000
,
00001000
00100000
00000000
00000000
,
00010000
10000000
00000000
00000000
,
10010000
01000000
10010000
00000000
,
10000000
01000000
00001000
01000000
,
00010000
00001000
01000000
00001000
,
00010000
00000010
00001000
00000001
,
00000100
00000100
00001000
01000000
,
00010000
00100000
00001000
01000000
,
00010000
00001000
00000100
00001000
,
00000001
00000100
00001000
00010000
,
00000100
00000100
00010000
00001000
,
00011000
00000000
01000000
01000000
,
00010000
00100000
00001000
00010000
,
00011000
00000000
00000100
00000100
,
00001000
00000010
00001000
00000001
,
00001001
00000000
00000010
00010000
,
00001000
01000000
00100000
10000000
,
00010000
00010000
00010000
00010000
,
01000000
00001000
00010000
00010000
,
00000010
00001000
00000000
00000000
,
00000100
00010000
00000000
00000000
,
00001000
01000000
00000000
00010000
,
01000000
00001000
00011000
00000100
,
00001000
00000001
00000000
00000000
,
00000010
00000100
00000000
00000000
,
00010000
00001000
00000000
01000000
,
00010000
10000000
10010000
00100000
,
00001000
00010000
00000000
00000010
,
00001000
00000001
00000000
00000100
,
00001000
00000100
00000000
00000001
,
00001001
00000100
00011000
00001000
,
01000000
00010000
00100000
00001000
,
00010000
00000010
00001000
00000001
,
00000100
00000100
00000100
00000010
,
00010000
00001000
00011000
00000000
;

//---------------dance-double - ----------------
#NOTES:
     dance-double:
     :
     Medium:
     5:
     :
00000000
00000000
00000000
00000000
,
00000000
00000000
00000000
00000000
,
00000000
00000000
00000000
00000000
,
00000000
00000000
00000000
00000000
,
00000000
00000000
00000000
00000000
,
10010000
00000000
01000000
01000000
,
00011000
00000000
00000100
00000100
,
00001000
00000001
00000100
00000010
,
00010000
00010000
00001000
01000000
,
01100000
00000000
00010000
10000000
,
11000000
00000000
00100000
00001000
,
00010000
00000100
00000010
00000001
,
00000100
00000100
00000100
00000100
,
00000010
00001000
00000100
00000000
00010000
00000000
00001000
00000000
,
01000000
00010000
00100000
00000000
00001000
00010000
00000100
00000000
,
00000010
00000001
00001000
00000100
00010000
00000000
00001000
00000000
,
00100000
00010000
01000000
00000000
00100000
10000000
01000000
00100000
,
00010000
01000000
00100000
00000000
10000000
00000000
00010000
00000000
,
01000000
00010000
00100000
00000000
00001000
00010000
00000010
00000000
,
00000100
00000001
00001000
00000100
00010000
00000000
00001000
00000000
,
01000000
00010000
00100000
00000000
01000000
10000000
00100000
01000000
,
00010000
00000000
01000000
00000000
00100000
10000000
01000000
00000000
,
00010000
00000000
00001000
00000000
00000010
00000100
00001000
00000000
,
00000010
00000000
00000100
00000000
00000001
00000010
00000100
00000000
,
00010000
00000000
00001000
00000000
01000000
00010000
10000000
00000000
,
00010000
00000000
00001000
00000000
01000000
01000000
01000000
00000000
,
00001000
00010000
00000100
00000000
00001000
00000001
00000100
00000000
,
00001000
00000000
00100000
00000000
00010000
00010000
00010000
00000000
,
10000000
00100000
01000000
00001000
00010000
00000100
00001000
00000001
,
00000011
00000000
00000001
00001000
,
00001010
00000000
00010000
00001000
,
01000000
00010000
10000000
00100000
,
01000000
01000000
00001000
00010000
,
00001100
00000010
00000001
00001000
,
00001010
00010000
00001000
01000000
,
00100000
10000000
00100000
00000000
01000000
00000000
01000000
00000000
,
00001000
00010000
00001000
00000000
00010000
00000000
00000010
00000000
,
00000101
00000010
00010000
00001000
,
00011000
00001000
01000000
00010000
,
00100000
00010000
10000000
01000000
,
00100000
00010000
00100000
00000000
00001000
00000000
00010000
00000000
,
00001010
00000100
00000001
00001000
,
00001100
00010000
00001000
00100000
,
01000000
10000000
01000000
00000000
00100000
00010000
00100000
00000000
,
00001000
00010000
00001000
00000000
00011000
00000000
00000000
00000000
;

//---------------dance-double - ----------------
#NOTES:
     dance-double:
     :
     Hard:
     8:
     :
00000000
00000000
00000000
00000000
,
00000000
00000000
00000000
00000000
,
00000000
00000000
00000000
00000000
,
00000000
00000000
00000000
00000000
,
00000000
00000000
00000000
00000000
00000000
00000000
00010000
00010000
,
00000100
00000000
00001000
00000000
00000001
00000000
00000100
00000000
00000010
00000000
00001000
00000010
00010000
00000000
00010000
00000000
,
00001000
00000000
01000000
00000000
00100000
00000000
10000000
00000000
00010000
00000000
01000000
00010000
10000000
00000000
01000000
00000000
,
00010000
00000000
00001000
00000000
00010000
00000000
00000100
00000000
00001000
00000000
00000010
00001000
00000100
00000000
00000100
00000000
,
00000010
00000000
00000000
00000000
00000001
00000000
00000000
00000000
00000001
00000000
00000100
00000001
00000100
00000000
00000100
00000000
,
00000010
00000000
00010000
00000000
00001000
00000000
01000000
00000000
00100000
00000000
10000000
00100000
01000000
00000000
01000000
00000000
,
00001000
00000000
00010000
00000000
00000100
00000000
00000010
00000000
00000001
00000000
00000100
00000010
00010000
00000000
00000100
00000000
,
00010000
00000000
00001000
00000000
01000000
00000000
00010000
00000000
00100000
00000000
01000000
10000000
00010000
00000000
00000100
00000000
,
00000001
00000000
00001000
00000100
00010000
00000000
00011000
00000000
,
00100000
10000000
00100000
10000000
01000000
10000000
01000000
10000000
,
01000000
00010000
01000000
00010000
00001000
00010000
00001000
00010000
,
00001000
00000010
00001000
00000010
00000001
00000010
00000001
00000010
,
00000001
00000100
00000001
00000100
00000001
00001000
00001000
00000000
,
00000001
00000100
00000010
00001000
00000010
00001000
00000100
00000100
,
00010000
00001000
00010000
00001000
00100000
00010000
00100000
00010000
,
01000000
00010000
01000000
10000000
01000000
01000000
00010000
10000000
,
01000000
00010000
00010000
01000000
00010000
00100000
00001000
00010000
,
00000100
00001000
00000100
00000001
00000100
00000010
00001000
00001000
,
00010000
00001000
00010000
00001000
00000100
00000010
00000100
00000001
,
00001000
00000001
00001000
00000001
00000100
00000010
00001000
00000001
,
00000100
00000010
00001000
00000001
00000100
00000100
00000010
00010000
,
00001000
01000000
01000000
00010000
00100000
00010000
01000000
00100000
,
10000000
01000000
00100000
00010000
00100000
00010000
01000000
01000000
,
11000000
01100000
00110000
00011000
,
00001010
00000110
00000101
00001010
,
00000001
00000100
00001000
00000100
00000001
00000010
00000100
00001000
,
00000010
00010000
00001000
00010000
01000000
10000000
00100000
10000000
,
01000000
00010000
01000000
10000000
00100000
01000000
00010000
00100000
,
00001000
00010000
00000010
00000100
00000001
00001000
00001001
00000000
,
00000100
00010000
00001000
01000000
00010000
00100000
01000000
00010000
,
00001000
00010000
00000010
00001000
00000001
00000100
00000010
00001000
,
00000100
00001000
00000100
00000001
00000100
00001000
00000010
00010000
,
00001000
01000000
00100000
01000000
00010000
10000000
10010000
00100000
,
01000000
00000000
00010000
00000000
10000000
00000000
01000000
00000000
00100000
00000000
00010000
00100000
00001000
00000000
00001000
00000000
,
00010000
00000000
00000100
00000000
00000010
00000000
00000001
00000000
00001000
00000000
00000100
00001000
00000001
00000000
00000100
00000000
,
00001000
00000000
00010000
00000000
00001000
00000000
01000000
00000000
00010000
00000000
00100000
00010000
01000000
00000000
01000000
00000000
,
00100000
00000000
00000000
00000000
10000000
00000000
00000000
00000000
10000000
00000000
01000000
10000000
01000000
00000000
01000000
00000000
,
00100000
00000000
00001000
00000000
00010000
00000000
00000100
00000000
00000010
00000000
00000001
00000010
00000100
00000000
00000100
00000000
,
00010000
00000000
00001000
00000000
01000000
00000000
00100000
00000000
10000000
00000000
01000000
00100000
00001000
00000000
01000000
00000000
,
00001000
00000000
00010000
00000000
00000100
00000000
00001000
00000000
00000010
00000000
00000100
00000001
00001000
00000000
00000100
00000000
,
00010000
01000000
10010000
00000000
;

//---------------dance-couple - ----------------
#NOTES:
     dance-couple:
     :
     Challenge:
     7:
     :
00000000
00000000
00000000
00000000
,
00000000
00000000
00000000
00000000
,
00000000
00000000
00000000
00000000
,
00000000
00000000
00000000
00000000
,
00000000
00000000
00000000
00000000
00000000
00000000
10000000
01000000
,
10000001
00000000
10000000
00000000
00000000
00000000
00000001
00000100
,
10000001
00000001
00000000
10001000
,
01000100
00000000
00100010
00000000
00010001
00000000
10000000
00100000
,
01000000
00000000
00000001
00000010
00000100
00000000
10000000
01000000
,
10000001
00000000
00010000
00000000
00000000
00000000
00001000
00000100
,
10001000
00000001
00000000
00010001
,
10001000
00000000
01000100
00000000
00100010
00000000
00010000
01000000
,
00100000
00000000
00000001
00000100
00000010
00000000
00100000
00000000
,
10000001
00100000
01000000
00000000
00010001
00010000
00010000
00000000
,
01000001
00010000
10000000
01000000
00010001
00010000
01000000
00000000
,
00100001
00010000
10000000
00000000
01000001
01000000
01000000
00000000
,
00010001
01000000
10000000
01000000
10000001
10000000
00010010
00000000
,
10001000
00000010
00000100
00000000
10000001
00000001
00000001
00000000
,
10000100
00000001
00001000
00000100
10000001
00000001
00000100
00000000
,
10000010
00000001
00001000
00000000
10000100
00000100
00000100
00000000
,
10000001
00000100
00001000
00000100
10001000
00001000
00000001
00000000
,
10001000
00100010
01000100
00000000
00010001
00010001
00010001
00000000
,
00100010
00010001
10001000
00100010
10001000
10001000
01000100
00000000
,
10001000
00000100
00000010
00000001
10001000
00000100
00000010
00000001
,
10001000
00000010
00000100
00000001
10000001
00000010
00000100
00000000
,
10000001
01000000
00100000
00010000
10000001
01000000
00100000
00010000
,
10000001
00100000
01000000
00010000
00010001
00100000
01000000
00000000
,
00100010
00010001
10001000
01000100
00100010
00010001
10001000
01000100
,
10001000
10001000
00010001
00010001
01000100
01000100
01000100
00000000
,
10000001
00000000
00001000
00000000
00000001
00000000
00000100
00000000
10000001
00000000
00000100
00000001
00000100
00000000
00000000
00000000
,
10000010
00000000
00001000
00000000
00000001
00000000
00000010
00000000
10000001
00000000
00000010
00000001
00000010
00000000
00000000
00000000
,
10000100
00000000
00001000
00000000
00000001
00000000
00000100
00000000
10000010
00000000
00001000
00000010
00001000
00000000
00000000
00000000
,
10000001
00000000
00000010
00000000
00000100
00000000
00001000
00000000
10000001
00000000
00000100
00000001
00000100
00000000
00000000
00000000
,
10000001
00000000
00010000
00000000
10000000
00000000
01000000
00000000
10000001
00000000
01000000
10000000
01000000
00000000
00000000
00000000
,
00100001
00000000
00010000
00000000
10000000
00000000
00100000
00000000
10000001
00000000
00100000
10000000
00100000
00000000
00000000
00000000
,
01000001
00000000
00010000
00000000
10000000
00000000
01000000
00000000
00100001
00000000
00010000
00100000
00010000
00000000
00000000
00000000
,
10000001
00000000
00100000
00000000
01000000
00000000
00010000
00000000
10000001
00000000
01000000
10000000
01000000
00000000
00000000
00000000
,
10001000
00000000
00000001
00000000
00000100
00000000
00001000
00000000
10000100
00000000
00000001
00000100
00000010
00000000
00000000
00000000
,
10001000
00000000
00000100
00000000
00000010
00000000
00000001
00000000
10000100
00000000
00000001
00001000
00000010
00000000
00000000
00000000
,
10000001
00000000
00010000
00000000
01000000
00000000
10000000
00000000
01000001
00000000
00010000
01000000
00100000
00000000
00000000
00000000
,
10000001
00000000
01000000
00000000
00100000
00000000
00010000
00000000
01000001
00000000
00010000
10000000
00100000
00000000
00000000
00000000
,
00100100
00000000
01000010
00000000
00010001
00000000
00010001
00000000
10001000
00000000
01000010
00100100
00010001
00000000
00000000
00000000
,
00010001
00000000
01000010
00000000
00100100
00000000
10001000
00000000
00100100
00000000
10001000
00010001
01000010
00000000
00000000
00000000
,
00100100
00000000
10001000
00000000
01000010
00000000
01000010
00000000
00100100
00000000
00010001
00100100
01000010
00000000
00000000
00000000
,
10001000
00010001
01000010
00100100
10011001
00000000
00000000
00000000
;

//---------------dance-solo - ----------------
#NOTES:
     dance-solo:
     :
     Easy:
     3:
     :
000000
000000
000000
000000
,
000000
000000
000000
000000
,
000000
000000
000000
000000
,
000000
000000
000000
000000
,
000000
000000
000000
000000
,
100000
000001
001000
000000
,
000010
010000
001000
000000
,
000100
000001
001000
000000
,
000100
100000
100001
000000
,
000100
001000
000001
000000
,
010000
001000
100000
000000
,
000001
000100
001000
000000
,
010000
000010
100001
000000
,
100000
001000
010000
001000
,
000100
000001
000010
001000
,
000100
000001
010000
010000
,
000001
100000
000001
100000
,
000010
010000
000001
100000
,
001000
000010
001000
010000
,
001000
100000
000001
000001
,
001000
100000
001000
010000
,
100000
100000
100000
100000
,
000010
000010
000010
000010
,
000100
000001
010000
010000
,
000010
100000
000001
010000
,
000001
000001
000001
000001
,
010000
010000
010000
010000
,
001000
100000
000001
000001
,
001000
010000
001000
000001
,
100000
000001
001000
001000
,
000010
010000
001000
001000
,
000100
000001
001000
000000
,
000100
100000
100001
000000
,
000100
001000
000001
000001
,
010000
001000
100000
100000
,
000001
000100
001000
000000
,
010000
000010
100001
000000
,
010000
000001
001000
000100
,
100000
000010
001000
000001
,
010000
000010
100000
000001
,
010000
010000
100001
000000
,
000010
001000
000100
100000
,
000001
000100
000001
001000
,
000010
010000
000001
100000
,
000010
010000
100001
000000
;

//---------------dance-solo - ----------------
#NOTES:
     dance-solo:
     :
     Medium:
     5:
     :
000000
000000
000000
000000
,
000000
000000
000000
000000
,
000000
000000
000000
000000
,
000000
000000
000000
000000
,
000000
000000
000000
000000
,
110000
110000
000001
001000
,
000011
000011
100000
001000
,
010000
000010
100000
000001
,
010100
010100
001000
100000
,
000011
000011
100000
001000
,
110000
110000
000001
001000
,
000010
010000
000001
100000
,
000110
000110
001000
000000
,
010000
000010
100000
000010
001000
000000
000100
000000
,
100000
000010
100000
000001
001000
000000
000100
000000
,
010000
000010
001000
000000
000001
000000
100000
000000
,
000100
100000
001000
000000
000100
000001
001000
000000
,
000010
010000
000001
010000
001000
000000
000100
000000
,
000001
010000
000001
100000
001000
000000
000100
000000
,
000010
010000
001000
000000
100000
000000
000001
000000
,
000100
000001
001000
000000
000100
100000
001000
000000
,
010000
000000
001000
000000
000010
001000
100000
000000
,
000010
000000
001000
000000
010000
001000
000001
000000
,
100000
000000
000010
000000
001000
100000
001000
000000
,
000001
000000
010000
000000
001000
000010
001000
000000
,
100000
000000
000001
000000
001000
001000
001000
000000
,
000010
000010
000010
000000
010000
010000
010000
000000
,
000010
000000
001000
000000
100000
100000
100000
000000
,
001000
001000
001000
000000
000001
000001
000001
000000
,
110000
110000
000001
001000
,
000011
000011
100000
001000
,
010000
000010
100000
000001
,
001000
010000
001000
000000
000001
000000
100000
000000
,
000011
000000
000011
000000
100000
000001
001000
000000
,
110000
000000
110000
000000
001000
000010
001000
000000
,
000010
010000
000001
100000
,
001000
000010
001000
000000
100000
000000
000001
000000
,
110000
000000
000100
000000
100000
001000
000010
000000
,
000011
000000
001000
000000
010000
000010
100000
000000
,
001000
000100
001000
100000
,
010010
001000
100001
001000
,
000011
000000
000100
000000
000001
001000
000000
000010
,
110000
000000
001000
000000
000100
001000
010000
000000
,
000001
000100
001000
100000
,
010010
001000
100001
000000
;

//---------------dance-solo - ----------------
#NOTES:
     dance-solo:
     :
     Hard:
     8:
     :
000000
000000
000000
000000
,
000000
000000
000000
000000
,
000000
000000
000000
000000
,
000000
000000
000000
000000
,
000000
000000
000000
000000
000000
000000
000001
000001
,
010000
000000
000010
000000
010000
000000
000010
000000
100000
000000
000100
001000
000001
000000
100000
000000
,
000100
000000
010000
000000
000100
000000
010000
000000
000010
000000
100000
001000
010000
000000
000001
000000
,
100000
000000
000001
000000
000100
000000
000010
000000
100000
000000
000001
000100
000000
000000
000010
000000
,
001000
001100
100000
100000
100001
000000
001000
001000
,
000010
000000
010000
000000
000010
000000
010000
000000
000001
000000
000100
001000
100000
000000
000001
000000
,
000100
000000
000010
000000
000100
000000
000010
000000
010000
000000
000001
001000
000010
000000
100000
000000
,
000001
000000
100000
000000
000100
000000
010000
000000
000001
000000
100000
000100
000000
000000
010000
000000
,
001000
001100
000001
000001
100001
000000
000000
000000
,
000100
100000
000100
100000
001000
100000
001000
100000
,
001000
000010
001000
000010
000001
000100
000001
000100
,
000010
100000
000010
100000
001000
100000
001000
100000
,
000100
001000
000100
001000
000001
010000
010000
010000
,
000001
001000
000010
100000
000010
100000
001000
001000
,
010000
000000
000001
010000
000100
100000
000100
000000
,
100000
001000
010000
000001
010000
000001
001000
001000
,
000010
000000
100000
000010
000100
000001
000100
000001
,
001000
000010
001000
000010
010000
000001
010000
000001
,
100000
000100
001000
000001
100000
000100
001000
000001
,
010000
000001
010000
000001
100000
000010
100000
000010
,
100000
000100
001000
000001
100000
100000
000010
000010
,
100000
000100
001000
000001
010000
010000
001000
001000
,
100000
000001
000100
000001
001000
010000
001000
001000
,
100001
110000
100001
000011
,
100100
001001
010010
100001
,
000001
001000
100000
001000
000001
000100
001000
010000
,
000001
000100
000010
001000
000001
000100
000010
001000
,
000001
100000
000100
010000
000001
100000
000100
010000
,
001000
100000
101000
000000
001100
000000
000010
000010
,
100000
001000
000001
001000
100000
000100
001000
000010
,
100000
000100
001000
000010
100000
000001
010000
001000
,
100000
000001
000100
000010
100000
000001
001000
000010
,
100000
000001
100001
000000
001100
000000
000001
000001
,
010000
000000
000010
000000
010000
000000
000010
000000
100000
000000
000100
001000
000001
000000
100000
000000
,
000100
000000
010000
000000
000100
000000
010000
000000
000010
000000
100000
001000
010000
000000
000001
000000
,
100000
000000
000001
000000
000100
000000
000010
000000
100000
000000
000001
000100
000000
000000
000010
000000
,
001000
001100
100000
100000
100001
000000
001000
001000
,
000010
000000
010000
000000
000010
000000
010000
000000
000001
000000
000100
001000
100000
000000
000001
000000
,
000100
000000
000010
000000
000100
000000
000010
000000
010000
000000
000001
001000
000010
000000
100000
000000
,
000001
000000
100000
000000
000100
000000
010000
000000
000001
000000
100000
000100
000000
000000
010000
000000
,
001000
001100
000001
000000
100001
000000
000000
000000
;
