
//----- song ID: cafe -----//
#TITLE:CAFE;
#ARTIST:D.D.SOUND;
#BANNER:CAFE.png;
#BACKGROUND:CAFE-bg.png;
#CDTITLE:./CDTITLES/DANCEMANIA SUPER CLASSICS 3.PNG;
#MUSIC:CAFE.ogg;
#SAMPLESTART:61.264;
#SAMPLELENGTH:15;
#DISPLAYBPM:129;
#BPMS:0=128.787;

//---------------dance-single - ----------------
#NOTES:
     dance-single:
     :
     Easy:
     3:
     :
0000
0000
0000
0000
,
0000
0000
0000
0000
,
0000
0000
0000
0000
,
0000
0000
0000
0000
,
0000
0000
0000
0000
,
0010
0000
0010
1000
,
0001
0000
1000
0001
,
0100
0010
0100
0001
,
1000
0100
0010
0001
,
1000
0000
0000
0010
,
0100
0000
0000
0001
,
1000
0100
1000
0100
,
1000
0010
1000
0001
,
0100
0000
0001
0100
,
0010
0000
1000
0010
,
0100
0001
1000
0010
,
1001
0000
0000
0000
,
0100
0001
0100
0010
,
1000
0000
0000
0010
,
1000
0001
0100
0001
,
0010
0000
0010
1000
,
0001
1001
0100
0000
,
0010
0000
1000
0001
,
0100
0000
0100
0000
,
1001
0000
0000
1000
,
0001
0000
0000
0100
,
0010
0000
1000
0001
,
0100
0010
1000
0001
,
0100
0000
0100
0010
,
1000
0000
1000
0000
,
0001
0000
0001
0100
,
0010
1000
0001
0010
,
0100
1000
0001
0100
,
0010
0000
1001
0100
,
0010
1000
0001
0100
,
0001
0000
0110
1000
,
0001
0100
0010
1000
,
0001
0000
0001
0000
,
1000
0000
1000
0010
,
0100
0000
0100
0010
,
1000
0000
0000
0000
,
0000
0001
0001
0001
,
0010
0000
0001
0000
,
1000
0000
0100
0010
,
0001
0000
0001
0000
,
1000
0000
1000
0110
,
0001
0000
0100
0000
,
0010
0000
1000
0001
,
0100
0100
0010
1000
,
1001
0000
0000
0000
;

//---------------dance-single - ----------------
#NOTES:
     dance-single:
     :
     Medium:
     5:
     :
0000
0000
0000
0000
,
0000
0000
0000
0000
,
0000
0000
0000
0000
,
0000
0000
0000
0000
,
0000
0000
0000
0000
,
1000
0000
0000
0001
0100
0000
0010
0000
,
0100
0000
0100
0001
1000
0000
0010
0000
,
0100
0000
0001
1000
0001
0000
0100
0000
,
0010
0000
0010
0100
0001
0000
1000
0000
,
0010
0000
0000
0100
0010
0000
1000
0000
,
0001
0000
0001
0100
0010
0000
1000
0000
,
0010
0000
0100
0010
1000
0000
0001
0000
,
0100
0100
0100
1001
,
0100
0000
0010
0010
1000
0000
1100
0000
,
0010
0000
0001
0001
0100
0000
0101
0000
,
0010
1010
1001
0011
,
0110
0000
0000
0000
0000
0000
1000
0001
,
0100
0000
0010
0000
1000
0000
0001
0100
,
0010
0000
0010
1000
0001
0000
0100
0010
,
1000
1000
0001
0100
,
0010
0000
0000
0000
1000
0000
1000
0001
,
0100
0010
1000
1100
,
0001
0000
0001
0000
,
1000
0000
0000
0101
,
1001
0000
0000
0000
0100
0000
0100
0010
,
1000
0000
0001
0000
0100
0000
0100
0010
,
1000
0000
0010
0000
0100
0001
1000
0000
,
0011
1000
1100
0001
,
0100
0000
0000
0000
0100
0000
0100
0001
,
1000
0000
0001
1001
,
0100
0001
1000
0010
,
0100
0010
1000
0001
,
1000
0010
0100
0001
1000
0010
0100
0001
,
1000
0000
0000
0000
0000
0000
0000
0001
,
0100
0001
0100
0001
0100
0000
0100
0001
,
0001
0000
0000
0000
0000
0000
0000
1000
,
0100
1000
0100
1000
0001
0000
0000
0010
,
1000
0000
1000
0000
,
0001
0000
0000
0000
0100
0000
0100
0010
,
1000
0000
1000
0001
,
0100
0001
1000
0010
,
0100
0010
1000
0001
0100
0000
0100
0000
,
0010
1000
0000
0001
0100
0000
0010
1000
,
0000
0001
0100
0000
0010
1000
0000
0001
,
0100
0000
0001
0001
,
1000
1000
1000
1001
,
0010
0100
0000
0001
0100
0000
0010
1000
,
0000
0001
0100
0000
0001
1000
0000
0010
,
0100
0000
0001
1000
,
0110
0000
0000
0000
;

//---------------dance-single - ----------------
#NOTES:
     dance-single:
     :
     Hard:
     7:
     :
0000
0000
0000
0000
,
0000
0000
0000
0000
,
0000
0000
0000
0000
,
0000
0000
0000
0000
,
0000
0000
0000
0000
0100
0010
1000
0001
,
0100
0000
0010
0010
1000
0001
0100
0010
,
1000
0000
0100
1000
0001
0100
0001
0000
,
1000
0010
0100
0100
0001
0010
0100
0000
,
0010
0100
1000
0001
0100
0001
1000
0000
,
0010
0000
0100
0100
0001
0000
1001
0000
,
0100
0000
0001
0001
1000
0000
1010
0000
,
0100
0100
0001
0001
1000
1000
0010
0010
,
1000
1000
0100
0100
0010
0000
1001
0000
,
0100
0000
0001
0001
1000
0000
1010
0000
,
0100
0000
0010
0010
1000
0000
0110
0000
,
1000
0000
0010
0000
0100
0001
1000
0010
,
1010
0000
0000
0000
0100
0001
1000
0010
,
0100
0001
1000
0011
,
1010
0000
0000
0000
0001
0010
0100
1000
,
0001
0100
0010
1010
,
1100
0000
0000
0100
1000
0001
0100
0010
,
1000
0000
0000
0001
0100
0000
0000
0010
,
1000
1010
0001
0101
,
1000
0000
1000
0000
1000
0100
1000
0100
,
1010
0000
0000
0000
0100
1000
0001
0010
,
0100
1000
0001
1010
,
0011
0000
0000
0000
1000
0010
0100
0001
,
1000
0100
0010
0011
,
0101
0000
0000
0100
0001
1000
0100
0010
,
0001
0000
0000
1000
0100
0000
0000
0010
,
0001
0011
1000
1100
,
0001
0000
0001
0000
0001
0100
0001
1000
,
0010
0100
0001
1000
0010
0100
0000
0001
,
1000
0000
0000
0000
0000
0000
1000
0001
0000
0000
0000
0000
0100
0000
0000
0000
,
0001
1000
0100
1000
,
0001
0000
0000
0000
0000
0000
0010
0100
0000
0000
0000
0000
1000
0000
0000
0000
,
0010
0000
0000
0000
0100
0000
0001
1000
0000
0000
0000
0000
0001
0000
0000
0000
,
0100
0100
0100
0001
1000
0000
1000
0000
,
0010
0000
0000
0000
0100
0000
0001
0001
,
1000
0000
0010
0000
0100
0000
0001
0000
0100
0000
0000
0010
0000
0000
0010
0000
,
1000
0001
0100
0010
,
1000
0000
0010
0000
0100
0000
0001
0000
1000
0000
0001
0000
0100
0010
0000
0000
,
0000
1000
0001
0001
0000
1000
0010
0010
,
0000
0100
0001
1000
0000
0010
1000
0001
,
0100
0000
0010
1000
0001
0000
1010
0000
,
0100
0000
0010
0100
0001
0000
1100
0000
,
0010
1000
0001
0100
0001
1000
1000
0000
,
0001
0100
0010
1000
0001
0010
0010
0000
,
0100
1000
0001
0010
0001
1000
0001
1000
,
0010
0000
0000
0000
;

//---------------dance-double - ----------------
#NOTES:
     dance-double:
     :
     Easy:
     3:
     :
00000000
00000000
00000000
00000000
,
00000000
00000000
00000000
00000000
,
00000000
00000000
00000000
00000000
,
00000000
00000000
00000000
00000000
,
00000000
00000000
00000000
00000000
,
10000000
10000000
00000000
00000000
,
00001000
00001000
00000000
00000000
,
00000001
00000000
00000001
00000000
,
00000100
00000010
00010000
00001000
,
01000000
00000000
00000000
00010000
,
00100000
00000000
00000000
00001000
,
00010000
00000000
00000010
00000000
,
00001000
00000100
00001000
00000100
,
00010000
00010000
00000000
01000000
,
00100000
00100000
00000000
10010000
,
01000000
00000000
01000000
00001000
,
00010000
00000000
00000000
00000100
,
00000001
00001000
00000010
00010000
,
00001000
00000000
00001000
00000000
,
01000000
00100000
01000000
00010000
,
10000000
00000000
10000000
00100000
,
00001000
00000000
00000000
00000001
,
00001000
00000000
00001000
00000000
,
00000010
00000010
00001000
00000001
,
00001001
00000000
00000000
00000010
,
00000100
00000100
00000010
00010000
,
00001000
00000000
01000000
00000000
,
00010000
01000000
00001000
00010000
,
00000010
00000000
00001000
00000001
,
00000001
00000000
00000100
00000000
,
00000010
00000000
00010000
00001000
,
01000000
00100000
10000000
00010000
,
01000000
00000000
00000000
00000000
,
00000001
00000000
00000000
00000000
,
01000000
00100000
01000000
00100000
,
10000000
00000000
00000000
00000000
,
00000001
00000100
00000001
00000000
,
00001000
00000000
00001000
00000000
,
00000010
00000000
00010000
00001000
,
01000000
00000000
01000000
00100000
,
10000000
00000000
00000000
00000000
,
00000000
00000000
00000000
00000000
,
10000000
00100000
01000000
00001000
,
00010000
00010000
00000010
00001000
,
00000100
00000000
00000000
00000000
,
00010000
00010000
00010000
00010000
,
00000010
00000100
00000001
00001000
,
00000010
00010000
00001000
01000000
,
00100000
00000000
00000000
10000000
,
10010000
00000000
00000000
00000000
;

//---------------dance-double - ----------------
#NOTES:
     dance-double:
     :
     Medium:
     6:
     :
00000000
00000000
00000000
00000000
,
00000000
00000000
00000000
00000000
,
00000000
00000000
00000000
00000000
,
00000000
00000000
00000000
00000000
,
00000000
00000000
00000000
00000000
,
00001000
00000000
00010000
00000010
00001000
00000000
01000000
00000000
,
10000000
00000000
00100000
01000000
00001000
00000000
00010000
00000000
,
00000010
00010010
00010100
00001001
,
00000010
00010100
00001001
00000110
,
00010000
00000010
00001000
00000000
00000010
00010000
00001000
00000000
,
01000000
00010000
10000000
00000000
10000000
00010000
01000000
00000000
,
00001000
00010010
00001000
00010100
,
00000010
00001000
00000001
00001000
,
00000100
00000000
00010000
00010000
00001000
00001000
00100000
00000000
,
01000000
00000000
00001000
00001000
00010000
00010000
00000010
00000000
,
00001000
01000000
00010000
00000100
,
00101000
00000000
00000000
00000000
00000010
00001000
00000001
00000100
,
00000010
00000000
00000010
00000000
00010000
00001000
01000000
00100000
,
10000000
00000000
10000000
00010000
01000000
00000000
01000000
00001000
,
00100000
00000000
00001000
00010000
,
00000100
00000000
00000000
00000000
00001000
00000000
00000001
00000100
,
00000010
00000010
00001000
00000000
,
01000000
01000000
00000000
00001000
,
00100000
00000000
00010000
00000000
10000000
00000000
00100000
10000000
,
00100000
00000000
00000000
00000000
00100000
00010000
10000000
01000000
,
00100000
00000000
00100000
00000000
00001000
00010000
00000100
00000010
,
00000001
00000000
00000001
00001000
00000100
00000000
00000100
00010000
,
00000010
00000000
00010000
00001000
,
01000000
00000000
00000000
00000000
00010000
00000000
10000000
01000000
,
00100000
00100000
00010000
00000000
,
00000100
00000100
00000000
00010000
,
00000010
00000000
00001000
00000000
00000001
00000000
00000010
00000001
,
00000010
00000100
00010000
00001000
01000000
00100000
01000000
00010000
,
10000000
00000000
00000000
00100000
01000000
00000000
01001000
00000000
,
00010000
00010000
00010000
00010000
,
00000100
00000000
00000000
00000010
00000100
00000000
00000101
00000000
,
00001000
00000000
00000010
00010000
00000000
00000000
00001000
00000000
,
01000000
00000000
01000000
00100000
10000000
00000000
00000000
00000000
,
10000000
00000000
00000000
00000000
10000000
00100000
01000000
00001000
,
00010000
00000000
00010000
00000010
,
00000100
00000001
00001000
00000010
,
00010000
00000010
00010000
00000010
00010000
00000010
00000100
00000000
,
00000001
00001000
00010000
00000000
10000000
00010000
00001000
00000000
,
00000001
00001000
00010000
00000000
10000000
00010000
00001000
00000000
,
00011000
00000000
00000100
00000100
,
00010000
00000100
00001000
00010000
,
10000000
00010000
00001000
00000000
00000001
00001000
00010000
00000000
,
10000000
00010000
00001000
00000000
00000001
00001000
00010000
00000000
,
00011000
00000100
00011000
00100000
,
00011000
00000000
00000000
00000000
;

//---------------dance-double - ----------------
#NOTES:
     dance-double:
     :
     Hard:
     8:
     :
00000000
00000000
00000000
00000000
,
00000000
00000000
00000000
00000000
,
00000000
00000000
00000000
00000000
,
00000000
00000000
00000000
00000000
,
00000000
00000000
00000000
00000000
10000000
00100000
01000000
00001000
,
00010000
01100000
10000000
00010000
,
00001000
00000110
00000001
00001000
,
01000000
00010000
00001000
00000000
00100000
00010000
00001000
00000100
,
00000010
00000000
00000010
00000000
00000001
00000100
00001000
00000000
,
00010000
00100000
10000000
00100000
00010000
00000000
00101000
00000000
,
00001000
00000010
00000001
00000010
00001000
00000000
00010010
00000000
,
00000001
00001000
00010000
10000000
,
10000000
00010000
00001000
00000001
,
00000010
00000100
00010000
00001000
00100000
01000000
00010000
00000000
,
10000000
00100000
01000000
00001000
00010000
00000010
00000100
00000000
,
00000001
00000010
00001000
00010000
00100000
10000000
00010000
01000000
,
00100000
00000000
00000000
00000000
00001000
01000000
00010000
00100000
,
01000000
00001000
00000010
00010000
,
01000000
00000000
00000000
00000000
00001000
00010000
00000010
00000100
,
00000001
00000010
00010000
01000000
,
00001000
00000000
00010000
01000000
00100000
00000000
10000000
10000000
,
00010000
00000000
00000000
00010000
00000000
00000000
00100000
00000000
00000000
00000000
01000000
00000000
00000000
00000000
10000000
00000000
,
00000000
00010000
01000000
00000000
00001000
00000000
00000001
00000000
,
00000100
00000100
00000010
00010000
,
01000000
00000000
00000000
00000000
00001000
00100000
00010000
01000000
,
00100000
00001000
00000100
00010000
,
00100000
00000000
00000000
00000000
00001000
00010000
00000100
00000010
,
00000001
00000100
00010000
00100000
,
00001000
00000000
00010000
00100000
01000000
00000000
10000000
10000000
,
00010000
00000000
00000000
00010000
00000000
00000000
01000000
00000000
00000000
00000000
00100000
00000000
00000000
00000000
10000000
00000000
,
00000000
00010000
00001000
00000000
00000100
00000000
00000001
00000000
,
00000010
00000010
00000100
00010000
,
00010000
00000010
00010000
00000100
00001000
00000001
00000100
00000010
,
00000010
00000000
00000000
00000010
00001000
00000000
00000001
00001000
00000000
00000000
00000000
00000000
00000100
00000000
00000000
00000000
,
00000010
00010000
01000000
00100000
,
10000000
00000000
00000000
10000000
00100000
00000000
01000000
00100000
00000000
00000000
00000000
00000000
00001000
00000000
00000000
00000000
,
00010000
00010010
00010100
00000000
,
00000001
00001000
00010000
00000000
01000000
00000000
00010000
00000000
,
10000000
00000000
00100000
00000000
01000000
00000000
01001000
00001000
,
00010000
00000000
00001000
00000000
00000001
00000000
00000100
00000000
00000010
00000000
00000000
00000100
00000000
00000000
00001000
00000000
,
00010000
00000010
00010000
00001000
,
01000000
00000000
00000000
00000000
00100000
00000000
00000000
00000000
10000000
00000000
00010000
00000000
10000000
00010000
00000000
00000000
,
01000000
00100000
00001000
00000010
00001000
00010000
01000000
00001000
,
00000100
00000010
00001000
00010000
01000000
00001000
00100000
00001000
,
00010000
01000000
11000000
00110000
,
00001000
00010000
00010010
00001010
,
00000010
00000100
00010000
01000000
00010000
00001000
00000010
00010000
,
00100000
01000000
00010000
00001000
00000010
00010000
00000100
00010000
,
00001000
00000000
01000000
00000000
00010000
10000000
00100000
01000000
,
01001000
00000000
00000000
00000000
;

//---------------dance-couple - ----------------
#NOTES:
     dance-couple:
     :
     Challenge:
     3:
     :
00000000
00000000
00000000
00000000
,
00000000
00000000
00000000
00000000
,
00000000
00000000
00000000
00000000
,
00000000
00000000
00000000
00000000
,
00000000
00000000
00000000
00000000
,
00000010
00000000
00000010
10001000
,
00000001
00000000
00001000
10000001
,
00000100
00000010
00000100
10000001
,
00001000
00000100
00000010
00000001
,
00100000
00000000
00100000
10000001
,
00010000
00000000
10000000
00010001
,
01000000
00100000
01000000
00010001
,
10000000
01000000
00100000
00010000
,
01000100
00000000
00100010
00100010
10001000
00000000
11001100
00000000
,
00100010
00000000
00010001
00010001
01000100
00000000
01010101
00000000
,
00100010
10101010
10011001
00110011
,
01100110
00000000
00000000
00000000
,
01000000
00010000
01000000
00100000
,
10000000
00000000
00000000
00000000
,
00000100
00000001
00000100
00000010
,
00001000
00000000
00000000
10001000
,
00010001
10011001
01000100
00000000
,
00100010
00000000
10001000
00010001
,
01000100
00000000
01000100
00000000
,
10011001
00000000
00000000
00000000
00000100
00000000
00000100
00000010
,
00001000
00000000
00000001
00000000
00000100
00000000
10000100
00000010
,
00001000
00000000
00000010
00000000
00000100
00000001
10001000
00000000
,
00000011
00001000
00001100
00000001
,
00000000
00000000
00000000
00000000
01000000
00000000
01000000
00100000
,
10000000
00000000
00010000
00000000
01000000
00000000
01000001
00100000
,
10000000
00000000
00100000
00000000
01000000
00010000
10000001
00000000
,
00110000
10000000
11000000
00010000
,
10001000
00100010
01000100
00010001
10001000
00100010
01000100
00010001
,
10000000
00000000
00000000
00000000
,
00010000
10000000
01000000
10000000
,
00000001
00000000
00000000
00000000
,
00000001
00001000
00000100
00001000
,
01000100
01000100
01000100
00010001
10001000
00000000
10001000
00000000
,
00100010
00000000
00000000
00000000
01000100
00000000
00010001
00010001
,
10001000
00000000
00100010
00000000
01000100
00000000
00010001
00000000
01000100
00000000
00000000
00100010
00000000
00000000
00100010
00000000
,
10001000
00010001
01000100
00100010
,
10001000
00100010
01000100
00010001
10001000
00010001
01000100
00000000
,
00000010
00001000
00000000
00000001
00000100
00000000
00000010
00001000
,
00000000
00000001
00000100
00000000
00000010
00001000
00000000
00000001
,
00000100
00000000
00010001
00010001
,
10001000
10001000
10001000
10011001
,
00100000
10000000
00000000
00010000
01000000
00000000
00100000
10000000
,
00000000
00010000
01000000
00000000
00100000
10000000
00000000
00010000
,
01000000
00000000
00010001
10001000
,
10011001
00000000
00000000
00000000
;

//---------------dance-solo - ----------------
#NOTES:
     dance-solo:
     :
     Easy:
     3:
     :
000000
000000
000000
000000
,
000000
000000
000000
000000
,
000000
000000
000000
000000
,
000000
000000
000000
000000
,
000000
000000
000000
000000
,
010000
010000
000000
000000
,
001000
001000
000000
000000
,
000010
000000
000001
000000
,
100000
000100
001000
000001
,
010000
000000
000000
000100
,
001000
000000
000000
000001
,
100000
000000
000100
000000
,
001000
000010
001000
000010
,
010000
010000
000000
000001
,
100000
100000
000000
100001
,
001000
000000
001000
000010
,
100000
000000
000000
000100
,
001000
000001
100000
000010
,
001000
000000
001000
000000
,
000100
001000
000010
001000
,
000001
000000
000001
100000
,
000100
000000
000000
001000
,
000010
000000
000010
000000
,
001000
001000
000001
100000
,
100001
000000
000000
001000
,
000010
100000
000001
010000
,
000100
000000
001000
000000
,
000001
001000
000010
100000
,
000100
000000
001000
000001
,
010000
000000
000001
000000
,
001000
000000
000010
100000
,
000001
001000
000100
100000
,
000010
000000
000000
000000
,
001000
000000
000000
000000
,
000010
001000
000010
100000
,
000001
000000
000000
000000
,
010000
001000
010000
000000
,
000001
000000
000001
000000
,
000100
000000
000001
100000
,
001000
000000
001000
100000
,
000010
000000
000000
000000
,
000000
000000
000000
000000
,
001000
000010
010000
000100
,
100000
100000
000001
001000
,
000100
000000
000000
000000
,
100000
100000
100000
100000
,
000001
001000
000100
100000
,
000010
001000
000100
100000
,
000001
000000
010000
001000
;

//---------------dance-solo - ----------------
#NOTES:
     dance-solo:
     :
     Medium:
     5:
     :
000000
000000
000000
000000
,
000000
000000
000000
000000
,
000000
000000
000000
000000
,
000000
000000
000000
000000
,
000000
000000
000000
000000
,
000010
000000
100000
000000
000001
010000
001000
000000
,
000100
000000
000010
000000
100000
000001
000100
000000
,
001000
100001
001000
000010
,
100000
000100
001000
000010
,
001000
000100
001000
000000
000001
010000
000001
000000
,
000100
000001
100000
000000
100000
000010
001000
000000
,
000001
001000
000100
100000
,
000010
100000
000010
001000
,
000001
000000
100000
000001
100000
000001
000100
000000
,
001000
000000
000010
100000
000010
100000
000001
000000
,
010000
001000
010000
001000
,
100010
000000
000000
000000
001000
000010
100000
000001
,
000100
000000
000100
000000
001000
000001
010000
000001
,
100000
000000
100000
000100
001000
000000
001000
000010
,
100000
000000
000001
001000
,
000100
000000
000000
000000
010000
000000
000001
100000
,
000100
000100
001000
000000
,
000001
000001
000000
100000
,
000100
000000
001000
000000
000010
000000
100000
000001
,
100000
000000
000000
000000
000010
001000
000001
100000
,
000010
000000
000010
000000
001000
000100
100000
000001
,
010000
000000
010000
001000
100000
000000
100000
000100
,
001000
000000
000001
100000
,
000010
000000
000000
000000
001000
000000
000100
010000
,
000001
010001
000000
000000
,
001000
001000
000000
000010
,
100000
000000
000100
000000
001000
000000
000001
000100
,
000001
010000
001000
100000
000100
001000
000100
100000
,
000010
000000
000000
001000
000001
000000
010001
000000
,
100000
100000
100000
100000
,
000010
000000
000000
001000
000100
000000
100100
000000
,
000001
000000
001000
000010
000000
000000
100000
000000
,
000001
000000
000001
010000
001000
000000
000000
000000
,
001000
000000
000000
000000
001000
010000
000001
100000
,
000100
000000
000100
001000
,
000010
100000
000001
001000
,
000001
010000
000001
010000
000001
010000
000001
000000
,
100000
000010
000000
001000
000010
000000
100000
000001
,
000000
001000
000100
000000
100000
000010
000000
010000
,
000001
000000
001000
001000
,
000010
100000
000100
001000
,
000001
010000
000000
010000
001000
000000
100000
000010
,
000000
000010
001000
000000
000001
100000
000000
000100
,
001000
000001
010000
010001
,
100010
000000
000000
000000
;

//---------------dance-solo - ----------------
#NOTES:
     dance-solo:
     :
     Hard:
     7:
     :
000000
000000
000000
000000
,
000000
000000
000000
000000
,
000000
000000
000000
000000
,
000000
000000
000000
000000
,
000000
000000
000000
000000
100000
000010
010000
000001
,
001000
000000
001010
000001
100000
000000
000100
000000
,
001000
000000
000010
001000
000001
000000
100000
000000
,
001000
000010
100000
000000
000010
001000
000001
000000
,
000001
000000
100000
000000
001000
000010
000001
000000
,
000001
001000
100000
001000
000001
000000
010000
000000
,
001000
000000
000001
010000
000100
000000
100100
000000
,
010000
000001
100000
000010
,
000010
001000
000001
100000
,
000010
001010
010000
011000
,
000001
010001
011000
101000
,
000100
000001
100000
000010
010000
000001
001000
000100
,
100000
000000
000000
000000
000010
001000
000001
001000
,
000100
000000
000000
100000
000010
000000
000001
010000
,
001000
000000
000000
100000
000001
000000
001000
001000
,
000100
000000
000000
001000
000010
100000
000001
010000
,
001000
000000
100000
000100
001000
000000
000001
000001
,
010000
000000
000000
010000
000000
000000
000100
000000
000000
000000
100000
000000
000000
000000
001000
000000
,
000000
000100
000001
000000
000001
000000
100000
000000
,
001000
001000
000100
100000
,
000001
000000
000000
000000
000001
010000
010000
001000
,
001000
100000
000100
000100
,
000001
000000
000000
000000
001000
000100
100000
100000
,
000010
001000
000001
100000
,
000100
000000
001000
000010
100000
000000
000001
000001
,
001000
000000
000000
001000
000000
000000
000100
000000
000000
000000
100000
000000
000000
000000
001000
000000
,
000000
100000
000001
000000
001000
000000
000100
000000
,
001000
000100
001000
100000
,
000001
010000
000001
001000
000000
000100
100000
000001
,
000001
000000
000000
000001
001000
000000
000100
001000
000000
000000
000000
000000
100000
000000
000000
000000
,
000010
001000
000100
001000
,
000001
000000
000000
000001
100000
000000
000100
001000
000000
000000
000000
000000
001000
000000
000000
000000
,
000001
010001
000101
000000
,
001000
000010
001000
000000
000001
000000
100000
000000
,
010000
000000
000001
000000
100000
000000
100010
000010
,
001000
000000
000001
000000
010000
000000
000010
000000
100000
000000
000000
100000
000000
000000
001000
000000
,
010000
000001
100000
000100
,
001000
000000
000000
000000
000010
000000
000000
000000
100000
000000
000001
000000
100000
000001
000000
000000
,
010000
010000
000000
010000
001000
000000
100000
000010
,
000000
001000
000001
000000
010000
000100
000000
100000
,
000001
001100
001010
001001
,
100000
100000
010000
011000
,
000001
100000
000100
100000
001000
000010
010000
000001
,
100000
000100
001000
000010
100000
000001
000000
001000
,
000100
000000
000100
000000
100000
000010
001000
000001
,
100001
000000
000000
000000
;
