
//----- song ID: hypn -----//
#TITLE:HYPNØTIC CRISIS;
#ARTIST:BLUE DESTROYERS;
#BANNER:HYPNOTIC CRISIS.png;
#BACKGROUND:HYPNOTIC CRISIS-bg.png;
#CDTITLE:./CDTITLES/DANCE DANCE REVOLUTION 4THMIX.PNG;
#MUSIC:HYPNOTIC CRISIS.ogg;
#SAMPLESTART:72.892;
#SAMPLELENGTH:15;
#DISPLAYBPM:135;
#BPMS:0=135.007;

//---------------dance-single - ----------------
#NOTES:
     dance-single:
     :
     Beginner:
     2:
     :
0000
0000
0000
0000
,
0000
0000
0000
0000
,
0000
0000
0000
0000
,
0000
0000
0000
0000
,
0000
0000
0000
0000
,
0000
0000
1000
1000
,
0000
0010
0000
1000
,
0000
0100
0000
0010
,
0000
0010
0000
0100
,
0000
0010
0000
0110
,
0000
0010
0000
0110
,
0000
0100
0000
0010
,
0000
0010
0000
0100
,
0000
1000
0000
1001
,
0000
0001
0000
1001
,
0000
0001
0000
1001
,
0000
1000
0000
1001
,
0000
0001
0000
0100
,
0000
0010
0000
0001
,
0000
0000
0010
0010
,
0000
0000
0100
0100
,
0100
0000
0001
0001
,
0001
0000
1000
1000
,
0000
0010
0000
0100
,
0000
0010
0000
0000
,
1001
0000
0010
0000
,
1001
0000
0010
0000
,
1001
0000
0010
0000
,
1001
0000
0010
0000
,
1001
1001
0000
0000
,
1001
1001
0000
0000
,
1001
1001
0000
0000
,
1001
1001
0000
0000
,
1001
0000
0100
0000
,
1001
0000
0010
0000
,
1001
0000
0100
0000
,
1001
0000
0010
0000
,
0010
0010
0010
0000
,
0100
0100
0100
0000
,
0001
0001
0001
0000
,
1000
1000
1000
0000
,
0010
0000
0100
0000
,
0010
0000
0100
0000
,
0001
0000
1000
0000
,
0001
0000
1000
1000
,
1000
0000
0010
0000
,
0110
0000
1000
0000
,
0010
0000
0100
0000
,
1001
0000
0110
0000
,
1001
0000
0000
0000
;

//---------------dance-single - ----------------
#NOTES:
     dance-single:
     :
     Easy:
     5:
     :
0000
0000
0000
0000
,
0000
0000
0000
0000
,
0000
0000
0000
0000
,
0000
0000
0000
0000
,
0000
0000
0000
0000
,
1001
0100
1000
0001
,
0100
0010
0001
1000
,
0010
0100
0010
0010
,
0100
0010
0100
0100
,
1000
0010
0100
0110
,
0001
0010
0100
0110
,
0010
0100
0010
0010
,
0100
0010
0100
0100
,
0010
1000
0001
1001
,
0010
0001
1000
1001
,
0100
0001
1000
1001
,
0100
1000
0001
1001
,
0010
1000
0001
0000
0100
0000
0100
0000
,
0010
0000
0010
0000
0100
1000
0001
0000
,
0010
0100
0010
0010
,
0100
0010
0100
0100
,
1000
0010
0100
0000
0001
0000
0001
0000
,
1000
0000
1000
0000
0001
0010
0100
0000
,
0010
0100
0010
0010
,
0100
0010
0100
0100
,
0010
1000
0001
0000
0010
0000
0010
0000
,
0010
0001
1000
0000
0010
0000
0010
0000
,
0010
1000
0001
0000
0010
0000
0010
0000
,
0010
0001
1000
0000
0010
0000
0010
0000
,
1001
0010
0100
0010
,
1001
0110
0001
1000
,
1001
0010
0100
0010
,
1001
0110
0001
1000
,
1001
0010
0100
0010
,
1001
0110
0001
1000
,
1001
0010
0100
0010
,
1001
0110
0001
1000
,
0010
0000
0100
0000
0001
0100
1000
0000
,
0010
0000
0010
0000
0001
0100
1000
0000
,
0010
0000
0100
0000
0001
0100
1000
0000
,
0010
0000
0010
0000
0001
0100
1000
0000
,
0010
0100
0010
1001
,
0110
0001
1000
0100
,
0010
0010
0100
0010
,
0100
0100
0000
0000
,
0010
0100
0010
1001
,
0110
0001
1000
0100
,
0010
0010
0100
0010
,
0100
0100
0010
0100
,
1001
0000
0000
0000
;

//---------------dance-single - ----------------
#NOTES:
     dance-single:
     :
     Medium:
     6:
     :
0000
0000
0000
0000
,
0000
0000
0000
0000
,
0000
0000
0000
0000
,
0000
0000
0000
0000
,
0000
0000
0000
0000
,
0010
0000
0100
0000
1000
0001
0100
0000
,
0010
0000
0100
0000
0001
1000
0100
0000
,
1000
0000
0010
0000
0001
0000
0100
0001
,
0010
0000
1100
0000
0010
1000
0100
0000
,
0010
0000
0100
0000
1000
0001
0100
0000
,
0010
0000
0100
0000
0001
1000
0100
0000
,
1000
0000
0010
0000
0001
0000
0100
0001
,
0010
1100
0010
0100
,
0011
0000
1000
0000
0001
0100
1000
0000
,
0110
0000
1000
0000
0001
0010
0100
0000
,
0110
0000
0001
0000
1000
0010
0100
0000
,
1010
0000
0001
0000
1000
0100
0001
0000
,
0010
0000
0100
0000
1000
0001
0100
0000
,
0010
0000
0100
0000
0001
1000
0100
0000
,
0011
0000
1000
0000
1100
0000
0001
1000
,
0100
0000
0011
0000
1000
0001
0100
0000
,
0010
0000
0100
0000
1000
0001
0100
0000
,
0010
0000
0100
0000
0001
1000
0100
0000
,
0011
0000
1000
0000
1100
0000
0001
1000
,
0100
0011
0100
0010
,
1000
0000
1100
0000
0001
0000
0010
0001
,
1000
0000
1100
0000
0010
0000
0100
0001
,
0010
0000
1100
0000
0001
0000
1000
0001
,
0010
1100
0010
0100
,
0100
0000
0100
0000
0100
1000
0001
0100
,
0010
0010
1000
0001
,
0100
0000
0100
0000
0100
0001
1000
0100
,
0010
0010
0001
1000
,
0001
0000
0101
0000
1000
0100
0001
0100
,
1000
0010
0100
0010
,
1000
0000
1100
0000
0001
0100
1000
0100
,
0001
0010
0100
0010
,
1001
0000
0010
0000
1000
0100
1000
0010
,
1000
0101
1000
1100
,
1001
0000
0010
0000
0001
0100
0001
0010
,
0001
1100
0001
0101
,
0010
0000
0100
0000
1000
0001
0100
0001
,
0010
0000
0100
0000
0001
1000
0100
1000
,
0010
0101
1000
1100
,
0000
0000
0000
0000
0000
0000
0000
0000
0000
0010
0000
1000
0000
0001
0000
0000
,
0010
0000
0100
0000
1000
0001
0100
0001
,
0010
0000
0100
0000
0001
1000
0100
1000
,
0010
0101
1000
1100
,
0001
1000
0100
0000
1000
0001
0100
0000
,
0010
0000
0000
0000
;

//---------------dance-single - ----------------
#NOTES:
     dance-single:
     :
     Hard:
     9:
     :
0000
0000
0000
0000
,
0000
0000
0000
0000
,
0000
0000
0000
0000
,
0000
0000
0000
0000
,
0000
0000
0000
0000
,
1000
0100
0000
0000
0001
0100
0000
0000
1000
0000
0010
0000
0100
0000
0001
0000
,
0100
0000
1001
0000
0010
0100
0001
1000
,
0000
0010
0000
0101
0000
0010
0000
1100
,
0000
0010
0000
0100
0000
1000
0001
0000
,
0010
0001
0000
0000
0010
1000
0000
0000
0100
0000
0010
0000
0001
0000
0100
0000
,
0010
0000
1001
0000
0010
0100
1000
0001
,
0000
0100
0000
1010
0000
0100
0000
0011
,
0000
1000
0000
0010
0000
0100
0001
0000
,
0010
0000
1000
0000
0001
0000
0100
0000
0000
0010
0000
0100
1000
0000
0000
0000
,
0001
0000
0010
0000
0100
0000
1000
0000
0000
0001
0000
0010
0100
0000
0000
0000
,
1000
0000
0100
0000
0001
0000
0100
0000
0000
0010
0000
0001
1000
0000
0000
0000
,
1000
0000
0010
0000
0001
0000
0010
0000
0000
0100
0000
0001
1000
0000
0000
0000
,
1000
0010
0000
0000
0001
0100
0000
0000
1000
0000
0010
0000
0100
0000
0001
0000
,
0010
0000
1100
0000
0010
0001
0100
1000
,
0000
0110
0000
0001
0000
0010
0000
1100
,
0000
0011
0000
0100
0000
1000
0001
0000
,
0010
0100
0000
0000
0010
1000
0000
0000
0100
0000
0001
0000
0010
0000
0100
0000
,
1000
0000
0011
0000
1000
0100
0001
0100
,
0000
1001
0000
0010
0000
0100
0000
0011
,
0000
0101
0000
1000
0000
0001
0010
0000
,
0010
0000
1000
0000
0100
0000
0001
0000
0000
0010
0000
0001
0100
0000
0000
0000
,
0010
0000
0001
0000
0100
0000
1000
0000
0000
0010
0000
1000
0100
0000
0000
0000
,
0100
0000
1000
0000
0010
0000
0001
0000
0000
0100
0000
0001
0010
0000
0000
0000
,
0100
0000
0001
0000
0010
0000
1000
0000
0000
0100
0000
1000
0010
0000
0000
0000
,
1000
0001
0000
0000
0010
0000
1000
0000
0001
0000
0010
0000
0100
0000
0000
0000
,
1000
0100
0000
0000
0001
0100
0000
0000
1000
0000
0010
0000
0001
0000
0000
0000
,
0010
0100
0000
0000
0001
0000
0010
0000
0100
0000
1000
0000
0010
0000
0000
0000
,
0001
0100
0000
0000
0100
1000
0000
0000
0100
0000
0001
0000
0010
0000
0000
0000
,
0001
1000
0000
0000
0010
0000
1000
0000
0100
0000
1000
0000
0010
0000
0000
0000
,
0001
0100
0000
0000
1000
0100
0000
0000
0010
0000
0001
0000
0100
0000
0000
0000
,
0100
0010
0000
0000
0001
0000
0010
0000
1000
0000
0010
0000
0001
0000
0000
0000
,
1000
0100
0000
0000
0100
0001
0000
0000
1000
0000
0100
0000
0001
0000
0000
0000
,
0001
0100
0000
0000
1000
0000
0010
0000
0100
0000
0010
0000
1000
0000
0000
0000
,
1000
0001
0000
0000
0010
0100
0000
0000
1000
0000
0001
0000
0100
0000
0000
0000
,
0010
1000
0000
0000
0001
0000
0010
0000
1000
0000
0010
0000
0100
0000
0000
0000
,
1000
0010
0000
0000
0010
0001
0000
0000
0001
0000
0010
0000
0100
0000
0000
0000
,
0010
1000
0100
1000
0010
0010
0010
0000
,
0100
0001
0010
0001
0100
0100
0100
0000
,
1000
0010
0100
0010
0001
0010
1000
0000
,
0101
0000
0000
0000
1100
0000
0000
0000
0000
0001
0000
0010
0000
1000
0000
0000
,
0010
0001
1000
0010
0100
0100
0100
0000
,
0100
0001
1000
0100
0010
0010
0010
0000
,
1000
0100
1000
0001
0100
0001
0010
0100
,
1000
0010
0001
0010
0100
0001
0010
0000
,
1001
0000
0000
0000
;

//---------------dance-double - ----------------
#NOTES:
     dance-double:
     :
     Easy:
     5:
     :
00000000
00000000
00000000
00000000
,
00000000
00000000
00000000
00000000
,
00000000
00000000
00000000
00000000
,
00000000
00000000
00000000
00000000
,
00000000
00000000
00000000
00000000
,
10000000
00100000
01000000
00010000
,
00100000
01000000
00010000
00001000
,
00000100
00000100
00000001
00000001
,
00000100
00000000
00000100
00000000
00001000
00000100
00000001
00000000
,
00000001
00000010
00000100
00001000
,
00000010
00000100
00001000
00010000
,
01000000
01000000
10000000
10000000
,
01000000
01000000
00010000
00010000
,
00001000
00010000
01000000
00010000
,
00010000
00001000
00000100
00001000
,
00001000
00010000
01000000
00010000
,
00010000
00001000
00000100
00001000
,
00000100
00000001
00000010
00001000
,
00000010
00000001
00000100
00001000
,
00010000
00010000
01000000
01000000
,
10000000
00000000
10000000
00000000
00010000
00100000
10000000
00000000
,
00100000
00010000
01000000
10000000
,
01000000
00010000
00100000
10000000
,
00100000
00100000
01000000
01000000
,
00010000
00010000
00001000
00001000
,
00000100
00001000
00010000
00010000
,
01001000
00010000
01001000
00010000
,
00000100
00001000
00010000
00010000
,
01001000
00010000
01001000
00010000
,
00001000
00000110
00000001
00000001
,
00000110
00001000
00010000
00010000
,
00010010
00001000
00010010
00001000
,
00000100
00000001
00001000
00010000
,
00010000
01100000
10000000
10000000
,
01100000
00010000
00001000
00001000
,
00101000
00010000
00101000
00010000
,
01000000
10000000
00100000
01000000
,
01100000
00100000
00100000
00100000
,
01000000
00010000
00001000
00000100
,
00000110
00000010
00000010
00000010
,
00000100
00001000
00010000
01000000
,
01000000
00010000
00001000
00000000
00000100
00000000
00000001
00000000
,
00001000
00000000
00010000
00000000
00000100
00001000
00010000
00000000
,
01000000
01000000
10000000
00100000
,
00010000
00010000
00000000
00000000
,
01000000
00010000
00001000
00000000
00000100
00000000
00000001
00000000
,
00001000
00000000
00010000
00000000
00000100
00001000
00010000
00000000
,
01000000
00010000
00001000
00000100
,
00000001
00000000
00000100
00000000
00001000
00000100
00000001
00000000
,
00000010
00000000
00000000
00000000
;

//---------------dance-double - ----------------
#NOTES:
     dance-double:
     :
     Medium:
     7:
     :
00000000
00000000
00000000
00000000
,
00000000
00000000
00000000
00000000
,
00000000
00000000
00000000
00000000
,
00000000
00000000
00000000
00000000
,
00000000
00000000
00000000
00000000
,
00001000
00000100
00000001
00000000
00000110
00000000
00001000
00000000
,
00010000
01000000
10000000
00000000
01100000
00000000
10000000
00000000
,
00100000
00000000
01000000
00000000
10000000
01000000
00010000
00001000
,
00000100
00000000
00000001
00000000
00000010
00010000
00001000
00000000
,
00010000
01000000
10000000
00000000
01100000
00000000
00010000
00000000
,
00001000
00000100
00000001
00000000
00000110
00000000
00000001
00000000
,
00001010
00000000
00000100
00000000
00000010
00000001
00000100
00001000
,
00010000
00000000
01100000
00000000
10000000
00010000
01000000
00000000
,
10000000
00000000
11000000
00000000
00100000
00010000
00001000
00000000
,
00010010
00000000
00001000
00000000
00000100
00001000
00000010
00000000
,
00001001
00000000
00000010
00000000
00000001
00000100
00001000
00000000
,
00000110
00000000
00001000
00000000
00010000
01000000
10000000
00000000
,
00010000
00001000
00000100
00000000
00000001
00000000
00000010
00000000
,
00001000
00010000
01000000
00000000
10000000
00000000
00100000
00000000
,
01010000
00000000
00100000
00000000
10000000
00100000
01000000
00010000
,
00100000
00000000
00101000
00000000
00010000
01000000
00010000
00000000
,
00010000
00001000
00000100
00000000
00000001
00000000
00000010
00000000
,
00001000
00010000
01000000
00000000
10000000
00000000
00100000
00000000
,
01010000
00000000
00100000
00000000
00001000
00010000
00001000
00000100
,
00000001
00000000
00000010
00000000
00000100
00001000
00010000
00000000
,
00010000
00000000
01001000
00000000
00010000
00000000
01000000
00010000
,
00001000
00000000
00010100
00000000
00001000
00000000
00000100
00001000
,
00010000
00000000
01001000
00000000
00010000
00000000
01000000
00010000
,
00001000
00010100
00001000
00000100
,
00000001
00000000
00000010
00000000
00000100
00000010
00000100
00001000
,
00000100
00000000
00001000
00000000
00010000
00001000
00010000
00100000
,
00010000
00000000
00100000
00000000
01000000
00100000
01000000
10000000
,
01000000
10000000
01000000
00010000
,
10000000
00000000
00100000
00000000
01000000
00100000
01000000
00010000
,
01000000
00000000
00010000
00000000
00001000
00010000
00001000
00000010
,
00001000
00000000
00000010
00000000
00000100
00000010
00000100
00000001
,
00000100
00000001
00000100
00001000
,
00000001
00000000
00000010
00000000
00000100
00000010
00000100
00001000
,
00000100
00000000
00001000
00000000
00010000
00001000
00010000
00100000
,
00010000
00000000
00100000
00000000
01000000
00100000
01000000
10000000
,
01000000
10000000
01000000
00010000
,
00100000
00000000
10000000
00000000
01000000
00010000
00001000
00000100
,
00000001
00000000
00000010
00000000
00000001
00000100
00001000
00010000
,
01000000
11000000
00110000
10000000
,
00000000
00000000
00000000
00000000
00000000
00000000
00000000
00000000
00000000
01000000
00000000
00100000
00000000
00010000
00000000
00000000
,
10000000
00000000
01000000
00000000
00100000
00010000
00001000
00010000
,
01000000
00000000
01100000
00000000
00010000
00001000
00000100
00000001
,
00000010
00001100
00010100
00011000
,
00100000
00010000
00001000
00000000
00000010
00001000
00010000
00000000
,
01100000
00000000
00000000
00000000
;

//---------------dance-double - ----------------
#NOTES:
     dance-double:
     :
     Hard:
     9:
     :
00000000
00000000
00000000
00000000
,
00000000
00000000
00000000
00000000
,
00000000
00000000
00000000
00000000
,
00000000
00000000
00000000
00000000
,
00000000
00000000
00000000
00000000
,
00100000
00010000
00000000
00000000
01000000
00010000
00000000
00000000
10000000
00000000
01000000
00000000
00010000
00000000
00000000
00000000
,
00001000
00000100
00000001
00000000
00000001
00000010
00001000
00010000
,
00000000
01000000
00010000
00001000
00000000
00010100
00000000
00000100
,
00010000
00001000
00000000
00101000
00000000
00001000
00000100
00000000
,
00000010
00001000
00000000
00000000
00000100
00000001
00000000
00000000
00000100
00000000
00001000
00000000
00000010
00000000
00000000
00000000
,
00001000
00000001
00000010
00000000
00001000
00000010
00000001
00000010
,
00000000
00000100
00001000
00010000
00000000
01100000
00000000
00010000
,
10000000
01000000
00000000
00110000
00000000
01000000
00010000
00000000
,
00001000
00000000
01000000
00000000
00010000
00000000
00100000
00000000
00000000
00001000
00000000
00010000
01000000
00000000
00000000
00000000
,
10000000
00000000
00100000
00000000
00010000
00000000
00001000
00000000
00000000
00000010
00000000
00000001
00000100
00000000
00000000
00000000
,
00000010
00000000
00010000
00000000
00001000
00000000
00000100
00000000
00000000
00001000
00000000
00010000
01000000
00000000
00000000
00000000
,
00010000
00000000
00001000
00000000
00000100
00000000
00001000
00000000
00000000
00001000
00000000
00000100
00000001
00000000
00000000
00000000
,
00000001
00000010
00000000
00000000
00001000
00010000
00000000
00000000
00001000
00000000
00000100
00000000
00000001
00000000
00000000
00000000
,
00000100
00001000
00010000
00000000
01000000
00010000
01000000
00010000
,
00000000
00001000
00000100
00000001
00000000
00000110
00000000
00001000
,
00010000
01000000
00000000
11000000
00000000
00100000
01000000
00000000
,
00010000
00100000
00000000
00000000
00010000
10000000
00000000
00000000
00100000
00000000
00010000
00000000
00001000
00000000
00000000
00000000
,
00000100
00001000
00000100
00000000
00000001
00000100
00001000
00010000
,
00000000
00000010
00001000
00010000
00000000
00010100
00000000
00001000
,
00010000
01000000
00000000
10010000
00000000
10000000
01000000
00000000
,
00100000
00000000
10000000
00000000
00010000
00000000
00100000
00000000
00000000
01000000
00000000
00010000
00001000
00000000
00000000
00000000
,
00001000
00000000
00010000
00000000
00001000
00000000
00000100
00000000
00000000
00000001
00000000
00000100
00001000
00000000
00000000
00000000
,
00000010
00000000
00010000
00000000
00001000
00000000
00000100
00000000
00000000
00001000
00000000
00010000
01000000
00000000
00000000
00000000
,
10000000
00000000
00100000
00000000
00010000
00000000
00001000
00000000
00000000
00010000
00000000
01000000
10000000
00000000
00000000
00000000
,
10000000
01000000
00000000
00000000
00100000
00000000
00010000
00000000
01000000
00000000
00001000
00000000
00010000
00000000
01000000
00000000
,
10000000
01000000
00000000
00000000
00010000
01000000
00000000
00000000
10000000
00000000
01000000
00000000
00010000
00000000
00001000
00000000
,
00000100
00000001
00000000
00000000
00000010
00000000
00000001
00000000
00001000
00000000
00000010
00000000
00000100
00000000
00000001
00000000
,
00000100
00001000
00000000
00000000
00010000
01000000
00000000
00000000
00010000
00000000
00001000
00000000
00000100
00000000
00000001
00000000
,
00000010
00001000
00000000
00000000
00000010
00000000
00000100
00000000
00001000
00000000
00000010
00000000
00000100
00000000
00001000
00000000
,
00010000
00100000
00000000
00000000
00010000
00001000
00000000
00000000
00010000
00000000
01000000
00000000
10000000
00000000
00100000
00000000
,
01000000
00010000
00000000
00000000
00100000
00000000
01000000
00000000
10000000
00000000
00100000
00000000
10000000
00000000
01000000
00000000
,
00010000
01000000
00000000
00000000
00010000
00001000
00000000
00000000
00000100
00000000
00000001
00000000
00000100
00000000
00000001
00000000
,
00000010
00000100
00000000
00000000
00001000
00000000
00000010
00000000
00000100
00000000
00000001
00000000
00000100
00000000
00001000
00000000
,
00010000
00001000
00000000
00000000
00000100
00001000
00000000
00000000
00010000
00000000
01000000
00000000
00100000
00000000
00010000
00000000
,
10000000
00100000
00000000
00000000
01000000
00000000
00010000
00000000
00100000
00000000
10000000
00000000
00100000
00000000
00010000
00000000
,
10000000
00100000
00000000
00000000
01000000
00010000
00000000
00000000
10000000
00000000
01000000
00000000
10000000
00000000
00000000
00000000
,
00110000
00000000
00101000
00000000
00010000
01000000
10000000
00000000
,
00110000
00000000
00101000
00000000
00010000
00001000
00000100
00000000
,
00000010
00001000
00000100
00000000
00000010
00010000
00001000
00000000
,
00010000
00000000
01000000
00000000
00010000
00000000
00001000
00000000
00000000
00000100
00000000
00000001
00000000
00001000
00000000
00000000
,
00000010
00000000
00010010
00000000
00001000
00000100
00000001
00000000
,
00001010
00000000
00010010
00000000
00001000
00010000
01000000
00000000
,
00100000
00010000
01000000
00000000
00001000
00010000
01000000
00000000
,
00010000
00001000
00000100
00000001
00001000
00000001
00000100
00000000
,
00000010
00000000
00000000
00000000
;

//---------------dance-couple - ----------------
#NOTES:
     dance-couple:
     :
     Challenge:
     7:
     :
00000000
00000000
00000000
00000000
,
00000000
00000000
00000000
00000000
,
00000000
00000000
00000000
00000000
,
00000000
00000000
00000000
00000000
,
00000000
00000000
00000000
00000000
,
00100001
00000000
01000000
00000000
10000000
00010000
01000000
00000000
,
00100001
00000000
01000000
00000000
00010000
10000000
01000000
00000000
,
10000001
00000000
00100000
00000000
00010000
00000000
01000000
00010000
,
00100001
00000000
11000000
00000000
00100000
10000000
01000000
00000000
,
00010010
00000000
00000100
00000000
00001000
00000001
00000100
00000000
,
00010010
00000000
00000100
00000000
00000001
00001000
00000100
00000000
,
00011000
00000000
00000010
00000000
00000001
00000000
00000100
00000001
,
00010010
00000000
00001100
00000000
00000010
00001000
00000100
00000000
,
10011000
00000000
00100000
00000000
10000000
01000000
00010000
00000000
,
10001001
00000000
00000010
00000000
00001000
00000100
00000001
00000000
,
00111000
00000000
11000000
00000000
00100000
00010000
01000000
00000000
,
10000011
00000000
00001100
00000000
00000010
00000001
00000100
00000000
,
10000001
01000000
00000000
00000000
00010000
01000000
00000000
00000000
10000000
00000000
01000000
00000000
00010000
00000000
00100000
00000000
,
10000001
00000000
01100000
00000000
00010000
10000000
00100000
01000000
,
00000001
01010000
00000000
11000000
00000000
00100000
00000000
01000000
,
00000001
00010000
00000000
10000000
00000000
00100000
01000000
00000000
,
00011000
00000100
00000000
00000000
00000001
00000100
00000000
00000000
00001000
00000000
00000100
00000000
00000001
00000000
00000010
00000000
,
00011000
00000000
00000110
00000000
00000001
00001000
00000010
00000100
,
00010000
00000101
00000000
00001100
00000000
00000010
00000000
00000100
,
00010000
00000001
00000000
00001000
00000000
00000010
00000100
00000000
,
10000100
00000000
01000000
00000000
00100000
00000000
00010000
00000000
00000000
10000000
00000000
00010000
01000000
00000000
00000000
00000000
,
01001000
00000000
00000100
00000000
00000010
00000000
00000001
00000000
00000000
00001000
00000000
00000001
00000100
00000000
00000000
00000000
,
00100100
00000000
10000000
00000000
01000000
00000000
00100000
00000000
00000000
00010000
00000000
10000000
01000000
00000000
00000000
00000000
,
01000010
00000000
00001000
00000000
00000100
00000000
00000010
00000000
00000000
00000001
00000000
00001000
00000100
00000000
00000000
00000000
,
00100010
01000100
00000000
00000000
10001000
00000000
01000100
00000000
00010001
00000000
01000100
00000000
10001000
00000000
00000000
00000000
,
00000001
00000100
00000000
00000000
00001000
00000100
00000000
00000000
00000010
00000000
00001000
00000000
00000100
00000000
00000000
00000000
,
00010001
01000100
00000000
00000000
00100010
00000000
10001000
00000000
01000100
00000000
10001000
00000000
00100010
00000000
00000000
00000000
,
00010000
01000000
00000000
00000000
10000000
01000000
00000000
00000000
00100000
00000000
10000000
00000000
01000000
00000000
00000000
00000000
,
00100010
00010001
00000000
00000000
10001000
00000000
01000100
00000000
00010001
00000000
01000100
00000000
10001000
00000000
00000000
00000000
,
00000001
00000010
00000000
00000000
00001000
00000010
00000000
00000000
00000001
00000000
00001000
00000000
00000100
00000000
00000000
00000000
,
00010001
01000100
00000000
00000000
00100010
00000000
10001000
00000000
00010001
00000000
00100010
00000000
01000100
00000000
00000000
00000000
,
00010000
00100000
00000000
00000000
10000000
00100000
00000000
00000000
00010000
00000000
10000000
00000000
01000000
00000000
00000000
00000000
,
00010001
10001000
00000000
00000000
00100010
00000000
01000100
00000000
00010001
00000000
10001000
00000000
00100010
00000000
00000000
00000000
,
00000001
00000100
00000000
00000000
00000010
00001000
00000000
00000000
00000001
00000000
00000010
00000000
00000100
00000000
00000000
00000000
,
10001000
01000100
00000000
00000000
00100010
00000000
10001000
00000000
00010001
00000000
10001000
00000000
01000100
00000000
00000000
00000000
,
00010000
01000000
00000000
00000000
00100000
10000000
00000000
00000000
00010000
00000000
00100000
00000000
01000000
00000000
00000000
00000000
,
00100010
00010001
00100010
01000100
10001000
01000100
10001000
00000000
,
00100010
10001000
01000100
00100010
10001000
00100010
00010001
00000000
,
00010001
10001000
00010001
00100010
01000100
10001000
00010001
00000000
,
00100010
00000000
10001000
00000000
00010001
00000000
00000000
00000000
00000000
01000100
00000000
10001000
00000000
00010001
00000000
00000000
,
00100010
10001000
01000100
00100010
00010001
00100010
01000100
00000000
,
10001000
01000100
00010001
01000100
00100010
00010001
10001000
00000000
,
00100010
10001000
01000100
10001000
00100010
01000100
00010001
00100010
,
00010001
01000100
00100010
00010001
00100010
01000100
00010001
00000000
,
10001000
00000000
00000000
00000000
;

//---------------dance-solo - ----------------
#NOTES:
     dance-solo:
     :
     Easy:
     4:
     :
000000
000000
000000
000000
,
000000
000000
000000
000000
,
000000
000000
000000
000000
,
000000
000000
000000
000000
,
000000
000000
000000
000000
,
000100
100000
001000
000100
,
001000
000001
000100
001000
,
000010
000010
000001
000001
,
000010
100000
000010
100000
,
001000
100000
000100
001000
,
000100
000001
001000
000100
,
100000
100000
010000
010000
,
100000
000010
100000
000010
,
000100
000001
001000
100001
,
001000
100000
000100
010010
,
000100
000001
100000
000100
,
010010
001000
000001
100000
,
000010
001000
000001
000001
,
010000
001000
100000
100000
,
000100
100000
000001
000100
,
001000
100000
000001
001000
,
000001
000100
000010
000010
,
100000
000100
010000
010000
,
000010
000100
010000
000100
,
000001
100000
000100
000100
,
000010
100000
000100
000001
,
010000
000001
000100
100000
,
010000
000010
001000
000001
,
010000
000010
001000
000001
,
100000
000100
001010
000001
,
100000
000100
001010
000001
,
000001
000100
011000
100000
,
000001
000100
011000
100000
,
000001
000010
100000
100000
,
001000
000001
000010
100000
,
100000
010000
000001
000001
,
001000
100000
010000
000001
,
000100
000000
001000
000000
000010
001000
000001
000000
,
000100
000000
000100
000000
000010
100000
000001
000000
,
000100
000000
001000
000000
000010
001000
000001
000000
,
000100
000000
000100
000000
000010
100000
000001
000000
,
000010
100000
001000
100001
,
001000
000010
100000
100001
,
000010
100000
100000
010000
,
000001
000001
000000
000000
,
000010
100000
001000
100001
,
001000
000010
100000
100001
,
000010
100000
100000
010000
,
000001
000001
000100
001000
,
100001
000000
000000
000000
;

//---------------dance-solo - ----------------
#NOTES:
     dance-solo:
     :
     Medium:
     6:
     :
000000
000000
000000
000000
,
000000
000000
000000
000000
,
000000
000000
000000
000000
,
000000
000000
000000
000000
,
000000
000000
000000
000000
,
010100
000000
100000
000000
000100
000010
000001
000000
,
001100
000001
000100
010010
,
000100
000000
000001
000000
000010
010000
100000
000100
,
000010
000000
100001
000000
000100
001000
000001
000000
,
000110
000000
000001
000000
000100
010000
100000
000000
,
001100
100000
000100
010010
,
100001
000000
000100
000000
000010
100000
000100
001000
,
000001
100100
000001
001000
,
000100
000010
000001
000000
001100
000000
000001
000000
,
000100
100000
010000
000000
010001
000000
001000
000000
,
000100
000010
000001
000000
001010
000000
000001
000000
,
000100
100000
010000
000000
010010
000000
100001
000000
,
100100
000000
000001
000000
000010
001000
000001
000000
,
000101
000000
100000
000000
010000
001000
100000
000000
,
010001
000000
000100
000000
001000
000001
000100
000010
,
000001
000000
001100
000000
100000
000001
000100
000000
,
100100
000000
000001
000000
000010
001000
000001
000000
,
000101
000000
100000
000000
010000
001000
100000
000000
,
010000
000000
000001
000000
000100
000010
100000
000100
,
010000
000000
100001
000000
000100
000010
000001
000000
,
000100
000000
010000
000000
100000
000000
000100
000010
,
000001
000000
000100
000000
010000
000000
100000
000100
,
000010
000000
001000
000000
000001
000000
100000
001000
,
010000
000010
001000
100001
,
001010
000000
000001
000000
000100
000000
000010
100000
,
000001
000000
000110
000000
001000
000000
010000
000001
,
100000
000000
100010
000000
001000
000000
000010
100000
,
000001
000000
000100
000000
110000
000000
010000
000001
,
100000
000000
001100
000000
000100
000010
100000
000001
,
010000
000000
101000
000000
000001
000000
000100
001000
,
000001
000000
011000
000000
000100
010000
000001
100000
,
000010
000000
001001
000000
100000
000000
000100
001000
,
100000
000000
000101
000000
100000
000100
010000
001000
,
100000
000000
000001
000000
001001
000000
000100
000001
,
001000
000000
101000
000000
000001
000100
000010
001000
,
000001
000000
100000
000000
000100
000000
001000
100000
,
000001
000000
001001
000000
001010
000000
000001
100000
,
001000
000000
010001
000000
101000
000000
000100
100000
,
001000
001001
000100
010010
,
000000
000000
000000
000000
000000
000000
000000
000000
000000
000010
000000
001000
000000
000001
000000
000000
,
100010
000000
001000
000000
010001
000000
000100
000010
,
000001
000000
001100
000000
000001
000000
000100
010000
,
100000
000100
010010
000100
,
100000
000001
001000
000000
000010
001000
000001
000000
,
000100
000000
000000
000000
;

//---------------dance-solo - ----------------
#NOTES:
     dance-solo:
     :
     Hard:
     8:
     :
000000
000000
000000
000000
,
000000
000000
000000
000000
,
000000
000000
000000
000000
,
000000
000000
000000
000000
,
000000
000000
000000
000000
,
001000
000010
000000
000000
001000
000001
000000
000000
000100
000000
000001
000000
001000
000000
000000
000000
,
001000
000010
000001
000000
000100
001000
000001
000010
,
000000
000000
110000
000000
000000
000000
000001
000000
000000
000000
100000
000000
000010
000100
000000
000000
,
000000
100001
000000
001000
000000
000010
010000
000000
,
001000
010000
000000
000000
001000
100000
000000
000000
000100
000000
100000
000000
001000
000000
000000
000000
,
001000
010000
100000
000000
000100
001000
100000
010000
,
000000
001010
000000
000001
000000
000010
001000
100000
,
000000
000010
000000
001001
000000
000100
001000
000000
,
000100
000000
000010
000000
010000
000000
000100
000000
000000
001000
000000
000001
100000
000000
000000
000000
,
001000
000000
100000
000000
000001
000000
001000
000000
000000
000100
000000
010000
000010
000000
000000
000000
,
010000
000000
001000
000000
100000
000000
000100
000000
000000
010000
000000
001000
100000
000000
000000
000000
,
000010
000000
001000
000000
000001
000000
000100
000000
000000
000010
000000
001000
000001
000000
000000
000000
,
000010
000100
000000
000000
010000
000100
000000
000000
100000
000000
000001
000000
001000
000000
000000
000000
,
000010
001000
000001
000000
010000
000100
001000
000001
,
000000
000100
000000
100010
000000
001000
000001
000100
,
000000
101000
000000
000100
000000
010000
000010
000000
,
010000
000100
000000
000000
000010
000100
000000
000000
000001
000000
100000
000000
001000
000000
000000
000000
,
010000
001000
100000
000000
000010
000100
001000
100000
,
000000
000010
000000
000001
000000
000100
010000
001000
,
000000
100000
000000
010001
000000
001000
000010
000000
,
000010
000000
100000
000000
000001
000000
010000
000000
000000
000001
000000
100000
001000
000000
000000
000000
,
010000
000000
000001
000000
100000
000000
000010
000000
000000
100000
000000
000001
001000
000000
000000
000000
,
000010
000000
010000
000000
000100
000000
001000
000000
000000
000001
000000
100000
000100
000000
000000
000000
,
010000
000000
000010
000000
001000
000000
000100
000000
000000
001000
000000
000100
100000
000000
000000
000000
,
010000
000010
000000
000000
001000
000000
000001
000000
000100
000000
100000
000000
000100
000000
000000
000000
,
010000
000001
000000
000000
000010
100000
000000
000000
000100
000000
100000
000000
001000
000000
000000
000000
,
000100
000001
000000
000000
001000
000000
000010
000000
001000
000000
000001
000000
100000
000000
000000
000000
,
010000
001000
000000
000000
100000
000001
000000
000000
000100
000000
000001
000000
001000
000000
000000
000000
,
000010
000001
000000
000000
010000
000000
100000
000000
000100
000000
000001
000000
000010
000000
000000
000000
,
010000
001000
000000
000000
000010
001000
000000
000000
100000
000000
001000
000000
000001
000000
000000
000000
,
100000
000001
000000
000000
000100
000000
000001
000000
100000
000000
000010
000000
010000
000000
000000
000000
,
100000
000100
000000
000000
000100
000001
000000
000000
000100
000000
100000
000000
001000
000000
000000
000000
,
000001
001000
000000
000000
000100
000000
100000
000000
000001
000000
000100
000000
001000
000000
000000
000000
,
100000
000010
000000
000000
000001
010000
000000
000000
000100
000000
100000
000000
000001
000000
000000
000000
,
001000
000100
000000
000000
000010
000000
100000
000000
001000
000000
010000
000000
000001
000000
000000
000000
,
100000
001000
000000
000000
000001
010000
000000
000000
001000
000000
100000
000000
000001
000000
000000
000000
,
000001
010000
000100
100000
000010
000100
000001
000000
,
000010
001000
000001
010000
001000
100000
000001
000000
,
010000
000001
100000
001000
000100
000001
001000
000000
,
000010
000000
100000
000000
000001
000000
000000
000000
000000
100000
000000
000100
000000
000001
000000
000000
,
000100
100000
000010
000001
000100
001000
000001
000000
,
010000
000010
000100
000001
001000
000001
000100
000000
,
000010
001000
000100
100000
010000
001000
000100
000000
,
000010
100000
000010
000001
000100
010000
100000
000000
,
001100
000000
000000
000000
;
